#TITLE:Boomtown;
#SUBTITLE:;
#ARTIST:Emoticon;
#TITLETRANSLIT:;
#SUBTITLETRANSLIT:;
#ARTISTTRANSLIT:;
#CREDIT:;
#BANNER:boomtown.png;
#BACKGROUND:boomtown-bg.png;
#LYRICSPATH:;
#CDTITLE:;
#MUSIC:boomtown.ogg;
#OFFSET:-0.004;
#SAMPLESTART:31.628;
#SAMPLELENGTH:12.000;
#SELECTABLE:YES;
#BPMS:0.000=182.000;
#STOPS:;
#BGCHANGES:;
#GENRE:Happy Hardcore;

//---------------dance-single - Renard----------------
#NOTES:
     dance-single:
     Renard:
     Challenge:
     10:
     0.765,0.777,0.190,0.268,0.223:
0000
0000
0000
0000
,
0000
0000
0000
0000
,
0000
0000
0000
0000
,
0000
0000
0000
0000
,
1000
0100
0010
0100
0010
0100
0010
1000
,
0010
0001
0010
0100
1000
0100
0001
0100
,
0010
0100
0010
0100
0010
0001
0010
0100
,
1000
0010
0100
0001
0100
0010
1000
0200
,
0020
0000
0000
0000
,
0000
0330
0000
0000
0000
0000
0000
0000
,
0001
0010
0100
0000
1001
0000
0010
0100
,
0000
1010
0000
0101
0010
1000
0010
0000
,
0100
0010
1000
0000
0101
0000
0010
1000
,
0000
0000
1001
0000
0000
0000
1000
0000
0001
0100
0000
0001
0100
0000
0001
0000
,
1001
0000
0100
0000
0010
0000
1000
0010
0000
0010
0100
0000
0001
0000
0010
0000
,
0100
0000
0010
0000
0001
0000
1000
0010
0000
0010
0100
0000
0010
0000
1000
0000
,
0100
0000
0010
0000
0001
0000
0010
0100
0000
0100
0010
0000
0100
0000
1000
0000
,
0010
0000
0100
0000
0001
0000
0100
0010
0000
0010
0100
0000
0010
0000
1000
0000
,
0001
0000
1000
0000
0100
0000
0010
0001
0000
0001
0010
0000
0100
0000
1000
0000
,
0010
0000
0100
0000
0001
0000
0010
0001
0000
0001
0010
0000
0100
0000
1000
0000
,
0010
0000
0100
0000
0001
0000
1000
0100
0000
0100
1000
0000
0010
0000
0100
0000
,
0001
0000
0010
0000
0100
0000
1000
0100
0000
0100
1000
0000
0010
0000
0100
0000
,
1001
0000
0000
0000
,
1000
0000
0001
1000
0001
0000
1000
0000
0001
0000
1000
0000
1001
0000
0000
0000
,
0100
0001
0000
0001
0100
0000
0100
0001
0000
0001
0100
0000
0010
0000
1000
0000
,
0100
0010
0001
0010
0100
1000
0100
0001
,
0100
1000
0000
1000
0010
0000
0010
1000
0000
1000
0010
0000
0100
0000
0001
0000
,
0100
0010
1000
0010
0001
0010
0100
0001
,
0010
0100
0000
0100
1000
0000
1000
0100
0000
0100
1000
0000
0100
0000
0010
0000
,
0001
0010
1000
0010
0100
1000
0100
0001
,
0100
1000
0000
1000
0010
0000
0010
0100
0000
0100
0001
0000
0010
0000
0100
0000
,
1000
0001
1000
0000
0000
0000
0000
0000
1001
0000
0000
0000
0000
0000
0000
0000
0001
1000
0001
0000
0000
0000
0000
0000
1001
0000
0000
0000
0000
0000
0000
0000
,
1000
0100
1000
0100
0001
0100
0001
0100
,
1000
0010
1000
0010
0001
0010
0001
0000
,
0010
0100
0010
0100
1000
0100
1000
0000
,
0100
0010
0001
0010
0100
0000
1001
0000
,
1000
0100
1000
0010
1000
0001
1000
0000
,
0001
0010
0001
0100
1000
0100
0001
0000
,
0001
0100
1000
0100
0010
0001
0010
0100
,
1000
0100
0001
0010
0100
1000
0100
0000
,
1000
0000
0100
1000
0100
0000
1000
0000
0010
0000
0100
0000
1001
0000
0000
0000
,
2000
0000
0002
3000
0200
0000
0010
0003
,
0020
0300
2000
0030
0100
3100
1100
0000
,
0200
0000
0020
0300
0002
0000
1000
0030
,
2000
0003
0200
3000
0001
0301
0101
0000
,
0020
0000
0200
0030
2000
0000
0001
0300
,
0002
3000
0020
0003
1000
1030
1010
0000
,
0020
0000
0200
0030
2000
0000
0001
0300
,
0002
3000
0020
0003
1000
1030
1010
0000
,
1000
0010
0001
0100
0010
0100
0010
1000
,
0010
0001
0010
0100
1000
0100
0001
0100
,
0010
0100
0010
0100
0010
0001
0010
0100
,
1000
0100
0001
0010
0100
1000
0100
0000
,
1000
0100
0001
0100
0010
0100
0010
1000
,
0010
0001
0010
0100
1000
0100
0001
0100
,
0010
0100
0010
0100
0010
0001
0010
0100
,
1000
0100
1000
0010
0100
0001
0010
0000
,
0001
0010
0100
1000
0010
0100
0001
0100
,
1000
0100
0010
1000
0010
0001
0010
0100
,
1000
0100
0001
0010
0100
0001
0100
1000
,
0100
0010
0100
0010
0001
0010
1000
0010
,
0001
0010
0100
0001
0100
1000
0010
0100
,
0001
0010
0100
0001
0100
0010
0001
1000
,
0100
0010
1000
0010
0100
1000
0010
0100
,
0010
1000
0010
0001
0010
0100
0001
0200
,
2000
0000
0000
0000
,
0011
0000
0000
3300
0000
0000
0000
0000
;

//---------------dance-single - Renard----------------
#NOTES:
     dance-single:
     Renard:
     Hard:
     8:
     0.589,0.626,0.335,0.033,0.000:
0000
0000
0000
0000
,
0000
0000
0000
0000
,
0000
0000
0000
0000
,
0000
0000
0000
0000
,
1000
0000
0010
0000
0100
0001
0000
0010
,
0000
0100
1000
0010
,
0100
0000
0001
0000
0100
0010
0000
0100
,
0000
0001
0100
0010
0100
0001
0100
0000
,
2002
0000
0000
0000
,
0000
3003
0000
0000
,
1000
0000
0010
0000
0100
0000
0001
1000
,
0000
0100
0000
0010
0001
0000
0010
0000
,
0100
1000
0010
0100
,
0001
0100
0010
0100
0001
0100
0010
0100
,
0001
0000
0100
0010
1000
0000
0100
0010
,
0001
0000
0100
0010
1000
0000
0100
0010
,
0001
0100
0010
0100
0001
0100
0010
0100
,
0000
0001
0100
0010
1000
0100
0010
0001
,
0101
1010
1001
1100
,
0000
1000
0010
0100
0001
0000
0010
0000
,
0001
0010
0100
1000
0010
0000
0100
0001
,
0000
1000
0000
0010
0100
0000
0020
0000
,
1001
0000
0030
0000
,
1001
1010
0101
1001
,
1000
0010
0100
0001
0100
0010
1000
0000
,
0100
0010
0001
0010
0100
1000
0010
0000
,
0100
0001
0100
0010
1000
0100
1000
0010
,
0000
0100
0001
0010
0001
0100
0010
1000
,
1100
1010
1001
1100
,
0001
0100
0010
1000
0100
0010
0001
0000
,
1010
1001
1100
1010
,
1000
0001
0100
0010
1000
0100
0010
0000
,
1001
1010
1100
1001
,
0100
0010
1000
0001
0010
0100
0010
0001
,
0010
0011
1010
1001
,
1010
1001
0110
0001
,
1000
0010
0100
0001
1000
0000
0100
0010
,
0001
0000
0010
0100
1000
0010
0100
0001
,
0100
0000
0010
1000
0100
0000
1000
0010
,
0100
0001
0010
0100
1000
0000
0010
0000
,
1000
0001
1000
0010
0100
0001
1000
0000
,
0010
0010
0100
0001
,
1000
0100
0010
0001
0010
0100
1000
0010
,
0100
0001
0100
0010
,
1000
0100
0010
0100
1000
0010
0100
0001
,
0010
0100
1000
0010
,
0100
0001
0010
0100
1000
0100
0010
0001
,
0100
0010
1000
0100
,
0010
0100
1000
0010
0100
0001
0000
0000
,
0100
0000
0010
0000
1000
0100
0000
1000
,
0000
0010
0100
0001
0010
0000
0100
0000
,
1000
0000
0010
0000
0100
0001
0000
0100
,
0000
0010
1000
0100
0010
0001
0010
0100
,
1000
0000
0010
0000
0100
0001
0000
0010
,
0000
0100
1000
0010
0100
0001
0010
0000
,
0100
0000
0010
0000
0001
0100
0000
0010
,
0000
1000
0100
0010
0001
0010
0100
0000
,
1000
0000
0010
0000
0100
0001
0000
0100
,
0000
0010
0100
0001
0100
0010
0100
0001
,
0100
0000
0010
0000
1000
0100
0000
0010
,
0000
0100
1000
0100
1000
0100
1000
0100
,
1000
0000
0010
0000
0100
0001
0000
0100
,
0000
0010
1000
0100
1000
0010
1000
0100
,
1000
0000
0010
0000
0100
0001
0000
0010
,
0000
0001
0100
0010
1000
0100
0010
0000
,
1001
0000
0000
0000
,
1011
0000
0000
0000
;

//---------------dance-single - Renard----------------
#NOTES:
     dance-single:
     Renard:
     Easy:
     3:
     0.303,0.331,0.100,0.033,0.000:
0000
0000
0000
0000
,
0000
0000
0000
0000
,
0000
0000
0000
0000
,
0000
0000
0000
0000
,
1000
1000
1000
1000
,
0000
0001
0001
0000
,
0100
0100
0100
0100
,
0000
0010
0010
0000
,
2002
0000
0000
0000
,
3003
0000
0000
0000
,
1000
0000
0010
0000
0100
0000
0000
0001
,
0000
0100
0010
0000
,
1000
0000
0100
0000
0010
0000
0000
0001
,
0000
0010
0100
0000
,
1000
1000
0001
0001
,
0100
0100
0010
0000
,
1000
1000
0010
0010
,
0100
0100
0001
0000
,
0100
0000
0010
0000
1000
0000
0100
1000
,
0000
0000
0000
0000
,
0010
0000
0100
0000
0001
0000
0010
0001
,
0000
0000
0000
0000
,
1001
0000
0000
0000
,
1000
1000
1000
1001
,
1000
0010
0100
0001
,
0100
0010
1000
0000
,
0001
0100
0010
1000
,
0010
0100
0001
0000
,
1000
0100
0010
0001
,
0010
0100
1000
0000
,
1000
0100
0010
0001
,
0010
0100
1000
0000
,
0001
0000
0100
0000
0010
0000
1000
0100
,
0000
0000
0000
0000
,
1000
0000
0100
0000
1000
0000
0010
0100
,
0000
0000
0000
0000
,
0001
0000
0010
0000
0100
0000
1000
0010
,
0000
0000
0000
0000
,
0100
0000
0001
0000
0100
0000
0010
1000
,
0000
0000
0000
0000
,
0100
1000
0001
1001
,
1000
0010
0100
0001
,
0000
1000
1000
0000
,
0001
0100
0010
1000
,
0000
0001
0001
0000
,
1000
1000
0010
0100
,
0000
1001
1001
0000
,
0010
0100
0001
1000
,
0000
0110
0110
0000
,
1000
0000
0010
0000
0100
0000
0000
0001
,
0000
0000
0000
0000
,
1000
0000
0100
0000
0010
0000
0000
0001
,
0000
0010
0100
0000
,
1000
0000
0010
0000
0100
0000
0000
0001
,
0000
1000
1000
0000
,
0001
0000
0100
0000
0010
0000
0000
1000
,
0000
0010
0100
0000
,
0001
0000
0100
0000
0010
0000
0000
1000
,
0000
0100
0100
0000
,
0010
0000
0001
0000
0010
0000
0000
0100
,
0000
1000
1000
0000
,
0010
0000
0001
0000
0100
0000
0000
0010
,
0000
1000
1000
0000
,
0010
0000
0100
0000
0001
0000
0000
1000
,
0000
0100
0100
0000
,
0020
0000
0030
0000
,
1001
0000
0000
0000
;

//---------------dance-single - Renard----------------
#NOTES:
     dance-single:
     Renard:
     Medium:
     5:
     0.411,0.405,0.156,0.022,0.000: // measure 1
0000
0000
0000
0000
,  // measure 2
0000
0000
0000
0000
,  // measure 3
0000
0000
0000
0000
,  // measure 4
0000
0000
0000
0000
,  // measure 5
1000
0000
0010
0000
0100
0001
0000
0100
,  // measure 6
0000
0010
0010
1000
,  // measure 7
0100
0000
0010
0000
0001
0010
0000
0100
,  // measure 8
0000
1000
0010
0100
,  // measure 9
1001
0000
0000
0000
,  // measure 10
0000
0000
0000
0000
,  // measure 11
1000
0000
0010
0000
0100
0000
0001
1000
,  // measure 12
0000
0001
0000
0000
1000
0000
0001
0000
,  // measure 13
0100
0000
0010
0000
1000
0000
0100
0010
,  // measure 14
0000
0001
1000
0001
,  // measure 15
1000
0000
1000
0000
0010
0000
0100
0001
,  // measure 16
0000
0010
0100
1000
,  // measure 17
0010
0000
0100
0000
0001
0000
1000
0100
,  // measure 18
0000
1000
0010
0100
,  // measure 19
0001
0000
0010
0000
0001
0000
0010
0001
,  // measure 20
0000
0010
0000
0001
0010
0000
0001
0000
,  // measure 21
1000
0000
0100
0000
1000
0000
0100
1000
,  // measure 22
0000
0100
0000
1000
0100
0000
1000
0000
,  // measure 23
1010
0000
0000
0000
,  // measure 24
0100
0000
0100
0000
0001
0100
0001
0000
,  // measure 25
0100
0000
0100
0000
0010
1000
0010
0000
,  // measure 26
0100
0000
0100
0000
0001
0010
0001
0000
,  // measure 27
0100
0000
0100
0000
0010
1000
0010
0000
,  // measure 28
0100
0000
0100
0000
0001
0010
0001
0000
,  // measure 29
0100
0010
1000
0100
,  // measure 30
0000
1001
1010
0000
,  // measure 31
0100
0001
0010
0100
,  // measure 32
0000
1001
0101
0000
,  // measure 33
0010
0000
1000
0000
0010
1000
0010
0000
,  // measure 34
0100
0000
0001
0000
0100
0001
0100
0000
,  // measure 35
0010
0000
0100
0000
0010
0100
0010
0000
,  // measure 36
0100
0010
0100
0000
,  // measure 37
0001
0000
1000
0000
0001
1000
0001
0000
,  // measure 38
1000
0000
0010
0000
1000
0010
1000
0000
,  // measure 39
0001
0000
0100
0000
0001
0100
0001
0000
,  // measure 40
0100
0010
1000
0100
,  // measure 41
1000
0010
0100
0001
,  // measure 42
1000
0100
0010
1001
,  // measure 43
0000
0010
0100
0001
,  // measure 44
0100
0010
1000
0100
,  // measure 45
0000
1001
1010
0000
,  // measure 46
0100
0001
0010
1001
,  // measure 47
0000
0010
0100
0001
,  // measure 48
1000
0100
0010
0001
,  // measure 49
0000
1010
1001
0000
,  // measure 50
1000
0000
0010
0000
0100
0001
0000
0010
,  // measure 51
0000
0100
1000
0000
0010
0000
0100
0000
,  // measure 52
0001
0000
0010
0000
0100
0000
1000
0010
,  // measure 53
0000
0100
0001
0000
0100
0000
0010
0000
,  // measure 54
1000
0000
0100
0000
1000
0000
1000
0010
,  // measure 55
0000
0010
0100
0000
0001
0000
0100
0000
,  // measure 56
0010
0000
1000
0000
0100
0000
0100
0010
,  // measure 57
0000
0010
0001
0000
0010
0000
0100
0000
,  // measure 58
1000
0000
1000
0100
0000
0100
1000
0000
,  // measure 59
0010
0100
0001
0000
,  // measure 60
0010
0000
0010
0001
0000
0001
0100
0000
,  // measure 61
0010
1000
0100
0000
,  // measure 62
1000
0000
1000
0100
0000
0100
0010
0000
,  // measure 63
0001
0010
0100
0000
,  // measure 64
1000
0000
1000
0010
0000
0010
0100
0000
,  // measure 65
0001
0100
0010
0000
,  // measure 66
2002
0000
0000
0000
,  // measure 67
0110
3003
0000
0000
0000
0000
0000
0000
0000
0000
0000
0000
0000
0000
0000
0000
0000
0000
0000
0000
0000
0000
0000
0000
0000
0000
0000
0000
0000
0000
0000
0000
0000
0000
0000
0000
0000
0000
0000
0000
0000
0000
0000
0000
0000
0000
0000
0000
0000
0000
0000
0000
0000
0000
0000
0000
0000
0000
0000
0000
0000
0000
0000
0000
0000
0000
0000
0000
0000
0000
0000
0000
0000
0000
0000
0000
0000
0000
0000
0000
0000
0000
0000
0000
0000
0000
0000
0000
0000
0000
0000
0000
0000
0000
0000
0000
0000
0000
0000
0000
0000
0000
0000
0000
0000
0000
0000
0000
0000
0000
0000
0000
0000
0000
0000
0000
0000
0000
0000
0000
0000
0000
0000
0000
0000
0000
0000
0000
0000
0000
0000
0000
0000
0000
0000
0000
0000
0000
0000
0000
0000
0000
0000
0000
0000
0000
0000
0000
0000
0000
0000
0000
0000
0000
0000
0000
0000
0000
0000
0000
0000
0000
0000
0000
0000
0000
0000
0000
0000
0000
0000
0000
0000
0000
0000
0000
0000
0000
0000
0000
0000
0000
0000
0000
0000
0000
0000
0000
0000
0000
0000
0000
;
