#TITLE:Boomstick;
#SUBTITLE:;
#ARTIST:Scott Brown;
#TITLETRANSLIT:;
#SUBTITLETRANSLIT:;
#ARTISTTRANSLIT:;
#CREDIT:;
#BANNER:boom.png;
#BACKGROUND:boom-bg.png;
#LYRICSPATH:;
#CDTITLE:;
#MUSIC:boom.ogg;
#OFFSET:0.000;
#SAMPLESTART:31.302;
#SAMPLELENGTH:12.000;
#SELECTABLE:YES;
#BPMS:0.000=176.300;
#STOPS:;
#BGCHANGES:;

//---------------dance-single - Renard----------------
#NOTES:
     dance-single:
     Renard:
     Challenge:
     9:
     0.654,0.709,0.912,0.390,0.062:
0000
0000
0000
0000
,
0000
0000
0000
0000
,
0000
0000
0000
0000
,
0000
0000
0000
0000
,
0101
0100
0110
0100
,
1100
0000
0100
0000
0110
0000
0001
0100
,
1000
1000
1100
0100
,
0110
0100
0101
0001
,
1001
1000
1010
0010
,
0110
0000
0100
0000
0101
0000
0001
1000
,
0100
0100
0101
0100
,
0110
0000
0100
0000
1100
0000
1000
0010
,
0001
0010
0011
0010
,
1010
0000
0201
0010
,
2000
0000
0000
0000
,
0020
0000
0000
3330
,
1000
0010
0100
0010
0100
0010
0100
0010
,
1000
0010
0100
0010
0100
0010
0100
0010
,
0001
0010
0100
0010
0100
0010
0100
0010
,
1000
0010
0100
0010
0100
0010
0100
0010
,
0001
0010
0100
0010
0100
0010
0100
0010
,
1000
0010
0100
0010
0100
0010
0100
0010
,
0001
0010
0100
0010
0100
0010
1000
0010
,
0200
0000
0000
2002
0000
0000
3303
0000
,
1001
0000
0100
0010
0110
0000
1010
0000
,
1001
0000
1100
0000
0110
0010
0011
0000
,
0011
0000
0010
0100
1100
0000
0011
0000
,
1100
0000
1001
0000
2002
0000
0110
3003
,
0101
0000
0110
1000
0010
0000
1010
0000
,
0010
0100
0001
0010
0110
0000
1001
0000
,
1010
0000
0001
0100
0110
0000
1001
0000
,
1100
2010
0001
0000
0100
0100
0010
3010
,
0100
0000
0000
0000
0101
0000
0000
0000
1001
0000
0000
1000
0010
0000
0100
0000
,
0101
0000
0000
0000
1010
0000
0000
0000
1100
0000
0000
1000
0100
0000
0010
0000
,
0110
0000
0000
0000
0011
0000
0000
0000
1001
0000
0000
0001
0100
0000
0010
0000
,
1000
0000
0001
0000
0100
0000
0010
0000
1000
0000
0001
1000
0001
0000
0100
0000
,
0110
0000
0000
0000
1001
0000
0000
0000
1010
0000
0000
1000
0001
0000
0100
0000
,
1010
0000
0000
0000
0101
0000
0000
0000
1100
0000
0000
0100
0010
0000
0001
0000
,
1001
0000
0000
0000
1001
0000
0000
0000
1010
0000
0000
0010
0100
0000
0001
0000
,
2000
0002
0003
0001
0010
0002
0003
3001
,
2000
0000
0000
0000
,
3200
0000
0000
0000
,
0320
0000
0000
0000
,
0000
0000
0000
0000
,
0032
0100
0100
0100
,
0203
0000
0010
0000
0010
0000
0010
0302
,
1000
0000
1000
0000
1000
0000
0200
0003
,
0010
0000
0020
0300
2000
0030
3100
0010
,
0002
0000
0010
0000
0020
0003
0200
0030
,
2300
0000
3020
0000
0230
0000
0001
0001
,
0001
0000
0010
0000
0002
0300
2000
0003
,
0200
3000
0320
0000
0001
0000
0100
0100
,
1000
0000
0100
0000
0002
0030
0200
0003
,
0010
0000
1000
0000
0001
0000
0010
0310
,
2002
0000
0000
0000
,
0110
0000
3003
0000
,
1001
0000
0000
0000
0101
0000
0000
0000
0100
0000
0000
0010
1000
0000
0010
0000
,
0100
0000
0101
0000
1010
0001
1100
0000
,
1001
0000
0000
0000
1100
0000
0000
0000
0110
0000
0000
0010
0001
0000
1000
0000
,
0010
0000
0100
0000
0001
0000
0000
0000
0201
0000
0000
0300
0110
0000
0000
0000
,
0101
0000
0000
0000
0110
0000
0000
0000
1010
0000
0000
1000
0100
0000
0010
0000
,
0011
0000
1100
0000
0011
1000
1100
0000
,
1010
0000
0000
0000
0101
0000
0000
0000
1010
0000
0000
0001
0100
0000
0010
0000
,
1001
0000
0110
0000
0201
0010
1000
0010
,
0301
0101
1100
0110
,
1001
0000
0000
0000
1100
0000
0000
0100
0010
0000
0001
0000
1000
0000
0001
0000
,
0101
0110
1001
1100
,
0011
0000
0000
0000
0001
0000
0010
0000
0100
0000
2000
0000
0001
0000
0000
3000
,
0101
0000
0000
0000
0110
0000
0000
0000
1001
0000
0000
1000
0010
0000
0100
0000
,
0101
0000
0000
0000
0010
0000
1000
0000
0001
0000
0100
0010
0100
0000
0001
0000
,
1000
1100
0011
1001
,
0201
0000
0000
0000
0010
0000
1000
0310
,
0002
1000
0100
0010
,
0100
0000
1000
0000
0010
0000
0103
0100
,
0200
0010
1000
0001
,
0010
0000
0001
0000
0010
0000
0301
0010
,
2000
0010
0001
0100
,
0010
0000
0001
0000
0100
0000
3001
0010
,
0002
0100
0010
1000
,
0100
0000
0010
0000
1000
0000
0100
0003
,
2001
3001
0000
0000
0000
0000
0000
0000
;

//---------------dance-single - Renard----------------
#NOTES:
     dance-single:
     Renard:
     Medium:
     6:
     0.453,0.638,0.744,0.071,0.000:
0000
0000
0000
0000
,
0000
0000
0000
0000
,
0000
0000
0000
0000
,
0000
0000
0000
0000
,
0000
0000
0000
0000
,
0000
0000
0000
0000
,
0000
0000
0000
0000
,
0000
0000
0000
0000
,
1001
1000
1000
1000
,
1000
0000
1000
0000
1000
0000
1000
1000
,
1000
1000
1000
1000
,
1000
1000
1000
0010
,
1000
1000
1000
1000
,
1000
0000
1000
0000
1000
0000
1000
1000
,
1000
0000
0000
0000
,
0001
0000
0000
0000
,
1001
1001
1001
1001
,
1001
1001
1001
1001
,
1001
1001
1001
1001
,
1001
1001
1001
1001
,
0110
0110
0110
0110
,
0110
0110
0110
0110
,
0110
0110
0110
0110
,
2002
0000
0000
3003
,
0001
0000
0001
0000
1000
1000
1000
0000
,
0001
0000
0001
0000
1000
1000
1000
0000
,
0001
0000
0001
0000
1000
1000
1000
0000
,
0001
1000
0001
1001
,
0010
0000
0010
0000
0100
0100
0100
0000
,
0010
0000
0010
0000
0100
0100
0100
0000
,
0010
0000
0010
0000
0100
0100
0100
0000
,
0010
0100
0001
0100
0010
0100
1000
0100
,
0010
0010
0010
0010
,
0010
0010
0010
0010
,
0100
0100
0100
0100
,
0100
0000
0100
0000
0001
1000
0001
0000
,
1000
1000
1000
1000
,
1000
0000
1000
0000
1000
0000
1000
0100
,
0010
0000
0010
0001
0010
0000
0001
2000
,
0002
0000
0000
3003
,
0001
0000
0000
0000
,
0100
0000
0000
0000
,
0010
0000
0000
0000
,
0000
0000
0000
0000
,
1000
1000
1000
1000
,
0100
0000
0100
0000
0100
0000
0100
0100
,
0010
0010
0010
0010
,
0010
0010
0010
0010
,
0001
0001
0001
0001
,
0100
0000
0100
0000
0100
0000
0100
0100
,
0010
0010
0010
0010
,
0010
0010
0010
0010
,
1000
1000
1000
1000
,
0100
0000
0100
0000
0100
0000
0100
2000
,
0002
0000
0000
0000
,
0000
0000
0000
3003
,
1001
1001
0110
0110
,
1001
1001
0110
0110
,
1001
1001
0110
0110
,
1001
1001
1001
0000
,
1100
1100
0011
0011
,
1100
1100
0011
0011
,
1100
1100
0011
0011
,
1001
0000
0000
0000
,
0101
0101
0110
0000
,
0101
0101
0110
0000
,
0101
0101
1100
0110
,
0101
0000
1001
0000
,
1100
1100
1001
0000
,
1100
1100
1010
0000
,
1001
1100
1001
1100
,
2002
0000
0000
3003
,
0001
0001
1000
1000
,
0001
0000
0001
0000
1000
0000
0001
1000
,
0001
0001
1000
1000
,
0001
0000
0001
0000
1000
0000
0001
1000
,
0010
0010
0100
0100
,
0010
0000
0010
0000
0100
0000
0010
0100
,
0010
0010
1000
1000
,
0001
1000
0001
1001
,
0110
0000
0000
0000
;

//---------------dance-single - Renard----------------
#NOTES:
     dance-single:
     Renard:
     Hard:
     9:
     0.600,0.708,0.885,0.186,0.000:
0000
0000
0000
0000
,
0000
0000
0000
0000
,
0000
0000
0000
0000
,
0000
0000
0000
0000
,
2001
0001
0001
0001
,
0001
0000
0001
0000
0001
0000
0001
0001
,
0001
0001
0001
0001
,
0001
0000
0001
0000
0001
0000
0001
3000
,
1002
1000
1000
1000
,
1000
0000
1000
0000
1000
0000
0100
0100
,
1000
1000
1000
1000
,
1000
1000
1000
0013
,
1002
1000
1000
1003
,
2002
0000
0003
3000
1001
0000
0110
0000
,
2002
0000
0000
0000
,
0020
0000
0000
3033
,
0001
1000
0010
1000
0001
1000
0100
1000
,
0001
1000
0010
1000
0001
1000
0100
1000
,
0001
1000
0010
1000
0001
1000
0100
1000
,
0001
1000
0010
1000
0001
1000
0100
1000
,
0001
1000
0010
1000
0001
1000
0100
1000
,
0001
1000
0010
1000
0001
1000
0100
1000
,
0001
1000
0010
1000
0001
1000
0001
0000
,
1001
0000
0000
0110
0000
0000
0000
0000
,
1010
0000
1000
0100
0010
0001
0010
0000
,
0011
0000
0010
0100
1000
0000
0001
0000
,
0101
0000
1010
0000
1000
0100
0010
0001
,
1000
0001
0100
0010
0100
0100
0010
0010
,
1000
0000
1100
0000
0010
0001
1000
0100
,
1000
0001
1000
1001
0000
0001
0100
0000
,
0101
0000
1001
0000
1000
0100
0010
0001
,
1000
0001
0100
0010
0100
1000
0100
0010
,
0100
0101
1001
1100
,
1000
0100
0010
0001
0010
0001
1000
0001
,
0100
0101
0110
1100
,
0110
0000
0101
0000
1001
1001
1001
0000
,
1000
0100
0010
0001
0010
0100
1000
0010
,
1000
0001
1000
0100
1000
0001
0010
0001
,
1000
0001
0100
0010
1000
0001
1000
0100
,
2200
0000
0000
3300
,
2200
0000
0000
0300
,
0020
0000
0000
0030
,
0002
0000
0000
0000
,
0000
0000
0000
3000
,
2000
0000
0000
3000
,
0200
0000
0000
0300
,
0020
0000
0000
0000
,
0000
0000
0000
0033
,
2001
0001
0100
0100
,
0010
0000
0010
0000
0001
0000
0100
0100
,
0010
0001
0100
0001
,
0010
0000
0100
0000
0001
3000
1001
0000
,
1002
1000
0100
0100
,
0010
0000
0010
0000
1000
0000
0100
0100
,
2000
0000
0000
0000
,
0020
0000
0000
0000
0000
3033
0000
0000
,
1001
1001
0110
0110
,
1001
0000
1001
0000
1000
0100
0010
0001
,
0011
0011
0110
0110
,
1100
0000
1001
0000
0110
1001
0110
0000
,
1010
1001
1100
0011
,
1001
0000
0001
0100
0010
1000
0100
0010
,
0001
0011
0110
1100
,
1001
0000
1000
0100
0010
0001
0010
0001
,
0010
0110
1100
1001
,
1010
0000
0101
0000
0110
0000
1100
1100
,
0110
0101
1001
1100
,
1000
0100
0010
0001
1000
1000
0001
0000
,
0101
1100
0110
0101
,
1001
0000
1100
0000
1010
0000
1001
1001
,
1001
0000
1000
0100
0010
0001
0010
0100
,
1000
0001
1000
0010
1000
0001
1000
0000
,
1001
0110
1001
0110
,
1001
0000
0110
0000
1001
0000
1000
0100
,
0010
0110
0001
0011
,
0010
0110
1010
0110
,
1100
1001
1010
1001
,
1000
0100
0010
0001
1000
0000
0001
0100
,
0010
1000
1100
1001
,
1010
0000
1000
0100
0010
0000
0011
0000
,
1001
0000
0000
0000
;

//---------------dance-single - Renard----------------
#NOTES:
     dance-single:
     Renard:
     Easy:
     3:
     0.271,0.354,0.230,0.062,0.000: // measure 1
0000
0000
0000
0000
,  // measure 2
0000
0000
0000
0000
,  // measure 3
0000
0000
0000
0000
,  // measure 4
0000
0000
0000
0000
,  // measure 5
0000
0000
0000
0000
,  // measure 6
0000
0000
0000
0000
,  // measure 7
0000
0000
0000
0000
,  // measure 8
0000
0000
0000
0000
,  // measure 9
1000
1000
1000
1000
,  // measure 10
1000
1000
1000
1000
,  // measure 11
1000
1000
1000
1000
,  // measure 12
1000
1000
1000
1000
,  // measure 13
1000
1000
1000
1000
,  // measure 14
1000
1000
1000
1000
,  // measure 15
2002
0000
0000
0000
,  // measure 16
0000
0000
0000
3003
,  // measure 17
0001
0001
0001
0001
,  // measure 18
0001
0001
0001
0001
,  // measure 19
0001
0001
0001
0001
,  // measure 20
0001
0001
0001
0001
,  // measure 21
0001
0000
0001
0001
,  // measure 22
0001
0001
0001
0001
,  // measure 23
0001
0001
0001
0001
,  // measure 24
0002
0000
0000
0003
,  // measure 25
1000
0001
1000
0000
,  // measure 26
0010
0000
0100
0000
,  // measure 27
0001
1000
0001
0000
,  // measure 28
0100
0000
0110
0000
,  // measure 29
0010
1000
0001
0000
,  // measure 30
1000
0000
0100
0000
,  // measure 31
0010
0000
0001
0000
,  // measure 32
0100
0000
0110
1001
,  // measure 33
1010
0000
1001
0000
,  // measure 34
1100
0000
0011
0000
,  // measure 35
1000
0001
0100
0000
,  // measure 36
0010
0000
0110
0000
,  // measure 37
0010
0000
1000
0000
,  // measure 38
0001
0000
0100
0001
,  // measure 39
1000
0000
0100
0000
,  // measure 40
0011
0000
0000
0000
,  // measure 41
1000
0000
0000
0000
,  // measure 42
0001
0000
0000
0000
,  // measure 43
0200
0000
0000
0000
,  // measure 44
0000
0000
0000
0000
,  // measure 45
0310
0000
0000
0000
,  // measure 46
1000
0000
0000
0000
,  // measure 47
0002
0000
0000
0000
,  // measure 48
0000
0000
0000
0000
,  // measure 49
0103
0100
0100
0100
,  // measure 50
0100
0100
0100
0100
,  // measure 51
0100
0100
0100
0100
,  // measure 52
0100
0100
0100
0010
,  // measure 53
0100
0100
0100
0100
,  // measure 54
0100
0100
0100
0100
,  // measure 55
0200
0000
0000
0000
,  // measure 56
0310
0000
0000
0000
,  // measure 57
0010
0000
0100
0000
,  // measure 58
0010
1000
0001
0000
,  // measure 59
0100
0000
0010
0000
,  // measure 60
1010
0000
0101
1001
,  // measure 61
1100
0000
0010
0000
,  // measure 62
0001
0000
1000
0100
,  // measure 63
0010
0000
0001
0000
,  // measure 64
1001
0000
0110
1001
,  // measure 65
1010
0000
0101
0000
,  // measure 66
1001
0000
1000
0100
,  // measure 67
0010
0000
0001
0000
,  // measure 68
0010
0000
0110
1001
,  // measure 69
1010
0000
0101
0000
,  // measure 70
1001
0000
1000
0100
,  // measure 71
0010
0000
0001
0000
,  // measure 72
0020
0000
0000
0000
,  // measure 73
0130
0000
0100
0000
,  // measure 74
0100
0000
0100
0100
,  // measure 75
0100
0000
0100
0000
,  // measure 76
0100
0000
0100
0010
,  // measure 77
0100
0000
0100
0000
,  // measure 78
0100
0000
0100
0100
,  // measure 79
0100
0000
0100
0000
,  // measure 80
0100
0000
0100
0010
,  // measure 81
1001
0000
0000
0000
;
