#TITLE:Boom (Breakfastaz Remix);
#SUBTITLE:;
#ARTIST:Aquasky vs Masterblaster;
#TITLETRANSLIT:;
#SUBTITLETRANSLIT:;
#ARTISTTRANSLIT:;
#CREDIT:;
#BANNER:;
#BACKGROUND:;
#LYRICSPATH:;
#CDTITLE:;
#MUSIC:boom.ogg;
#OFFSET:-0.000;
#SAMPLESTART:56.058;
#SAMPLELENGTH:12.000;
#SELECTABLE:YES;
#BPMS:0.000=137.000,96.000=51.375,101.000=102.750,103.000=137.000,182.000=274.000,183.000=137.000,247.000=68.500,249.000=137.000;
#STOPS:182.000=0.055
,182.250=0.055
,182.500=0.055
,182.750=0.055
;
#BGCHANGES:;
#GENRE:Breaks;

//---------------dance-single - Renard----------------
#NOTES:
     dance-single:
     Renard:
     Challenge:
     11:
     0.884,0.832,0.750,0.112,0.944:
0000
0000
0000
0000
,
0000
0000
0000
0000
,
0000
0000
0000
0000
,
0000
0000
0000
0000
,
1000
0000
0001
0000
0100
0000
0010
1000
0000
1000
0010
0000
0100
0000
0001
0000
,
0010
0000
0001
0000
1000
0000
0001
0000
0100
0000
0001
1000
0000
1000
0001
0000
,
0010
0000
0100
0000
1000
0000
0001
1000
0000
1000
0001
0000
1000
0000
0010
0000
,
0100
0000
0100
0001
0000
0001
2000
0000
0200
0000
0000
0000
3311
0000
0000
0000
,
0101
0000
0000
0000
0010
0000
1000
0100
0000
0100
0010
0000
0011
0000
0010
0000
,
0100
0000
1000
0010
1000
0000
0001
0100
0000
0010
1000
0000
1001
0000
0000
0000
,
1000
0000
0010
0100
0001
0000
1000
0100
0000
0100
1000
0000
0011
0000
0100
0000
,
1000
0000
0010
0100
0001
0000
0010
0100
0000
0010
0100
0000
0110
0000
0000
0000
,
1000
0000
0010
0100
0001
0000
1000
0100
0000
0100
0010
0000
0011
0000
0001
0010
,
0100
0000
0100
0000
1100
0000
1000
0010
0000
0010
0100
0000
0101
0000
0110
0000
,
1010
0000
1000
0000
0100
0000
0010
0001
0000
0001
0010
0000
0110
0000
0100
1000
,
0010
0000
0000
0010
0000
0000
0010
0000
1000
2000
0002
0000
0010
0000
3003
0000
,
0011
0000
0000
0110
0000
0000
1100
0000
1000
0001
0100
0000
0110
0000
1000
0010
,
1010
0000
0000
1100
0000
0000
0011
0000
0001
0100
0010
0000
0110
0000
1000
0010
,
0110
0000
0000
0101
0000
0000
1100
0000
1000
0100
0001
0000
0101
0000
0001
0100
,
0010
0000
0010
1000
0000
1000
0001
0000
0100
0001
1000
0001
0010
0100
1000
0000
,
0001
0000
0001
0100
0000
0100
0010
0000
1000
1000
0100
0000
0011
0000
0100
1000
,
0010
0000
0010
0100
0000
0200
0010
0000
0001
0301
0100
0000
1010
0000
0100
0001
,
0100
0000
0100
0010
0000
0010
1000
0000
0100
1000
0100
0000
0011
0000
0100
1000
,
0010
0000
0010
0100
0000
0200
0001
0000
0010
0310
0100
0000
2010
0000
0000
0000
,
3001
0000
0000
0000
1000
0000
0000
0000
0000
0100
0000
0000
0000
0010
0000
0000
0000
0000
0002
0000
0000
0000
0000
0000
0000
0000
0000
0000
0000
0000
0000
0000
0000
0000
0000
0000
0000
0000
0000
0000
0000
0000
0000
0000
0000
0000
0000
0000
0000
0000
0000
0000
0000
0000
0000
0000
0000
0000
0000
0000
0000
0000
0000
0000
0000
0000
0000
0000
0000
0000
0000
0000
2003
0000
0000
0000
0000
0000
0000
0000
0000
0000
0000
0000
0000
0000
0000
0000
0000
0000
0000
0000
0000
0000
0000
0000
0000
0000
0000
0000
0000
0000
0000
0000
0000
0000
0000
0000
0000
0000
0000
0000
0000
0000
0000
0000
0000
0000
0000
0000
0000
0000
0000
0000
0000
0000
0000
0000
0000
0000
0000
0000
0000
0000
0000
0000
0000
0000
0000
0000
0000
0000
0000
0000
3020
0000
0000
0000
0000
0000
0000
0000
0000
0000
0000
0000
0000
0000
0000
0000
0000
0000
0000
0000
0000
0000
0000
0000
0000
0000
0000
0000
0000
0000
0000
0000
0000
0000
0000
0000
0000
0000
0000
0000
0000
0000
0000
0000
0000
0000
0000
0000
,
0000
0000
0000
0000
0000
0000
0000
0000
0000
0000
0000
0000
0130
0000
0100
0001
,
0000
0001
1000
0000
1000
0001
0000
0001
0100
0000
0010
1000
0100
0000
0100
0000
,
0010
0000
0010
0001
0000
0001
0100
0000
0100
0010
0000
0010
0100
0000
0100
0010
,
0000
0010
1000
0000
1000
0100
0000
0100
0010
0001
1000
0000
1001
0000
0000
0202
,
0000
0000
1010
0000
1313
0000
0000
0101
0000
0000
0110
0000
0010
1000
0010
1000
,
0010
0000
0100
0001
0100
0010
1000
0000
1010
0000
0010
0100
0001
0010
0001
0000
,
0011
0000
0010
0100
1000
0010
0100
0000
0101
0000
0010
1000
0010
0000
0100
0000
,
0011
0000
0100
1000
0010
0100
0001
0000
1001
0000
1000
0100
1000
0000
0011
0000
,
0001
0010
0001
0000
1100
0000
1000
0001
1000
0000
1001
0000
0101
0000
0010
1000
,
0010
0100
0001
1000
0100
0010
0001
0010
0100
1000
0010
0000
0100
0000
0010
0000
,
1010
0000
0001
0100
0010
1000
0100
1000
0001
0010
0001
0000
0100
0000
0010
0000
,
1001
0000
0001
0100
0001
1000
0100
1000
0001
0010
0001
0000
0100
0000
0010
0000
,
1001
0000
1000
0100
1000
0010
0100
0010
1000
0100
1000
0001
0010
0000
0001
0010
,
0011
0000
0001
0010
0000
0010
0100
1000
1100
0000
1000
0010
0100
0000
0001
0100
,
0101
0000
0001
0100
0000
0100
0010
1000
1010
0000
1000
0100
1000
0001
0010
0000
,
0011
0000
0001
0010
0000
0010
0100
1000
1100
0000
1000
0010
1000
0010
1000
0000
,
1010
0000
0100
0000
0001
0010
0100
1000
0001
0000
0010
0000
0100
0000
1000
0100
,
1100
0000
1000
0100
0000
0100
0010
0001
0011
0000
0001
0100
0010
0000
1000
0010
,
1010
0000
1000
0010
0000
0010
0100
0001
0101
0000
0001
0010
0001
1000
0100
0000
,
1100
0000
1000
0100
0000
0100
0010
0001
0011
0000
0001
0100
0001
0100
0001
0000
,
0101
0000
0010
0000
1000
1000
0001
0000
0100
0100
0100
0100
0010
0000
0010
1000
,
0000
1000
0010
0000
0100
0001
0010
0100
1000
0000
0011
0000
0100
1000
0010
0000
,
0010
0100
0000
0100
0001
0100
0010
1000
0100
0000
0011
0000
0100
0000
0100
1000
,
0000
1000
0010
0000
0010
0100
0001
0100
0010
0000
1010
0000
0100
0001
0010
0000
,
0011
0000
0010
0100
1000
0000
1100
0000
0100
0010
0001
0000
0011
0000
0001
1000
,
0001
0000
1000
0100
0010
0001
1000
0000
1001
0000
0001
0100
0010
0000
1010
0000
,
0100
0001
0000
0100
0010
1000
0100
0000
1100
0000
0010
0001
0100
0001
1000
0000
,
1000
0100
0000
0100
0010
0001
1000
0010
0100
0000
0101
0000
0110
0000
1000
0010
,
0100
0000
0001
0100
0000
0100
0001
1000
0100
0000
1100
0000
0010
0001
1000
0100
,
1100
0000
0010
0001
1000
0000
0010
0000
1001
0000
1000
0010
0100
0001
0010
0001
,
0011
0000
0010
0100
1000
0010
0100
0000
0101
0000
0010
1000
0100
1000
0010
0100
,
0110
0000
0100
0001
0100
0010
1000
0000
1100
0000
1000
0000
0100
0010
0001
0010
,
0011
0000
0010
0100
1000
0010
0100
0000
0110
0000
0001
0000
0100
0001
1000
0001
,
1001
0000
1000
0100
1000
0010
1000
0000
1010
0000
0010
0000
0100
0001
0010
0001
,
0011
0000
0001
0010
0100
1000
0010
0000
1010
0000
0010
0000
0100
0001
0100
0001
,
0101
0000
0001
0100
0001
0010
0001
0000
0011
0000
0010
0000
0100
1000
0010
1000
,
0010
0000
0000
0000
1010
0000
0000
0000
0100
0000
0001
0000
0000
0000
0001
0000
0100
0000
0001
0000
0010
0000
0000
0000
0001
1000
0100
0010
0002
0000
0000
0000
,
0000
0003
0000
0000
;

//---------------dance-single - Renard----------------
#NOTES:
     dance-single:
     Renard:
     Hard:
     9:
     0.558,0.560,0.621,0.026,0.375:
0000
0000
0000
0000
,
0000
0000
0000
0000
,
0000
0000
0000
0000
,
0000
0000
0000
0000
,
1010
0000
0000
1100
0000
0000
0011
0000
,
0000
0000
0001
0000
0100
0000
0010
0000
1000
0000
0000
0100
0000
0000
0010
0000
,
0001
0000
0000
1001
0000
0000
1010
0000
,
0001
0000
0000
0100
0000
0000
0010
0000
1000
0000
0000
0000
0011
0000
0000
0000
,
1000
0000
0010
0000
0100
0000
0001
0100
0000
0100
0001
0000
1000
0000
0100
0000
,
0010
0001
1001
0000
0001
0010
0011
0000
,
0100
0000
1000
0000
0010
0000
0100
0001
0000
0001
1000
0000
1001
0000
0000
0000
,
1000
0010
0110
0000
0001
0100
0110
0000
,
1000
0000
0010
0000
0100
0000
0001
0010
0000
0010
0001
0000
0100
0000
0010
0000
,
1000
0000
0100
0000
0011
0000
0000
0100
0000
1000
0010
0000
1010
0000
0000
0000
,
0100
0001
0010
0001
0100
0010
1000
0000
,
1001
0000
0000
1010
0000
0000
0101
0000
1001
0000
0000
0000
0000
0000
0000
0000
,
1100
0000
0000
0011
0000
0000
0101
0000
0000
0000
0000
0000
1010
0000
0000
0000
,
0101
0000
0000
1100
0000
0010
0001
0000
0000
0000
0000
0000
0000
0000
0000
0000
,
1100
0000
0000
0011
0000
0000
0101
0000
0000
0000
0000
0000
0000
0000
0000
0000
,
1010
0000
0000
0101
0000
1000
0100
0000
0000
0000
0010
0000
0001
0000
0100
0000
,
0010
0000
0000
1001
0000
0000
1010
0000
0000
0000
0000
0000
0000
0000
0000
0000
,
0101
0000
0000
0110
0000
0010
1000
0000
0000
0000
0110
0000
0011
0000
0000
0000
,
1010
0000
0000
0101
0000
0000
1010
0000
0000
0000
0001
0000
1000
0000
0000
0000
,
0110
0000
0000
0101
0000
0001
0100
0000
0000
0000
0010
0000
1000
0000
0000
0000
,
1000
0100
0020
0000
0000
0000
0000
0000
0000
0032
0000
0000
0000
0000
0000
0000
0000
0000
0203
0000
0000
0000
0000
0000
,
0000
0000
0000
0000
0000
0000
0000
0000
0000
0000
0000
0000
0310
0000
0000
1000
,
0000
0010
0100
0001
0010
0000
0011
0000
,
0101
0000
0010
1000
0100
0000
0010
0000
,
1001
0000
0000
0000
0010
0000
1000
0000
0001
0000
0100
0000
0101
0000
0000
0110
,
0000
0000
1010
0000
1100
0000
0000
0110
0000
0000
0011
0000
1001
0000
0000
0000
,
0010
0000
0000
0100
0000
0001
0100
0000
0010
0000
1000
0000
0100
0000
0010
0000
,
0001
0000
0000
1000
0000
0010
0100
0000
0001
0000
0100
0000
0010
0000
1000
0000
,
1100
0000
0000
0100
0000
0010
0001
0000
1000
0000
0010
0000
0100
0000
0001
0000
,
0101
0000
0000
0010
0000
1000
0100
0000
0010
0000
0001
0000
1000
0000
0001
0000
,
1001
0000
0000
1000
0000
0010
0100
0000
0001
0000
1000
0000
0100
0000
0010
0000
,
0011
0000
0000
0010
0000
0100
1000
0000
0010
0000
0100
0000
0001
0000
1000
0000
,
1001
0000
0000
1000
0000
0010
0100
0000
0001
0000
0010
0000
0100
0000
1000
0000
,
1010
0000
0000
0100
0000
0001
1000
0000
0001
0000
1000
0100
1000
0000
0001
0000
,
0010
0000
0000
0001
0000
1000
0010
0000
0100
0000
0001
0000
1000
0000
0100
0010
,
0100
0000
0000
0010
0000
0001
1000
0000
0001
0000
0100
0000
0010
0000
1000
0001
,
1000
0000
0000
0010
0000
0100
0001
0000
1000
0000
0100
0000
0010
0000
0001
1000
,
0001
0000
0000
0010
0000
0100
1000
0000
0001
0000
1000
0000
0010
0000
0100
0000
,
0101
0000
0000
0010
0000
0000
1000
0000
0100
0000
0000
0000
0010
0000
0001
0000
,
0101
0000
0000
0010
0000
0000
1000
0000
0100
0000
0000
0000
1000
0000
0010
0000
,
0100
0000
0000
0001
0000
0000
1000
0000
1100
0000
0000
0000
0010
0000
0001
0000
,
0100
0000
0000
0001
0000
0000
1000
0000
0001
0100
0001
0100
0001
1000
0001
1000
,
0001
0000
1000
0010
0100
0001
0010
0000
,
0001
1000
0100
0000
1000
0010
0100
0000
,
0101
0000
0000
0010
0000
0000
1000
0000
0100
0000
0000
0000
0010
0000
0001
0000
,
1000
0000
0000
0000
0010
0000
0100
0000
0001
0000
0000
0000
1100
0000
0000
0011
,
0000
0000
0101
0000
0000
1010
0000
0000
1001
0000
0000
0000
1000
0000
0100
0000
,
0010
0000
0000
0010
0000
0000
0010
0000
0000
0010
0000
0000
0001
0000
0000
0000
,
0001
0000
0100
0010
1000
0000
0001
0100
,
0001
0000
1000
0000
0100
0000
1000
0000
0010
0000
0000
0000
0001
1000
0001
1000
,
0001
0000
1000
0010
0100
0001
0010
0000
,
0011
0000
0000
0100
0000
1000
0100
0000
1100
0000
0000
0000
1000
0000
0010
0000
,
0101
0000
0000
0010
0000
0000
1000
0000
0100
0000
0000
0000
0010
0000
0001
0000
,
1001
0000
0000
0001
0000
1000
0010
0000
1000
0000
0001
0000
0100
0000
0010
0000
,
1010
0000
0000
0001
0000
0000
0100
0000
0010
0000
0000
0000
1000
0000
0100
0000
,
1100
0000
0000
0010
0000
0001
0100
0000
1010
0000
0000
0000
0001
0000
0100
0000
,
1010
0000
0000
0001
0000
0100
0001
0000
1000
0000
0100
0000
0010
0000
0000
0001
,
1000
0000
0001
0000
1000
0000
0000
0000
0000
0000
0010
0000
0100
0000
0000
0000
0001
0000
0000
0000
1000
0000
0000
0000
1000
0100
0010
0001
1000
0000
0000
0000
;

//---------------dance-single - Renard----------------
#NOTES:
     dance-single:
     Renard:
     Medium:
     6:
     0.421,0.456,0.638,0.060,0.004:
0000
0000
0000
0000
,
0000
0000
0000
0000
,
0000
0000
0000
0000
,
0000
0000
0000
0000
,
1000
0000
0000
1000
0000
0000
0010
0000
,
0000
0010
0100
0000
0001
0000
0010
0000
,
0100
0000
0000
0100
0000
0000
0100
0000
,
0000
1000
0010
0000
1000
0000
0101
0000
,
0010
1000
0100
0000
0010
0000
1001
0000
,
0000
0010
1001
0000
0100
0000
1001
0000
,
0010
0001
0100
0000
0010
0000
1001
0000
,
0000
0100
1001
0000
0010
0000
1001
0000
,
1000
0100
0010
0000
0001
0000
1001
0000
,
0000
0001
0010
0000
0000
0100
1001
0000
,
1000
0000
1010
0000
0000
0100
0001
0000
,
0010
0000
0000
0001
0000
0000
0010
0000
0100
0000
0000
0000
1100
0000
0000
0000
,
1100
0000
0000
1010
0000
0000
0101
0000
,
0011
0000
0000
0110
0000
0000
1100
0000
,
1010
0000
0000
0110
0000
0000
0101
0000
,
1000
0000
0001
0000
0100
0001
1000
0000
,
1100
0000
0000
0110
0000
0000
0011
0000
,
0101
0000
0000
1001
0000
0000
1100
0000
,
0011
0000
0000
0101
0000
0000
1001
0000
,
1100
0000
0000
1001
0000
0000
0011
0000
,
2002
0000
3000
0200
0000
0003
0020
0000
,
0000
0000
0000
0000
0000
0330
1000
0000
,
0010
0100
0001
0000
0100
0010
1000
0000
,
0010
0100
0001
0000
0100
0000
0001
0000
,
1000
0100
0010
0000
0001
0010
0100
1000
,
0001
1000
0001
0000
1001
0000
1010
0000
,
0101
0000
0001
0010
0011
0000
0100
0000
,
1100
0000
1000
0010
1010
0000
0001
0000
,
0101
0000
0001
0010
0011
0000
1000
0000
,
1100
0001
0011
1000
,
1010
0000
0001
0100
0101
0000
1000
0000
,
1100
0000
0001
0010
0011
0000
1000
0000
,
1010
0001
0101
0001
,
1001
1010
1001
1100
,
0011
0000
0001
0100
0001
0100
0010
0100
,
0010
0100
0010
1000
0010
1000
0100
1000
,
0100
1000
0001
1000
0001
1000
0010
1000
,
0010
1000
0100
1000
0100
0000
0011
0000
,
1100
0000
0001
0100
0001
0100
0001
0010
,
0001
0010
0001
1000
0001
1000
0001
1000
,
0001
1000
0100
1000
0100
1000
0100
0010
,
0100
0010
0100
0010
0002
0000
1003
0010
,
0100
0001
1000
0000
1100
0000
0000
0000
,
0011
0000
0000
0000
0101
0000
0001
1000
,
0100
0010
0001
0000
1010
0000
0000
0000
,
0101
0000
0000
0000
0011
0000
0001
0010
,
0100
1000
0010
0000
0101
0000
0000
0000
,
1010
0000
0000
0000
0101
0000
1000
0100
,
0010
0100
1000
0000
0101
0000
0000
0000
,
1010
0000
0000
0000
1001
0000
1000
0100
,
1000
0000
0011
0000
,
0101
0000
1100
0000
,
1010
0000
0000
0000
0011
0000
0000
0001
,
0010
1000
0000
0001
0100
1000
0100
0000
,
0010
0000
1000
0000
0001
0000
0000
1000
,
0100
0100
0100
0010
,
0010
0001
0001
0100
,
0010
0000
1000
0100
1000
0000
2002
0000
,
0000
3003
0000
0000
;

//---------------dance-single - Renard----------------
#NOTES:
     dance-single:
     Renard:
     Easy:
     2:
     0.248,0.266,0.060,0.095,0.000: // measure 1
0000
0000
0000
0000
,  // measure 2
0000
0000
0000
0000
,  // measure 3
0000
0000
0000
0000
,  // measure 4
0000
0000
0000
0000
,  // measure 5
1000
1000
1000
1000
,  // measure 6
0001
0001
0001
0000
,  // measure 7
0100
0000
0100
0000
,  // measure 8
0010
0010
0010
1001
,  // measure 9
1000
0000
0100
0000
0000
0010
0001
0000
,  // measure 10
0100
0000
0001
0000
0000
1000
0100
0000
,  // measure 11
1000
0000
0010
0000
0000
0100
0001
0000
,  // measure 12
0000
1000
0100
0000
0000
0010
0001
0000
,  // measure 13
1000
0000
0001
0000
0000
0100
0001
0000
,  // measure 14
0000
1000
0100
0000
0000
0010
0001
0000
,  // measure 15
1000
0000
0001
0000
0000
1000
0001
0000
,  // measure 16
0000
1000
0001
0000
1000
0000
0010
0000
,  // measure 17
1000
0000
0000
1000
0000
0000
1000
0000
,  // measure 18
0010
0000
0000
0010
0000
0000
0010
0000
,  // measure 19
0100
0000
0000
0100
0000
0000
0100
0000
,  // measure 20
0001
0000
0000
0001
0000
0000
0001
0000
,  // measure 21
0000
0000
0000
0010
0000
0000
0010
0000
,  // measure 22
0000
0000
0000
0100
0000
0000
0100
0000
,  // measure 23
0000
0000
0000
1000
0000
0000
1000
0000
,  // measure 24
0010
0010
0100
0001
,  // measure 25
2002
0000
3000
0200
0000
0003
0020
0000
,  // measure 26
0000
0000
0330
1000
,  // measure 27
0010
0000
0100
0000
0001
1000
0001
0000
,  // measure 28
0100
0100
0000
0001
,  // measure 29
0010
0100
1000
0001
,  // measure 30
0000
0000
1001
1001
,  // measure 31
1000
0010
0100
0001
,  // measure 32
1000
0100
0000
1000
,  // measure 33
0010
0100
0001
0010
,  // measure 34
0001
1000
0001
1000
,  // measure 35
1000
0001
0001
0100
,  // measure 36
0001
1000
0010
1000
,  // measure 37
0000
1000
0000
0001
,  // measure 38
0100
0001
1001
1000
,  // measure 39
0100
0000
0000
1000
0100
0000
0010
0000
,  // measure 40
0001
0000
0000
0010
0001
0000
0100
0000
,  // measure 41
0001
0000
0000
0100
0001
0000
1000
0000
,  // measure 42
0010
0000
0000
1000
0010
0000
1000
0000
,  // measure 43
0001
0000
0000
1000
0001
0000
0100
0000
,  // measure 44
0010
0000
0000
0100
0010
0000
1000
0000
,  // measure 45
0001
0000
0000
0100
0001
0000
1000
0000
,  // measure 46
0100
0000
0000
1000
0001
0000
0100
0000
,  // measure 47
0100
0100
0000
0020
,  // measure 48
0000
0000
0000
1030
,  // measure 49
1000
1000
0000
0200
,  // measure 50
0000
0000
0000
0310
,  // measure 51
0010
0010
0000
0002
,  // measure 52
0000
0000
0000
0103
,  // measure 53
0100
0100
0000
0002
,  // measure 54
0000
0000
0000
1003
,  // measure 55
1000
1000
0000
0100
,  // measure 56
0000
0200
0000
0310
,  // measure 57
0010
0010
0000
0001
,  // measure 58
0000
0002
0000
0103
,  // measure 59
0100
0100
0000
0010
,  // measure 60
0000
0020
0000
1030
,  // measure 61
1000
1000
0000
0100
,  // measure 62
0000
0010
1001
1010
;
