#TITLE:Bombs Away;
#SUBTITLE:;
#ARTIST:Jaql vs Renard;
#TITLETRANSLIT:;
#SUBTITLETRANSLIT:;
#ARTISTTRANSLIT:;
#CREDIT:;
#BANNER:bombs.png;
#BACKGROUND:bombs-bg.png;
#LYRICSPATH:;
#CDTITLE:;
#MUSIC:bombs.ogg;
#OFFSET:0.000;
#SAMPLESTART:25.212;
#SAMPLELENGTH:12.000;
#SELECTABLE:YES;
#BPMS:0.000=190.086;
#STOPS:;
#BGCHANGES:;

//---------------dance-single - Renard----------------
#NOTES:
     dance-single:
     Renard:
     Hard:
     9:
     0.760,0.694,0.264,0.154,0.143:
0000
0000
0000
0000
,
0000
0000
0000
0000
,
0000
0000
0000
0000
,
0000
0000
0000
0000
,
2100
0000
0010
3000
0102
0000
0010
0003
,
0001
0100
0010
1000
0100
0010
0001
0010
,
0012
0103
2100
3010
,
1000
0000
0100
0010
0001
0010
0001
0000
,
0012
0103
2010
3100
,
1000
0001
0100
0010
1000
0100
0010
0100
,
2010
3100
0012
0103
,
0110
0000
1001
0000
1000
0001
1000
0001
,
1000
0001
0100
0010
0000
0010
1000
0100
,
0010
0100
0000
0100
1000
0010
0100
0001
,
0100
0010
1000
0100
0000
0100
1000
0001
,
0010
0001
0000
0001
1000
0010
1000
0001
,
1000
0100
1000
0001
0000
0001
0010
0100
,
1000
0010
0000
0010
1000
0001
0100
0010
,
2000
3002
0203
0320
,
1030
0000
0001
0010
0001
0000
1000
0000
0001
0000
0100
0000
0010
0000
1000
0000
,
0001
0100
0010
1000
0100
0010
0001
0010
,
0100
1000
0010
0000
0010
1000
0100
0000
,
0100
1000
0010
0100
0001
0010
0100
1000
,
0001
0100
0010
0000
0010
0100
0001
0000
,
0001
0010
0100
1000
0010
0100
0001
1000
,
0100
0010
0100
0000
0100
1000
0010
0000
,
0010
0100
0001
0000
0001
0010
0100
0000
,
0100
1000
0010
0100
0001
1000
0100
0000
,
1000
0000
0000
1000
0001
0000
0000
0001
0100
0000
0000
0100
0010
0000
0000
0010
,
1000
0000
0000
1000
0100
0000
0000
0100
0010
0000
0000
0010
0001
0000
0010
0000
,
0100
0000
0000
0100
1000
0000
0010
0000
0100
0000
0001
0000
1000
0000
0000
0000
,
0001
0000
0000
0001
0100
0000
0010
0000
2000
0000
0001
0000
3001
0000
0000
0000
,
0001
0000
0000
0001
1000
0000
0000
1000
0010
0000
0000
0010
0100
0000
0000
0100
,
0001
0000
0000
0001
0010
0000
0000
0010
0100
0000
0000
0100
1000
0000
0100
0000
,
0010
0000
0000
0010
0001
0000
0100
0000
0010
0000
1000
0000
0001
0000
0000
0000
,
1000
0000
0000
1000
0010
0000
0100
0000
0002
0000
1000
0000
1003
0000
0000
0000
,
1001
0000
0010
1001
0000
0100
1001
0000
,
1000
0001
0100
0010
1000
0100
1000
0000
,
1001
0000
0010
1001
0000
0100
0001
0000
,
1000
0100
0010
0001
0010
0100
1000
0000
,
1001
0000
0010
1001
0000
0100
1001
0000
,
1000
0100
0010
0001
0010
0100
1000
0000
,
1010
0000
0100
1010
0000
0001
1010
0000
,
1000
0100
1001
0110
,
1000
0000
0010
0100
0000
0001
0100
0000
,
0010
1000
0000
0100
0010
0001
0010
0000
,
0100
0000
1000
0010
0000
1000
0001
0000
,
1000
0100
0010
0001
0010
0100
1000
0000
,
0001
0000
0100
0001
0000
0010
0001
0000
,
1000
0100
0000
1000
0010
1000
0001
0000
,
1000
0100
0010
0001
,
1000
0001
1000
0001
1000
0001
1000
0001
,
1000
1000
0001
0100
0010
0010
1000
0100
,
0010
0001
0010
0100
1000
0010
0100
0000
,
0001
0001
0100
0010
1000
1000
0010
1000
,
0100
0010
0001
0010
0100
1000
0001
0000
,
1000
1000
0010
0100
0001
0001
0010
0100
,
1000
0010
0100
0001
1000
0100
0010
0000
,
0100
0100
1000
0010
0100
0100
0001
0010
,
0100
1000
0001
0010
0001
1000
0010
0000
,
1000
1000
0001
0100
0010
0010
1000
0100
,
0010
0010
0001
0010
0100
1000
0010
0100
,
0001
0001
0100
0010
1000
1000
0100
0010
,
0001
0001
0010
0100
1000
0010
0100
0001
,
1000
1000
0001
0010
0100
0100
1000
0010
,
0100
0001
0010
0100
1000
0010
0100
0001
,
0010
0100
1000
0010
0100
0010
0100
0100
,
0001
0010
0100
1000
0001
1000
0010
0010
,
1000
0000
1000
0001
0000
0001
0100
0000
0100
0010
0000
0010
,
1000
0000
1000
0100
0000
0100
0010
0000
0010
0001
0000
0000
,
1001
0000
0000
0000
;

//---------------dance-single - Renard----------------
#NOTES:
     dance-single:
     Renard:
     Challenge:
     10:
     0.964,0.963,0.176,0.077,0.705:
0000
0000
0000
0000
,
0000
0000
0000
0000
,
0000
0000
0000
0000
,
0000
0000
0000
0000
,
1001
0010
0100
1001
1000
0100
0010
0001
,
0010
0000
0100
1000
0100
0000
1000
0000
0010
0000
0100
0001
0100
0000
0001
0000
,
1000
0000
0100
1000
0100
0000
1000
0000
0001
0000
0010
0000
0100
0000
0000
0000
,
0100
0000
1000
0000
0010
0000
0100
0000
0001
0000
0100
0001
0100
0000
0000
0000
,
0101
0000
0000
0000
0010
1000
0010
0000
0000
0000
1000
0100
1000
0000
0001
0000
,
0010
0100
1000
0001
1000
0000
1001
1001
,
0000
1010
0000
0101
0000
1000
0001
0000
,
1000
0000
1000
0000
0001
0001
0001
0001
,
1100
0000
1100
0011
0000
0011
1100
0000
,
0001
0000
0100
0001
0100
0000
0001
0000
1000
0000
0100
1000
0100
0000
1000
0000
,
1100
0000
0100
0001
0000
0100
2100
0000
,
3001
0100
0000
0100
0010
1000
0100
0010
,
0001
0000
0010
0001
0010
0000
0100
0000
1000
0100
1000
0000
0010
0000
1000
0010
,
1000
0000
0001
0000
0100
0001
0100
0000
0001
0000
1000
0001
1000
0000
0100
0000
,
2000
3200
0320
0032
,
1003
0000
0001
1000
0100
0000
0010
0000
0001
0000
1000
0000
0010
0000
0100
0000
,
0001
0000
1000
0001
1000
0000
0100
1000
0100
0000
1000
0001
0010
0000
0001
1000
,
0001
0000
1000
0010
1000
0000
0001
0100
0001
0000
0100
0000
0010
0000
0000
0000
,
1000
0000
0100
1000
0100
0000
1000
0001
0010
0000
0001
1000
0001
0000
1000
0010
,
1000
0000
0001
0100
0001
0000
0100
0010
1000
0000
0100
0000
1000
0000
0000
0000
,
0001
0000
0010
0001
0010
0000
0001
1000
0001
0000
1000
0010
1000
0000
0001
0100
,
0001
0000
1000
0010
1000
0000
0100
1000
0100
0000
1000
0000
0001
0000
0000
0000
,
0010
0000
0001
0010
0001
0000
1000
0001
1000
0000
0001
0100
0001
0000
1000
0010
,
1000
0000
0001
0010
0001
0000
1000
0100
1000
0000
0001
0000
1000
0000
0000
0000
,
0001
0010
0100
0000
1000
0100
0010
0000
0001
0010
0100
0000
1000
0100
0010
0000
,
0001
0010
0100
0000
1000
0100
0010
0000
0001
0000
0010
0000
0100
1000
0000
0000
,
0001
0100
0010
1000
0100
0010
0001
0100
0010
1000
0000
0000
0000
0000
0000
0000
,
1000
0010
0100
0001
0010
0100
1000
0010
0100
0001
0000
0000
0000
0000
0000
0000
,
1000
0100
0010
0000
0001
0010
0100
0000
1000
0100
0010
0000
0001
0010
0100
0000
,
1000
0100
0010
0000
0001
0010
0100
0000
1000
0000
0100
0000
0010
0001
0000
0000
,
1000
0010
0100
0001
0010
0100
1000
0010
0100
0001
0000
0000
0000
0000
0000
0000
,
0001
0100
0010
1000
0100
0010
0001
0100
0010
1000
0000
0000
1001
0000
0000
0000
,
1000
0001
0100
0001
1000
0100
0010
0001
,
0010
0000
0100
1000
0100
0000
1000
0000
0001
0000
0010
0001
0010
0000
0001
0000
,
1000
0010
0100
0001
0010
0100
1000
0001
,
0100
0000
0001
0100
0001
0000
0100
0000
0001
0000
1000
0001
1000
0000
0001
0000
,
1000
0100
0010
0001
0010
0100
1000
0010
,
0100
0000
0001
0100
0001
0000
0100
0000
0010
0000
1000
0010
1000
0000
0010
0000
,
1000
0100
0010
0001
0010
0100
1000
0001
,
0200
0000
0002
00M0
0010
M0M0
1313
M0M0
,
0001
0000
0000
0000
1000
0000
0100
0000
0000
0000
1000
0001
1000
0000
0001
0000
,
0100
0000
0000
0000
0001
0000
1000
0000
0000
0000
0100
1000
0100
0000
1000
0000
,
0001
0000
0000
0000
0010
0000
0001
0000
0000
0000
1000
0010
1000
0000
0001
0000
,
0100
0000
0000
0000
0001
0000
1000
0000
0000
0000
0100
1000
0100
0000
1000
0000
,
0001
0000
0000
0000
0010
0000
0001
0000
0000
0000
1000
0010
1000
0000
0001
0000
,
0100
0000
0000
0000
0001
0000
1000
0000
0000
0000
0100
1000
0100
0000
1000
0000
,
0001
0010
0001
1000
,
0010
1000
0001
0100
0010
1000
0100
0010
,
0001
0000
0010
0000
0100
0000
1000
0000
0010
0000
0100
0010
0100
0000
0001
0000
,
0100
0000
0001
0100
0001
0000
1000
0000
0100
0000
1000
0100
1000
0000
0001
0000
,
0010
0100
1000
0010
0100
0001
0010
0100
,
1000
0100
1000
0100
1000
0000
0100
0000
0010
0001
0010
0001
0010
0000
0100
0000
,
1000
0010
0100
0001
0100
0010
1000
0001
,
0100
0000
0010
0100
0010
0000
1000
0000
0100
0000
1000
0100
1000
0000
0001
0000
,
0010
0100
1000
0010
0100
0001
0010
0100
,
1000
0100
1000
0100
1000
0000
0100
0000
0010
0000
0100
0010
0100
0000
0010
0000
,
0001
0000
0010
0000
0001
0000
0010
0000
0001
0000
0010
0001
0010
0000
0001
0000
,
1000
0000
0100
0000
1000
0000
0100
0000
1000
0000
0100
1000
0100
0000
1000
0000
,
0010
1000
0010
0000
1000
0000
0010
0000
0100
0010
0100
0000
0010
0000
0100
0000
,
0001
0100
0001
0000
0100
0000
0001
0000
1000
0100
0010
0001
0010
0000
0100
0000
,
1000
0000
0001
0100
0001
0000
0100
0000
0010
0000
1000
0100
0010
0000
0001
0000
,
0010
0000
0100
1000
0001
0000
0010
0000
0100
0000
1000
0001
0100
0000
0010
0000
,
1000
0001
0100
0010
1000
0000
0100
0000
0010
0000
0001
0010
0100
0000
1000
0000
,
0001
0000
0010
0100
1000
0000
0001
0000
0100
0000
0010
1000
0001
0000
1000
0000
,
0001
0100
0010
1000
0100
0010
0001
0100
0010
1000
0100
0010
,
0001
1000
0010
0100
0001
0010
0100
1000
0001
0100
0010
1000
,
0100
0000
0000
0000
;

//---------------dance-single - Renard----------------
#NOTES:
     dance-single:
     Renard:
     Medium:
     6:
     0.404,0.655,0.000,0.011,0.000:
0000
0000
0000
0000
,
0000
0000
0000
0000
,
0000
0000
0000
0000
,
0000
0000
0000
0000
,
1000
1000
0001
0001
,
0000
0000
0000
0100
0001
0100
0001
0000
,
1000
1000
0100
0100
,
0000
0000
0000
0010
0001
0000
0010
0000
,
0001
0000
1000
1000
,
0000
0000
0000
0001
0100
0000
0001
0000
,
1000
0000
0001
0001
,
0000
0000
0000
0000
0010
0100
0010
0000
,
1000
1000
0010
0010
,
0000
0000
0100
0001
,
0010
0010
0100
0100
,
0000
0000
0000
0000
1000
0001
1000
0000
,
0001
0001
0100
0100
,
0010
0000
1000
0000
0010
1000
0000
0000
,
0010
0010
0100
0100
,
0001
0000
1000
0000
0010
0100
0010
0000
,
1000
1000
0001
0001
,
1000
0000
0001
0000
1000
0001
1000
0000
,
0010
0010
0100
0100
,
0010
0100
0010
0100
0010
0100
0010
0100
,
0010
0010
1000
1000
,
0001
0001
0100
0000
,
0001
0000
1000
0000
,
0100
0000
0010
0001
,
1000
1000
0001
0001
,
1000
0001
1000
0001
,
0100
0010
0100
0010
0100
0010
0100
0010
,
0100
0010
0100
0010
0100
0010
0100
0010
,
0100
0100
0010
0010
,
1000
1000
0001
0001
,
1000
0001
1000
0001
1000
0001
1000
0001
,
2000
0000
0000
0000
,
3001
0001
0100
0100
,
0010
0010
1000
1000
,
0100
0100
1000
0000
,
0001
0010
0100
1000
,
0001
0000
0100
0000
,
0010
0000
1000
0000
,
0001
0100
0010
0000
,
1000
0010
1000
0001
,
0100
0100
0000
0001
,
1000
1000
0000
0100
,
0010
0001
1000
0000
,
0001
0100
0010
1000
,
0010
0010
0000
0100
,
0001
0001
1000
0100
,
0010
0001
1000
0001
,
0100
0010
0100
0010
1000
0001
1000
0001
,
1000
1000
0001
0001
,
0100
0010
1000
0000
,
0001
0100
0010
0000
,
1000
0010
0100
0001
,
1000
0100
1000
0001
,
0010
0100
1000
0010
,
0100
0000
0100
0000
,
0001
0000
0001
0000
,
1000
0000
0001
1000
0001
0000
1000
0000
,
0001
1000
0001
1000
,
0010
0000
0100
0010
0100
0000
0010
0000
,
1000
0001
1000
0001
,
1000
0100
0010
0001
,
1000
0100
0010
0001
,
1000
0010
0100
0001
,
1000
0010
0100
0001
,
1000
0000
0001
0000
,
0100
0010
1000
0001
,
1000
0000
0000
0000
;

//---------------dance-single - Renard----------------
#NOTES:
     dance-single:
     Renard:
     Easy:
     3:
     0.271,0.385,0.011,0.011,0.000: // measure 1
0000
0000
0000
0000
,  // measure 2
0000
0000
0000
0000
,  // measure 3
0000
0000
0000
0000
,  // measure 4
0000
0000
0000
0000
,  // measure 5
1000
1000
0001
0001
,  // measure 6
0000
0000
0100
0000
,  // measure 7
0010
0010
0100
0100
,  // measure 8
0000
0000
0010
0000
,  // measure 9
1000
1000
0001
0001
,  // measure 10
0000
0000
0100
0000
,  // measure 11
0010
0010
0100
0100
,  // measure 12
0000
0000
0001
1000
,  // measure 13
0001
0000
0001
0000
,  // measure 14
1000
0000
0010
1000
,  // measure 15
0001
0000
0001
0000
,  // measure 16
1000
0000
0000
0000
,  // measure 17
1000
0000
1000
0000
,  // measure 18
0100
0000
0010
0001
,  // measure 19
0010
0000
0001
0000
,  // measure 20
1000
0001
1000
0001
,  // measure 21
0100
0000
0100
0000
,  // measure 22
0100
0000
0100
0000
,  // measure 23
0010
0000
0010
0000
,  // measure 24
1000
0000
1000
0000
,  // measure 25
0001
0000
0001
0000
,  // measure 26
0001
0000
0001
0000
,  // measure 27
0010
0000
0010
0000
,  // measure 28
0100
0000
0100
0000
,  // measure 29
1000
0000
1000
0000
,  // measure 30
0001
0000
0001
0000
,  // measure 31
1000
0001
1000
0001
,  // measure 32
0100
0010
0100
0010
,  // measure 33
1000
0000
1000
0000
,  // measure 34
0001
0000
0001
0000
,  // measure 35
0100
0001
1000
0100
,  // measure 36
2000
0000
0000
3000
,  // measure 37
0001
0000
0001
0000
,  // measure 38
0100
0000
0100
0010
,  // measure 39
1000
0100
1000
0000
,  // measure 40
0001
0000
0010
0000
,  // measure 41
0100
0000
0100
0000
,  // measure 42
1000
0000
0001
0100
,  // measure 43
0010
1000
0001
0000
,  // measure 44
0100
0000
0100
0000
,  // measure 45
0001
0000
0001
0000
,  // measure 46
1000
0000
0100
0010
,  // measure 47
0001
0010
0100
0000
,  // measure 48
1000
0000
0010
0000
,  // measure 49
0100
0000
0001
0000
,  // measure 50
0100
0000
0010
1000
,  // measure 51
0001
0000
1000
0000
,  // measure 52
0001
1000
0001
1000
,  // measure 53
0010
0000
0010
0000
,  // measure 54
0100
0010
0100
0010
,  // measure 55
1000
0000
1000
0000
,  // measure 56
0001
1000
0001
1000
,  // measure 57
0010
0000
0010
0000
,  // measure 58
0100
0010
0100
0010
,  // measure 59
1000
0000
0001
0000
,  // measure 60
0100
0001
1000
0000
,  // measure 61
0100
0000
0100
0000
,  // measure 62
0010
0000
0010
0001
,  // measure 63
1000
0000
1000
0000
,  // measure 64
0010
0000
0100
0001
,  // measure 65
1000
0000
0010
0100
,  // measure 66
0001
0000
1000
0010
,  // measure 67
0100
0000
0001
0000
,  // measure 68
1000
0000
0001
0000
,  // measure 69
1000
1000
0001
0001
,  // measure 70
0100
0100
0010
1000
,  // measure 71
1001
0000
0000
0000
;
