#TITLE:Blue Anthem;
#SUBTITLE:;
#ARTIST:Scott Brown;
#TITLETRANSLIT:;
#SUBTITLETRANSLIT:;
#ARTISTTRANSLIT:;
#CREDIT:;
#BANNER:blue.png;
#BACKGROUND:blue-bg.png;
#LYRICSPATH:;
#CDTITLE:;
#MUSIC:blue.ogg;
#OFFSET:0.000;
#SAMPLESTART:33.862;
#SAMPLELENGTH:12.000;
#SELECTABLE:YES;
#BPMS:0.000=170.000;
#STOPS:;
#BGCHANGES:;

//---------------dance-single - Renard----------------
#NOTES:
     dance-single:
     Renard:
     Hard:
     8:
     0.607,0.725,0.557,0.211,0.000:
0000
0000
0000
0000
,
0000
0000
0000
0000
,
0000
0000
0000
0000
,
0000
0000
0000
0000
,
2000
0020
0000
3030
0220
0000
0000
0030
,
0002
0000
0303
0220
0330
2020
0000
0000
,
3030
2020
0000
3030
0202
0000
0000
0303
,
0022
0000
0033
0220
0330
2200
0000
3300
,
1000
0100
0000
0000
0101
0000
0100
1000
,
0010
0000
0000
0011
0000
0110
0000
0010
,
1000
0010
0000
0000
0110
0000
0000
0000
,
0101
0000
0000
0011
0000
0110
0000
0000
,
0100
1000
0000
0000
1100
0000
0000
0000
,
0101
0000
0000
0110
0000
0011
0000
0001
,
0010
1000
0000
0000
1010
0000
0000
0000
,
0110
0000
0000
1100
0000
1010
0000
0000
,
1000
0000
1000
0000
1000
0100
0010
0001
,
0000
0001
1000
0001
1000
0001
1000
0010
,
0000
0010
0100
0010
0100
0001
0100
0010
,
0000
0010
1000
0000
1000
0000
1000
0000
,
0001
0000
0001
0000
0001
0010
0100
1000
,
0000
1000
0001
1000
0001
1000
0001
0100
,
0000
0100
0010
0100
0010
1000
0010
0100
,
0000
0100
0001
0000
0001
0000
0001
0000
,
0001
1000
0100
1000
0010
0100
0001
0010
,
0000
0011
0000
0010
0100
1000
0010
0100
,
0000
0110
0000
0010
1000
0100
0010
0001
,
0000
0011
0000
0010
0100
1000
0010
0000
,
0110
0000
0101
0000
1001
0000
1000
0100
,
0000
0100
0010
0001
0010
0100
0000
0110
,
0000
0100
1000
0010
0100
0010
0000
0110
,
0000
0010
1000
0100
0010
0001
1000
0000
,
0001
0100
0101
0000
0100
0010
1000
0010
,
0000
0010
1000
0100
0010
0100
0110
0000
,
0100
1000
1010
0000
0010
0100
0001
0010
,
0000
0010
0001
1000
0001
0100
0101
0000
,
0001
0100
0110
0000
0010
1000
0100
0010
,
0000
0010
0001
1000
0001
1000
1001
0000
,
1000
0010
0110
0000
0010
1000
0100
1000
,
0200
0000
0010
0010
0000
0301
0100
1000
,
0010
0100
0001
0100
0010
0100
0001
1000
,
0010
1000
0100
0010
0100
1000
0001
0100
,
0001
0010
0100
0001
0100
0010
0001
0100
,
0010
1000
0100
0010
1000
0010
0100
1000
,
0010
0100
0001
0100
0010
1000
0100
0010
,
0100
1000
0001
0100
0010
0100
0001
1000
,
0100
1000
0100
0010
0001
0010
0001
0100
,
0001
0100
0010
1000
0010
1000
0010
1000
,
0001
0100
0010
0000
1000
0000
0110
0000
,
0001
0010
0100
0000
1000
0000
0110
0000
,
0001
0010
0100
0000
1000
0000
0110
0000
,
1000
0010
0100
0000
0001
0010
0100
0000
,
0100
0010
0001
0000
0100
0000
0110
0000
,
1000
0100
0010
0000
0100
0000
0110
0000
,
0100
1000
1001
0000
0001
0100
1001
0000
,
2002
0000
0000
3003
,
0001
0100
0000
0000
1100
0000
0000
0100
,
0001
0000
0001
0010
0000
0010
0100
1000
,
0100
0001
0100
0000
1100
0000
0000
0100
,
1000
0000
1000
0010
0000
0011
0000
0000
,
0010
0100
0000
0000
0101
0000
0100
0010
,
1000
0000
0000
1100
0000
0101
0000
0100
,
1000
0010
0000
0000
0011
0000
0000
0010
,
0100
0000
1000
0100
0000
0001
0100
0000
,
0010
1000
0000
0000
1100
0000
0000
0100
,
0001
0000
0100
0010
0000
0001
0000
0010
,
1000
0010
0000
0000
1010
0000
0000
0010
,
0100
0000
0100
1000
0000
0010
0000
0000
,
0100
0001
0100
0000
0110
0000
0000
0010
,
1000
0000
1000
0100
0000
0100
0000
0010
,
0001
0010
0000
0000
0110
0000
0000
0100
,
1000
0000
1000
0001
0000
0100
0010
0000
,
1001
0000
0000
0000
;

//---------------dance-single - Renard----------------
#NOTES:
     dance-single:
     Renard:
     Challenge:
     9:
     0.576,0.589,0.614,0.029,0.168:
0000
0000
0000
0000
,
0000
0000
0000
0000
,
0000
0000
0000
0000
0000
0000
0000
0000
0001
0000
0100
0001
0100
0000
0001
0000
,
0000
0000
0000
0000
0000
0000
0100
0000
0010
0000
1000
0010
1000
0000
0010
0000
,
1000
0000
0100
0000
0010
0000
0000
0000
0001
0000
0010
0001
0010
0000
0001
0000
,
0010
0000
0100
0000
1000
0000
0001
0000
0000
0000
1000
0001
1000
0000
0001
0000
,
1000
0000
0010
0000
0100
0000
0001
0000
0100
0000
0001
0100
0001
0000
0100
0000
,
0010
0000
0000
0000
0000
0000
0010
0000
0000
0000
1000
0001
1000
0000
0001
0000
,
1000
0010
0000
0000
0110
0000
0100
0001
,
0010
0000
0001
0010
0001
0000
0010
0000
0000
0000
0100
0000
0000
0000
1000
0000
,
0001
0000
1000
0001
1000
0000
0000
0000
0101
0000
0000
0000
0100
0000
0010
0000
,
1000
0000
0000
0000
0000
0000
1010
0000
0000
0000
0101
0000
0000
0000
0001
0100
,
0010
0000
0100
0000
0000
0000
0000
0000
0110
0000
0000
0000
0000
0000
0010
1000
,
0010
0000
0000
0000
0000
0000
1010
0000
0000
0000
1001
0000
0000
0000
1000
0100
,
0010
0000
0001
0000
0000
0000
0000
0000
0110
0000
0000
0000
0000
0000
0100
1000
,
0001
0000
0000
0110
0000
1001
0000
0000
,
0001
0000
0001
0000
0001
0100
0010
1000
,
0000
1000
0010
0000
0010
1000
0100
0010
,
0000
0010
0001
0000
0001
1000
0010
0100
,
0000
0100
0001
0000
0101
0000
0110
0000
,
1100
0000
1100
0000
1000
0100
0001
0100
,
0000
0100
0010
0001
0010
0001
0010
1000
,
0000
1000
0010
0000
1000
0010
0001
0010
,
0000
0010
0100
0000
0110
0000
0110
0000
,
0101
0000
0101
0000
0100
0010
1000
0100
,
0000
0000
0010
0001
0010
0000
0000
0000
0100
0000
0010
0000
0100
0000
1000
0000
,
0000
0000
0100
1000
0100
0000
0000
0000
1000
0000
0010
0000
0100
0000
0001
0000
,
0000
0000
1000
0001
1000
0000
0000
0000
0001
0000
0100
0000
0010
0000
0000
0000
,
1010
0000
0101
0000
1000
0100
0010
0001
,
0000
0000
0010
0001
0010
0000
0000
0000
0100
0000
1000
0000
0001
0000
1000
0000
,
0000
0000
1000
0010
1000
0000
0000
0000
0010
0000
0100
0000
0010
0000
0100
0000
,
0000
0000
0100
0000
0001
0000
1000
0000
0001
0000
1000
0001
1000
0000
0000
0000
,
0000
0000
0100
0000
0010
0000
0100
0010
0100
0000
0010
0000
1000
0000
0100
0000
,
0000
0000
0000
0000
0000
0000
0000
0000
0100
0000
0010
0001
0010
0000
0001
0000
,
0000
0000
0000
0000
0000
0000
0000
0000
0010
0000
0100
0010
0100
0000
0010
0000
,
0000
0000
0000
0000
0100
1000
0010
0000
,
1000
0000
0000
0000
0001
0000
0100
0001
0100
0000
0001
0000
0100
0000
0010
0000
,
0000
0000
0000
0000
0000
0000
0000
0000
0010
0000
1000
0010
1000
0000
0010
0000
,
0000
0000
0000
0000
0000
0000
0000
0000
0100
0000
0001
0100
0001
0000
0100
0000
,
0001
0000
1000
1000
,
0101
0110
1010
0000
,
1000
0000
0000
0000
0000
0000
0100
0000
0000
0000
0010
0001
0010
0000
0001
0000
,
0010
0100
0000
0000
0110
0000
0000
0100
,
1000
0000
0000
0000
0000
0000
1001
0000
0000
0000
0001
0100
0001
0000
0100
0000
,
0010
0100
0000
0000
0110
0000
0000
0010
,
1000
0000
0000
0000
0000
0000
1010
0000
0000
0000
1000
0010
1000
0000
0010
0000
,
0100
0000
0001
0000
0000
0000
0000
0000
0101
0000
0000
0000
0000
0000
0001
0010
,
0001
0000
0000
0110
0000
1100
0000
0000
,
1000
0000
1000
0000
0001
0100
0010
1000
,
0000
0000
0000
0000
0000
0000
0000
0000
1000
0000
0010
1000
0010
0000
0000
0000
,
0000
1000
0010
0000
0100
0001
0010
0001
,
0000
0000
0000
0000
0000
0000
0000
0000
1000
0000
0100
0010
0001
0000
0000
0000
,
0000
0010
0100
0000
1000
0000
0000
0000
,
1000
0000
0000
0000
0000
0000
0010
0000
0000
0000
0100
0001
0100
0000
0010
0000
,
0000
1000
0010
0000
0101
0000
0000
0000
,
1001
0000
0000
1001
0000
1001
0000
0000
,
0100
0010
0000
0000
1010
0000
0000
0000
,
0101
0000
0000
1001
0000
1100
0000
1000
,
0100
0010
0100
0000
0000
0000
0000
0000
0110
0000
0000
0000
0000
0000
0000
0000
,
1100
0000
0000
0011
0000
1001
0000
0000
,
0001
0100
0000
0000
0110
0000
0000
0000
,
1010
0000
0000
0101
0000
1001
0000
0001
,
0100
0010
0100
0000
0000
0000
0000
0000
1010
0000
0000
0000
0000
0000
0000
0000
,
1001
0000
0000
1100
0000
0110
0000
0000
,
0010
0001
0000
0000
0110
0000
0000
0000
,
0011
0000
0000
1001
0000
1001
0000
1000
,
0001
0100
0001
0000
0000
0000
0000
0000
0101
0000
0000
0000
0000
0000
0000
0000
,
0110
0000
0000
1010
0000
1001
0000
0000
,
1000
0100
0000
0000
0010
0000
0000
0000
,
0011
0000
0000
0110
0000
1100
0000
1000
,
0001
0100
0001
0000
0000
0000
0000
0000
0100
0000
0000
0000
0000
0000
0000
0000
,
0110
0000
0000
1010
0000
2002
0000
0000
,
0020
3033
0000
0000
;

//---------------dance-single - Renard----------------
#NOTES:
     dance-single:
     Renard:
     Medium:
     5:
     0.295,0.345,0.000,0.000,0.000:
0000
0000
0000
0000
,
0000
0000
0000
0000
,
0000
0000
0000
0000
,
0000
0000
0000
0000
,
0000
1000
0000
0000
1000
0000
0000
0000
,
0001
0000
0000
0001
0000
0001
0000
0000
,
0000
0100
0000
0000
0100
0000
0000
0000
,
0010
0000
0000
0010
0000
0010
0000
0000
,
1000
1000
0001
0000
,
0100
0000
0000
0001
0000
0100
0000
0000
,
0000
0001
0000
0000
1000
0000
0000
0000
,
0100
0000
0000
1000
0000
0100
0000
0000
,
1000
1000
0001
0000
,
0100
0000
0000
0100
0000
0100
0000
0000
,
0000
0010
0000
0000
1000
0000
0000
0000
,
0001
0000
0000
1000
0000
0001
0000
0000
,
0100
0000
0100
0000
0100
0000
0000
0001
,
0000
0001
0000
0000
0000
0000
0000
1000
,
0000
1000
0000
0000
0000
0000
0000
0100
,
0000
0100
0000
0000
0010
0000
0000
0000
,
0001
0000
0001
0000
0001
0000
0000
1000
,
0000
1000
0000
0000
0000
0000
0000
0001
,
0000
0001
0000
0000
0000
0000
0000
0100
,
0000
0100
0000
0000
0010
0000
0010
0000
,
1000
0000
0010
0000
1000
0000
0001
0100
,
0000
0001
1000
0000
0100
0000
0010
0000
,
0001
0000
1000
0000
0001
0100
0000
0001
,
0000
1000
0001
0000
1000
0000
0000
0000
,
0100
0000
1000
0000
0001
0000
1000
0001
,
0000
0100
0001
0000
1000
0000
0100
0000
,
0010
0000
0001
0000
1000
0000
0001
0100
,
0000
0001
1000
0000
1000
0000
0000
0000
,
0001
0000
0100
0000
0001
0000
1000
0001
,
0000
0000
0100
0000
0010
0000
1000
0001
,
0000
0000
0100
0000
0010
0000
1000
0001
,
0000
1000
0100
0010
,
0001
0000
1000
0000
0001
0000
0100
0001
,
0000
0000
1000
0000
0100
0000
1000
0001
,
0000
0000
0100
0000
0010
0000
1000
0001
,
0000
0100
0100
0000
,
0010
0000
0010
0000
,
1000
0100
0010
0001
,
0000
0010
0000
0010
,
0100
1000
0001
0100
,
0010
1000
0000
1000
,
0001
1000
0000
0010
,
0100
0001
0000
0010
,
0001
1000
0100
1000
,
0010
0100
0010
0100
,
0001
0100
0001
0100
,
0001
1000
0001
1000
,
0100
0000
0100
0000
,
1000
0010
1000
0001
,
1000
0100
1000
0001
,
0100
0001
0010
0001
,
1000
0000
0000
0000
,
0001
0001
0001
0000
,
0001
0000
0000
0001
0000
0001
0000
0000
,
1000
1000
1000
0000
,
1000
0000
0000
1000
0000
1000
0000
0000
,
0010
0010
0010
0000
,
0010
0000
0000
0010
0000
0010
0000
0000
,
0100
0100
0100
0000
,
0100
0000
0000
0100
0000
0100
0000
0000
,
0010
0000
1000
0000
,
0001
0000
0000
1000
0000
0001
0000
0000
,
0000
0100
0000
0000
0010
0000
0000
0000
,
1000
0000
0000
0001
0000
1000
0000
0000
,
0000
0001
0000
0000
0010
0000
0000
0000
,
0100
0000
0000
1000
0000
0010
0000
0000
,
0000
1000
0000
0000
0001
0000
0000
0000
,
0100
0000
0000
0001
0000
1000
0000
0000
,
1000
0000
0000
0000
;

//---------------dance-single - Renard----------------
#NOTES:
     dance-single:
     Renard:
     Easy:
     3:
     0.221,0.276,0.010,0.058,0.000: // measure 1
0000
0000
0000
0000
,  // measure 2
0000
0000
0000
0000
,  // measure 3
0000
0000
0000
0000
,  // measure 4
0000
0000
0000
0000
,  // measure 5
2000
0000
0001
0000
,  // measure 6
0001
0000
0001
0000
,  // measure 7
0001
0000
0001
0000
,  // measure 8
3001
0000
0000
0000
,  // measure 9
1000
0001
0100
0000
,  // measure 10
0100
0000
0100
0000
,  // measure 11
0001
1000
0100
0000
,  // measure 12
0100
0000
0100
0000
,  // measure 13
1000
0001
0010
0000
,  // measure 14
0010
0000
0010
0000
,  // measure 15
0001
1000
0010
0000
,  // measure 16
0010
0000
0010
0000
,  // measure 17
1000
0000
1000
0000
,  // measure 18
0002
0000
0000
0000
,  // measure 19
0103
0000
0100
0000
,  // measure 20
0020
0000
0000
0000
,  // measure 21
1030
0000
1000
0000
,  // measure 22
0200
0000
0000
0000
,  // measure 23
0310
0000
0010
0000
,  // measure 24
0002
0000
0000
0000
,  // measure 25
1003
1000
0001
0000
,  // measure 26
0100
0000
0100
0000
,  // measure 27
0010
0010
1000
0000
,  // measure 28
0001
0001
1000
0000
,  // measure 29
0100
0100
0010
0000
,  // measure 30
0001
0000
0001
0000
,  // measure 31
1000
1000
0010
0000
,  // measure 32
0100
0100
0001
0000
,  // measure 33
1000
0001
1000
0000
,  // measure 34
0010
0000
0010
0000
,  // measure 35
0100
0000
0100
0000
,  // measure 36
0010
0000
0010
0000
,  // measure 37
1000
0001
1000
0000
,  // measure 38
0001
0000
0001
0000
,  // measure 39
0010
0000
0010
0000
,  // measure 40
0200
0000
0000
0000
,  // measure 41
1300
0000
1000
0001
,  // measure 42
0100
0000
0100
0000
,  // measure 43
0001
0000
0010
0100
,  // measure 44
0010
0001
1000
0010
,  // measure 45
0100
0000
0100
0001
,  // measure 46
1000
0000
1000
0000
,  // measure 47
0100
0000
1000
0000
,  // measure 48
0001
0010
0001
0000
,  // measure 49
1000
0000
1000
0000
,  // measure 50
0001
0000
0001
0000
,  // measure 51
1000
0000
1000
0000
,  // measure 52
0001
0000
0001
0000
,  // measure 53
0100
0000
0100
0000
,  // measure 54
0010
0000
0010
0000
,  // measure 55
1000
0000
1000
0000
,  // measure 56
0001
1000
0001
0000
,  // measure 57
1000
0000
1000
0000
,  // measure 58
0001
0000
0001
0000
,  // measure 59
0100
0000
0100
0000
,  // measure 60
0010
0000
0010
0000
,  // measure 61
1000
0000
1000
0000
,  // measure 62
0001
0000
0001
0000
,  // measure 63
0010
0000
0010
0000
,  // measure 64
0100
0000
0100
0000
,  // measure 65
1000
0001
1000
0000
,  // measure 66
0010
0000
0010
0000
,  // measure 67
0100
0001
0100
0000
,  // measure 68
1000
0000
1000
0000
,  // measure 69
0100
0001
0100
0000
,  // measure 70
1000
0000
1000
0000
,  // measure 71
0100
0001
0100
0000
,  // measure 72
0010
0000
0010
0000
,  // measure 73
1001
0000
0000
0000
;
