#TITLE:Blood Sugar;
#SUBTITLE:;
#ARTIST:Pendulum;
#TITLETRANSLIT:;
#SUBTITLETRANSLIT:;
#ARTISTTRANSLIT:;
#CREDIT:;
#BANNER:blood.png;
#BACKGROUND:blood-bg.png;
#LYRICSPATH:;
#CDTITLE:;
#MUSIC:blood.ogg;
#OFFSET:0.000;
#SAMPLESTART:33.083;
#SAMPLELENGTH:12.000;
#SELECTABLE:YES;
#BPMS:0.000=173.999,275.000=170.379,275.500=162.199,276.000=156.359,277.000=154.539,278.000=142.119,280.000=141.899,280.500=141.299,281.000=141.099,281.500=140.099,282.000=134.499,282.500=123.679,283.000=112.899,283.500=114.879,285.000=111.259,285.500=103.259,286.000=100.859,286.500=96.859,287.000=93.659;
#STOPS:;
#BGCHANGES:;

//---------------dance-single - Renard----------------
#NOTES:
     dance-single:
     Renard:
     Hard:
     9:
     0.547,0.619,0.521,0.046,0.033:
0000
0000
0000
0000
,
0000
0000
0000
0000
,
0000
0000
0000
0000
,
0000
0000
0000
0000
,
0000
0000
0000
0000
,
0000
0000
0000
0000
,
0000
0000
0000
0000
,
0000
0000
0000
0000
,
1000
1000
0001
0001
,
0010
0010
0001
0010
0100
0000
0110
0000
,
1100
0000
1000
0100
0010
0000
0000
0000
,
0001
0001
0010
0100
1000
0000
1001
0000
,
0110
0010
1010
1000
,
0001
1000
0100
0010
0001
0000
0011
0000
,
0110
0000
0100
1000
0010
0000
0100
0000
,
0001
0001
0100
0010
1000
0000
1001
0000
,
1100
1000
0001
0010
,
0100
1000
0010
0100
0001
0000
0101
0000
,
0110
0000
0010
1000
0100
0000
1100
0000
,
1000
0100
0010
0001
1000
0000
1001
0000
,
0110
0000
0010
1000
0100
0000
0110
0000
,
0010
0100
1000
0010
0100
0000
0110
0000
,
0100
0001
0010
0001
1000
0000
1100
0000
,
1000
0100
0010
0001
1000
0000
1001
0000
,
0001
0100
0010
0000
0110
0000
0110
0000
,
0010
1000
0100
0010
0100
0000
0110
0000
,
0010
0001
1000
0001
1000
0000
1001
0000
,
0001
0100
0010
1000
0001
0000
1001
0000
,
1000
0100
0010
0000
0011
0000
0110
0000
,
0100
1000
0010
0000
1010
0000
1001
0000
,
1000
0100
0010
0001
0010
0100
1000
0100
,
0010
0001
0100
0010
1000
0100
0010
0001
,
1000
0000
0001
0000
0000
0100
0010
0000
,
1000
0000
0100
0010
0001
1000
0100
0000
,
1100
0000
1000
0001
0000
0001
0010
0000
,
0001
1000
0010
0000
1001
0000
0110
0000
,
1001
0000
1000
0000
0000
0100
0010
0000
,
0001
0000
0010
0100
2000
0000
3100
0000
,
1000
1100
1000
0011
,
0001
0100
0010
1000
0100
0010
0001
1000
,
1001
1001
0000
0000
0010
0000
0000
0000
,
0000
0000
0010
0000
,
1001
1001
0000
0000
0100
0000
0000
0000
,
0000
0000
0100
0000
,
1001
1001
0000
0000
0010
0000
0000
0000
,
0000
0000
0010
0000
,
1000
0001
1000
0001
0100
0010
1000
0100
,
0010
0001
1000
0001
1000
0001
1001
0000
,
1000
0000
1001
0000
0000
0001
0101
0000
,
0100
0000
0010
0000
1000
0000
0000
0000
0000
0100
1000
0000
0001
0000
0000
0000
,
0010
0000
0011
0000
0000
0010
0110
0000
,
0100
0000
0000
0000
1100
0000
0000
0000
0000
1000
0001
0000
0100
0000
0010
0000
,
1000
0000
1010
0000
0000
1000
1001
0000
,
0001
0000
0000
0000
0101
0000
0000
0000
0000
0100
0010
0000
1000
0000
0100
0000
,
0010
0000
0011
0000
0000
0010
0110
0000
,
0100
0000
1000
0000
0001
0000
0010
0000
0001
1000
0001
0000
1000
0000
0000
0000
,
0001
0100
0010
1000
0100
0010
0001
0010
,
0100
0000
1000
0000
0001
0000
0100
0000
0010
0100
0010
0000
0100
0000
0010
0000
,
1000
0100
0010
0001
1000
0100
0010
0001
,
1000
0000
0001
0000
0100
0000
0010
0000
1000
0001
1000
0000
0001
0000
0100
0000
,
0010
1000
0100
0010
0001
1000
0001
0100
,
0010
0000
1000
0000
0100
0000
1000
0000
0001
1000
0001
0000
1000
0000
0001
0000
,
0100
0010
1000
0100
0010
0001
0010
0100
,
1000
1000
0001
0001
1000
0001
1001
0000
,
2001
0000
0002
3000
1000
0000
1003
0000
,
0001
0100
1000
0100
0001
0000
0101
0000
,
0001
0000
0010
1000
0010
0000
1010
0000
,
0010
0001
1000
0010
0100
0000
0110
0000
,
0010
0010
1000
1000
,
0001
0000
0100
0001
0100
0000
0001
0000
,
0010
0000
0100
1000
0001
0000
0010
0000
,
0001
0000
1000
0010
0100
0000
0001
0000
,
2002
0000
0000
0000
,
0000
0000
0000
0000
0000
0000
0000
0000
0000
0000
0000
0000
0000
0000
0000
3003
;

//---------------dance-single - Renard----------------
#NOTES:
     dance-single:
     Renard:
     Medium:
     5:
     0.345,0.435,0.093,0.037,0.000:
0000
0000
0000
0000
,
0000
0000
0000
0000
,
0000
0000
0000
0000
,
0000
0000
0000
0000
,
0000
0000
0000
0000
,
0000
0000
0000
0000
,
0000
0000
0000
0000
,
0000
0000
0000
0000
,
1000
0001
1000
0001
,
0100
0010
0100
0010
0100
0000
0000
0000
,
0001
0000
1000
0001
1000
0000
0000
0000
,
0010
0100
0010
0100
0010
0000
0000
0000
,
1000
0001
1000
0001
,
0100
0001
0100
0001
0100
0000
0000
0000
,
0001
0000
1000
0001
1000
0000
0000
0000
,
0100
1000
0100
1000
0001
0000
0000
0000
,
1000
1000
0001
0001
,
0100
0100
0010
1000
,
0001
0001
1000
0000
,
0001
0001
1000
0000
,
0010
0100
0001
1000
,
1100
1100
1100
0000
,
0011
0011
0011
0000
,
1001
1001
1001
0000
,
0010
0100
0001
1000
,
0001
1000
0001
1000
0001
0000
0000
0000
,
0100
0000
0010
0100
0010
0000
0000
0000
,
1000
0001
1000
0001
1000
0000
0000
0000
,
0001
0001
1000
1000
,
0010
0010
0010
0010
,
1000
0001
1000
0001
,
0100
0000
0010
0000
0100
0010
0100
0000
,
0010
0000
1000
0000
0000
0001
0100
0000
,
0001
0000
1000
0000
0000
0100
1000
0000
,
0001
0000
0010
0000
0000
0100
1000
0000
,
0001
0000
0100
0000
0000
0010
1000
0000
,
0001
0000
1000
0000
0000
0100
1000
0000
,
0001
0000
0010
0000
0000
0001
1000
0000
,
0010
0100
0001
1000
,
0001
1000
0001
1000
0001
1000
0010
0000
,
0200
0000
0001
0000
,
0000
0000
0301
0000
,
1000
0002
0000
0000
0100
0000
0000
0000
,
0000
0000
0103
0000
,
0001
2000
0000
0000
0100
0000
0000
0000
,
0000
0000
3100
0000
,
0010
0200
0000
0000
0001
0000
0001
0000
,
0010
0010
0010
0310
,
0010
0000
0100
0000
0000
0010
0100
0000
,
0010
0000
0100
0000
0000
0010
0100
0000
,
0001
0000
1000
0000
0000
0001
1000
0000
,
0001
0000
1000
0000
0000
0001
1000
0000
,
0100
0000
1000
0000
0000
0100
1000
0000
,
0100
0000
1000
0000
0000
0100
1000
0000
,
0001
0000
0010
0000
0000
0001
0010
0000
,
0001
0000
0010
0000
0000
0001
0010
0000
,
0001
0000
1000
0000
,
0010
0000
0100
0000
0001
1000
0001
0000
,
1000
0000
0100
0000
,
0010
0000
0001
0000
1000
0000
0001
0100
,
0001
0000
0100
0000
,
0010
0000
1000
0000
0100
0000
1000
0001
,
1000
0001
0100
0010
,
1000
0001
0100
0010
,
1000
1000
0001
0001
,
0100
0010
0100
0010
0100
0000
0000
0000
,
0010
0010
0100
0000
,
0010
0010
0100
0000
,
0010
1000
0001
0100
,
0010
1000
0010
0100
,
0001
1000
0100
0010
,
0001
0000
1000
0001
0100
0000
0010
0000
,
1001
0000
0000
0000
;

//---------------dance-single - Renard----------------
#NOTES:
     dance-single:
     Renard:
     Easy:
     2:
     0.226,0.344,0.019,0.019,0.000: // measure 1
0000
0000
0000
0000
,  // measure 2
0000
0000
0000
0000
,  // measure 3
0000
0000
0000
0000
,  // measure 4
0000
0000
0000
0000
,  // measure 5
0000
0000
0000
0000
,  // measure 6
0000
0000
0000
0000
,  // measure 7
0000
0000
0000
0000
,  // measure 8
0000
0000
0000
0000
,  // measure 9
1000
0000
1000
0000
,  // measure 10
0001
0100
0001
0000
,  // measure 11
1000
0000
1000
0000
,  // measure 12
0001
0010
0001
0000
,  // measure 13
1000
0000
1000
0000
,  // measure 14
0010
0100
0010
0000
,  // measure 15
1000
0000
1000
0000
,  // measure 16
0001
0010
0001
0000
,  // measure 17
0001
0010
0100
1000
,  // measure 18
0001
0000
0001
0000
,  // measure 19
1000
0000
1000
0000
,  // measure 20
0001
0000
0001
0000
,  // measure 21
1000
0100
0010
0001
,  // measure 22
1000
0000
1000
0000
,  // measure 23
0001
0000
0001
0000
,  // measure 24
1000
0001
1000
0000
,  // measure 25
0010
0100
0001
1000
,  // measure 26
0010
0000
0010
0000
,  // measure 27
0100
0000
0100
0000
,  // measure 28
0010
0000
0010
0000
,  // measure 29
0100
0010
1000
0001
,  // measure 30
1000
0000
1000
0000
,  // measure 31
0010
0100
0001
1000
,  // measure 32
0001
0000
0001
0000
,  // measure 33
1000
0000
0001
0000
,  // measure 34
0100
0100
0100
0000
,  // measure 35
0010
0000
1000
0000
,  // measure 36
0001
0001
0001
0000
,  // measure 37
1000
0000
0001
0000
,  // measure 38
0010
0010
0010
0000
,  // measure 39
0100
0000
1000
0000
,  // measure 40
0001
1000
0001
1000
,  // measure 41
0010
0000
0010
0000
,  // measure 42
0000
0000
0010
0000
,  // measure 43
0100
0000
0100
0000
,  // measure 44
0000
0000
0100
0000
,  // measure 45
0001
0000
0001
0000
,  // measure 46
0000
0000
0001
0000
,  // measure 47
1000
0000
1000
0000
,  // measure 48
1000
0001
1000
1001
,  // measure 49
0001
0000
0001
0000
,  // measure 50
0100
0001
0100
0001
,  // measure 51
1000
0000
1000
0000
,  // measure 52
0100
1000
0100
1000
,  // measure 53
0010
0000
0010
0000
,  // measure 54
1000
0001
1000
0001
,  // measure 55
0010
0000
0001
0000
,  // measure 56
1000
0001
1000
0001
,  // measure 57
0100
0000
0100
0000
,  // measure 58
0010
0000
1000
0000
,  // measure 59
0001
0000
0100
0000
,  // measure 60
0010
1000
0010
1000
,  // measure 61
0001
0000
0100
0000
,  // measure 62
0010
0000
1000
0000
,  // measure 63
0100
0000
0010
0000
,  // measure 64
0001
1000
0001
0100
,  // measure 65
0010
0000
0010
0000
,  // measure 66
1000
0001
1000
0000
,  // measure 67
0010
0000
0010
0000
,  // measure 68
0100
0001
1000
0000
,  // measure 69
0010
0000
1000
0000
,  // measure 70
0001
0000
1000
0000
,  // measure 71
0001
0100
0010
1000
,  // measure 72
0100
0010
0001
1000
,  // measure 73
2002
0000
0000
0000
,  // measure 74
0000
0000
0000
0000
,  // measure 75
3003
0000
0000
0000
;
