#TITLE:Blinded By Lights;
#SUBTITLE:;
#ARTIST:The Streets;
#TITLETRANSLIT:;
#SUBTITLETRANSLIT:;
#ARTISTTRANSLIT:;
#CREDIT:;
#BANNER:lights.jpg;
#BACKGROUND:lights-bg.jpg;
#LYRICSPATH:;
#CDTITLE:;
#MUSIC:lights.ogg;
#OFFSET:0.000;
#SAMPLESTART:30.617;
#SAMPLELENGTH:12.000;
#SELECTABLE:YES;
#BPMS:0.000=66.500;
#STOPS:;
#BGCHANGES:;

//---------------dance-single - Renard----------------
#NOTES:
     dance-single:
     Renard:
     Hard:
     7:
     0.500,0.586,0.382,0.382,0.959:
0000
0000
0000
0000
,
0000
0000
0000
0000
,
1000
0000
0000
0000
0000
0000
0000
0000
0011
0000
0000
0000
0000
0000
0000
0000
0001
0000
0000
0000
0000
1000
0000
0000
0110
0000
0000
0000
0000
0000
0000
0000
,
0010
0000
0000
0000
0000
0000
0000
0000
1001
0000
0000
0000
0000
0000
0000
0000
1000
0000
0000
0000
0000
0001
0000
0000
0011
0000
0000
0000
0000
0000
0000
0000
,
0010
0100
0000
0000
1000
0000
0000
0010
0000
0000
0100
0000
0000
0001
0000
0000
0100
0000
0000
0010
0000
0000
1000
0000
0000
0100
0000
0000
0010
0000
0000
0001
,
0000
0000
0010
0000
0000
0100
0000
0000
1000
0000
0000
0010
0000
0000
0100
0000
0000
0001
0000
0000
0010
0000
0000
0100
0000
0000
1000
0000
0000
0001
0000
0000
,
0000
0100
0000
0000
0001
0000
0000
1000
0000
0000
0100
0000
0000
0010
0000
0000
0001
0000
0000
1000
0000
0000
0010
0000
0000
0100
0000
0000
0001
0000
0000
1000
,
0000
0000
0100
0000
0000
0010
0000
0000
0001
0000
0000
1000
0000
0000
0010
0000
0000
0100
0000
0000
0001
0000
0000
0010
0000
0000
0100
0000
0000
1000
0000
0000
,
0000
0100
0000
0000
0010
0000
0000
0001
0000
0000
1000
0000
0000
0001
0000
0000
0010
0000
0000
0100
0000
0000
1000
0000
0000
0001
0000
0000
1000
0000
0000
0010
,
0000
0000
0100
0000
0000
0001
0000
0000
1000
0000
0000
0100
0000
0000
1000
0000
0000
0001
0000
0000
0010
0000
0000
0001
0000
0000
1000
0000
0000
0010
0000
0000
,
0000
0100
0000
0000
0010
0000
0000
0100
0000
0000
0001
0000
0000
1000
0000
0000
0100
0000
0000
0010
0000
0000
0001
0000
0000
0010
0000
0000
0100
0000
0000
1000
,
0000
0000
0010
0000
0000
0100
0000
0000
0001
0000
0000
0100
0000
0000
0010
0000
0000
1000
0000
0000
0100
0000
0000
1000
0000
0000
0001
0000
0000
0010
0000
0000
,
0100
1000
0000
0000
0001
0000
0000
0010
0001
0000
1000
0000
0000
0010
0000
0000
1010
0000
0000
0100
0000
0000
0001
0000
1000
0001
0000
0000
0100
0000
0000
0010
,
1000
0000
0100
0000
0000
0010
0000
0000
0001
0000
0000
0001
0000
0000
0010
0000
0100
1000
0000
0000
0010
0000
0000
0010
1000
0000
0100
0000
0000
0010
0000
0000
,
0010
0001
0000
0000
1000
0000
0000
0100
1000
0000
0001
0000
0000
0100
0000
0000
0101
0000
0000
0010
0000
0000
1000
0000
0001
1000
0000
0000
0010
0000
0000
0100
,
0001
0000
0010
0000
0000
0100
0000
0000
1000
0000
0000
1000
0000
0000
0100
0000
0010
0001
0000
0000
0100
0000
0000
0100
0001
0000
0010
0000
0000
0100
0000
0000
,
1000
0100
0000
0000
0110
0000
0000
0010
0000
0000
0011
0000
0000
0001
0000
0000
1001
0000
0000
1000
0000
0000
1010
0000
0000
0010
0000
0000
0110
0000
0000
0100
,
0000
0000
0101
0000
0000
0001
0000
0000
1001
0000
0000
1000
0000
0000
1100
0000
0000
0100
0000
0000
0110
0000
0000
0010
0000
0000
0011
0000
0000
0001
0000
0000
,
0010
0001
0000
0000
0011
0000
0000
0010
0000
0000
0110
0000
0000
0100
0000
0000
1100
0000
0000
1000
0000
0000
1010
0000
0000
0010
0000
0000
0110
0000
0000
0100
,
0000
0000
0101
0000
0000
0001
0000
0000
0011
0000
0000
0010
0000
0000
0110
0000
0000
0100
0000
0000
1100
0000
0000
1000
0000
0000
1000
0010
0000
1000
0010
0000
,
1000
0001
0000
0000
0101
0000
0000
0110
0000
0000
0010
0000
0000
1000
0100
0000
1100
0000
0000
0110
0000
0000
0000
0000
0011
0000
0000
0000
0001
0000
1000
0000
,
0010
0100
0000
0000
0101
0000
0000
0000
1010
0000
0000
0000
0010
0000
1000
0000
0100
0010
0000
0000
0001
0000
0000
0000
0011
0000
0000
0000
0010
0000
0100
0000
,
1000
0010
0000
0000
0110
0000
0000
0101
0000
0000
0001
0000
1000
0000
0100
0000
0010
0000
0000
0001
0010
0000
0100
0000
1000
0001
0000
0000
0100
0000
0000
0010
,
0000
0000
1000
0000
0000
0001
0000
0000
0101
0000
0000
0001
0000
0000
1000
0000
0000
0100
0000
0000
0100
0000
0000
0010
0001
0000
1000
0001
0000
0000
1001
0000
,
0000
2MM0
0000
0000
3MM2
0000
0000
M203
0000
0000
M32M
0000
0000
2M30
0000
0000
32MM
0000
0000
M302
0000
0000
M2M3
0000
0000
M320
0000
0000
MM32
0000
0000
0M23
,
0000
0000
2M3M
0000
0000
3M20
0000
0000
M23M
0000
0000
23M0
0000
0000
3M2M
0000
0000
M032
0000
0000
MM23
0000
0000
023M
0000
0000
23MM
0000
0000
32M0
0000
0000
,
M0M0
0302
0000
M000
0203
0000
M00M
0320
0000
0M00
2030
0000
00MM
3200
0000
00M0
0302
0000
M0M0
0203
0000
00M0
2300
0000
0MM0
3002
0000
M000
0023
0000
0M0M
2030
,
0000
00M0
3002
0000
M0M0
0203
0000
000M
2300
0000
0M0M
3020
0000
M000
0032
0000
0MM0
2003
0000
000M
3200
0000
M0M0
0302
0000
0M00
0023
0000
M00M
0230
0000
0000
,
0310
0000
0000
0000
0000
0000
0000
0000
1010
0000
0000
0000
0000
0000
0000
0000
0100
0000
0000
0000
0000
0010
0000
0000
0011
0000
0000
0000
0000
0000
0000
0000
,
0100
0000
0000
0000
0000
0000
0000
0000
1010
0000
0000
0000
0000
0000
0000
0000
0100
0000
0000
0000
0000
0010
0000
0000
0011
0000
0000
1000
0000
0000
0010
0000
,
1001
0000
0000
0000
;

//---------------dance-single - Renard----------------
#NOTES:
     dance-single:
     Renard:
     Medium:
     4:
     0.292,0.259,0.282,0.109,0.182:
0000
0000
0000
0000
,
0000
0000
0000
0000
,
1000
1001
0001
0101
,
1000
1100
0001
1001
,
1000
0000
0001
0000
1001
0000
0000
0000
0001
0000
0100
0000
0110
0000
0000
0010
,
1000
0000
0100
0000
0110
0000
0000
0000
0010
0000
0001
0000
1001
0000
0000
0001
,
0100
0000
0010
0000
1010
0000
0000
0000
1000
0000
0000
0000
1100
0000
0000
0100
,
0010
0000
0000
0000
0011
0000
0000
0001
1000
0000
0010
0000
0100
0000
0001
1000
,
0001
0100
0001
1000
0100
1000
0002
0023
,
0230
0000
0000
0000
1300
0000
0000
0000
0010
0000
0100
0000
0001
0000
1000
0100
,
1000
0001
0010
0100
2000
0000
3002
0000
,
0203
0000
0000
0000
0310
0000
1000
0000
0100
0000
0010
0001
0010
0000
0000
0100
,
1000
0000
0010
0000
0100
0000
0000
0001
0100
0000
0010
0000
1000
0000
0100
0010
,
0001
0000
0000
0000
0011
0000
0000
0001
0010
0000
0100
0000
1100
0000
0000
0100
,
1000
0000
0000
0000
1010
0000
0000
0010
0100
0000
0000
0000
0101
0000
0000
0000
,
0001
0000
0000
0000
0011
0000
0000
0010
0100
0000
0000
0000
1100
0000
1000
0001
,
0100
0000
0000
0000
0101
0000
0000
0001
1000
0000
0000
0100
0010
0000
0000
0001
,
2000
0000
0000
0000
3001
0000
0000
0100
0001
0000
0000
1000
0100
0000
0010
0001
,
1000
1001
0002
2003
,
3200
0000
0000
0000
0310
0000
0000
0001
0010
0000
0100
1000
0001
0000
0000
0100
,
0001
0000
0000
0000
0101
0000
0000
0000
0001
0000
1000
0100
1000
0000
0000
0001
,
0010
0000
0000
0000
0100
0000
0000
1000
0001
0000
0100
0001
0100
0000
0000
1000
,
0001
0000
0000
0000
1001
0000
0000
0000
1000
0000
0000
0000
1100
0000
0000
0010
,
0001
0000
0000
0000
0011
0000
0000
0000
0001
0000
0000
0000
0101
0000
0000
0010
,
1000
0000
0000
0000
1010
0000
0000
0000
1000
0000
0000
0000
1100
0000
0000
0100
,
0020
0000
0000
0000
0031
0000
0000
0000
0010
0000
0000
0000
1100
0000
1000
0010
,
0200
0000
0000
0000
0301
0000
0010
0100
1000
0000
0000
1000
0001
0000
0000
0001
,
0100
0000
0000
0000
0010
0000
0000
1000
0100
0000
0010
0001
0010
0000
0000
0100
,
1000
1010
0010
0101
,
1000
0000
0000
0000
1100
0000
0000
0000
0010
0000
0000
0000
0101
0000
0000
1000
,
0001
0000
0000
0000
;

//---------------dance-single - Renard----------------
#NOTES:
     dance-single:
     Renard:
     Easy:
     1:
     0.147,0.177,0.127,0.055,0.000: // measure 1
0000
0000
0000
0000
,  // measure 2
0000
0000
0000
0000
,  // measure 3
1000
1001
0001
1001
,  // measure 4
1000
1001
0001
1001
,  // measure 5
1000
0100
0000
0100
,  // measure 6
0010
0001
0000
0001
,  // measure 7
1000
0010
0000
0010
,  // measure 8
0100
0001
0000
0001
,  // measure 9
1000
0100
0000
0100
,  // measure 10
0010
0001
0000
0001
,  // measure 11
1000
0010
0000
0010
,  // measure 12
0100
0001
0000
0001
,  // measure 13
0100
0100
0010
1000
,  // measure 14
0001
0001
0100
0010
,  // measure 15
1000
1000
0100
0010
,  // measure 16
0001
0001
1000
0010
,  // measure 17
0100
0100
0001
1000
,  // measure 18
0200
0000
0310
0001
,  // measure 19
1000
0000
0002
0203
,  // measure 20
0320
0000
1030
0100
,  // measure 21
0010
0001
0000
0011
,  // measure 22
1000
0100
0000
1100
,  // measure 23
0001
0101
0000
0101
,  // measure 24
0010
1010
0000
1010
,  // measure 25
1000
1000
0000
0001
,  // measure 26
0100
0010
0000
1000
,  // measure 27
0001
1000
0100
1000
,  // measure 28
0001
0010
0002
2003
,  // measure 29
3100
0110
0000
0110
,  // measure 30
0000
0110
0000
0110
,  // measure 31
0100
0000
0000
0000
;
