#TITLE:Black Mamba;
#SUBTITLE:;
#ARTIST:Brisk & Vagabond;
#TITLETRANSLIT:;
#SUBTITLETRANSLIT:;
#ARTISTTRANSLIT:;
#CREDIT:;
#BANNER:mamba.png;
#BACKGROUND:mamba-bg.png;
#LYRICSPATH:;
#CDTITLE:;
#MUSIC:mamba.ogg;
#OFFSET:0.000;
#SAMPLESTART:33.313;
#SAMPLELENGTH:12.000;
#SELECTABLE:YES;
#BPMS:0.000=180.000;
#STOPS:;
#BGCHANGES:;

//---------------dance-single - Ryvard----------------
#NOTES:
     dance-single:
     Ryvard:
     Hard:
     9:
     0.579,0.816,0.648,0.422,0.447:
0000
0000
0000
0000
,
0000
0000
0000
0000
,
0000
0000
0000
0000
,
0000
0000
0000
0000
,
1000
0000
0110
0000
,
0100
0100
0011
0000
,
0010
1000
0010
0100
0010
0001
0010
0000
,
1010
0101
0011
0000
,
2200
0000
0000
0000
0011
3300
0000
0000
,
0002
0000
0200
0000
1010
0303
0000
0000
,
1000
0010
1000
0010
0100
0001
0010
1000
,
0010
0011
1100
0000
,
0002
0000
0000
0003
0200
0000
0000
0300
,
2000
3000
0020
0030
0002
0003
0000
0000
,
0001
0100
1000
0001
0010
1000
0100
0000
,
0100
0100
1001
0000
,
0220
0000
0000
0000
,
0000
0000
0000
0000
0000
0000
0000
1001
0000
0000
1001
0000
0330
0000
0000
0000
,
0000
0000
1100
0000
,
0000
0000
0000
0000
0000
0000
0001
0100
0001
0000
1000
0000
0000
0100
0000
0000
,
1000
0100
0010
0100
,
0001
0000
0010
0100
0000
0010
0100
0000
0000
1001
0000
0000
,
0100
0000
0010
0001
0000
1000
0100
0000
0010
0001
0000
0100
,
0010
0000
0001
1000
0000
0100
1000
0000
0001
0010
0000
0000
,
2002
0000
0000
0000
0000
3003
0110
0000
,
1100
0100
0101
0100
,
1000
0000
0010
0001
0000
0010
0100
0000
0000
0101
0000
0000
,
0001
0000
1000
0100
0000
0100
0010
0000
0010
0001
0000
0001
,
0100
0000
0000
0010
0000
0000
0100
0001
1000
0001
1000
0001
,
1000
0011
1001
0110
,
1100
0000
0001
1000
0000
0001
1000
0000
0000
0001
0000
0000
,
1000
0000
0001
0010
0000
0000
0100
0000
1000
0100
0000
0000
,
1010
0000
0000
0000
0000
0000
0110
0000
0000
0000
0000
0000
0011
0000
0000
0000
0000
0000
0220
0000
0000
0000
0000
0330
,
0110
1100
0101
0101
,
0010
0000
0100
0010
0000
0100
0010
0000
0000
0100
0000
0000
,
0001
0000
1000
0001
0000
0000
0001
0000
0001
1000
0000
0000
,
0001
0000
0000
1000
0000
0000
0010
0000
0100
0010
0000
0100
,
0010
0100
0001
1000
,
1001
0000
1001
0000
1001
0000
1001
0000
0000
0001
0000
1000
,
0001
0000
0000
1000
0000
0000
0010
0000
0100
0010
0000
0100
,
0002
0000
0000
0000
0000
0000
0000
0000
0000
0000
0003
0000
,
1000
0000
1000
0000
1000
0000
1000
0000
0000
0110
0000
0000
,
0001
0000
0000
0010
0000
0000
1000
0000
0000
0010
0000
0000
0002
0000
0000
0000
0000
0000
0200
0000
0000
0000
0303
0000
,
0020
1030
0200
0310
,
0101
0000
0010
0000
0110
0000
1100
0000
1000
0100
0000
0000
,
0202
1313
2200
3311
,
1100
0000
0000
0010
0000
0001
0100
0000
0000
0000
0000
0000
,
1000
0000
0010
0000
0100
0000
0001
0000
0010
0000
0100
0000
,
1000
0000
0110
0000
0000
0010
0100
0000
0000
0000
0000
0000
,
0200
0000
0010
0000
0001
0000
0010
0000
1000
0000
0020
0000
,
2002
0000
0000
0000
0000
0000
0000
0000
0000
0000
3333
0000
,
0000
0000
0000
1100
0000
0000
1001
0000
0000
1010
0000
0010
,
0100
0000
0000
1100
0000
0001
0010
0000
0000
0110
0000
0001
,
1000
1100
0010
0011
,
0001
1000
0001
0020
0000
0030
0100
1000
0100
0002
0000
0003
,
0110
0000
1000
0100
0000
0000
0010
0000
0001
0100
0000
0010
,
1000
0000
0101
0000
0000
0011
0000
0000
1001
0000
0000
1100
,
0100
0001
0100
1000
,
0100
1000
0100
0000
0000
0000
0001
0100
0001
0000
0000
0000
,
0220
0000
0000
0000
,
0000
0000
0000
0000
,
2002
0000
0000
3333
0000
0000
0000
0000
0000
1000
0001
1000
,
0001
0010
0100
1000
0000
0000
0001
0100
1000
0200
0000
0000
,
0310
0000
0100
0000
1000
0000
0100
0000
0001
0000
0010
0000
,
0100
1000
0100
1000
0100
1000
0100
0000
0010
0000
0100
0000
,
0002
0200
0020
2000
,
3333
0220
0000
0000
,
0000
0000
0000
0000
,
0000
0000
0000
0000
,
0330
0000
0000
0000
;

//---------------dance-single - Renard----------------
#NOTES:
     dance-single:
     Renard:
     Challenge:
     10:
     0.721,1.000,0.432,0.093,1.000:
0000
0000
0000
0000
,
0000
0000
0000
0000
,
0000
0000
0000
0000
,
0000
0000
0000
0000
,
0101
0001
1100
1000
,
0011
1001
1010
1000
,
0100
1000
0001
0010
0100
1000
0001
0000
,
1001
1010
0101
1001
,
1100
0000
0001
0000
0011
0000
0001
0100
,
0010
0000
1010
0000
1001
0000
1000
0100
,
0010
0000
0110
0000
0100
1000
0010
0000
,
0110
0101
1001
1000
,
1100
0000
0100
0010
0001
0000
0001
0010
,
0100
0000
0110
0000
1100
0000
0001
0010
,
0100
1000
0010
0100
0001
0010
0100
0000
,
1000
1001
0110
1001
,
1100
0000
0000
0000
,
0000
0000
0000
0000
0000
0000
0011
0000
1100
0000
0000
0000
,
1001
0000
0110
0000
,
0000
0000
0000
0010
1000
0001
0100
0000
0010
0000
1000
0000
,
0001
0000
0001
0100
0000
0100
0001
0000
0001
1000
0000
1000
,
0100
0000
0100
1000
0000
1000
0001
0000
0001
0010
0000
0010
,
0100
0000
1000
0001
0000
0100
0010
0000
1000
0100
0000
0010
,
0001
0000
0010
0100
0000
1000
0001
0000
0100
0010
0000
1000
,
0100
0000
0000
1000
0000
0001
0000
0000
1001
0000
0000
0000
,
0001
0000
0100
0001
0000
0100
0001
0000
1000
0001
0000
1000
,
0100
0000
1000
0100
0000
0010
0100
0000
0010
0100
0000
0010
,
0001
0000
0010
0001
0000
0010
0001
0000
1000
0010
0000
0100
,
0001
0000
1000
0100
0000
0010
0001
0000
0010
0100
0000
0000
,
0100
0000
1000
0010
0000
0100
0010
0000
0100
0010
0000
0100
,
0001
0000
0100
0001
0000
1000
0001
0000
1000
0100
0000
0010
,
0001
0000
0010
0100
0000
1000
0001
0000
0100
0010
0000
1000
,
0100
0000
0000
0011
0000
0000
0100
0000
1000
1010
0000
0000
,
0010
0000
0100
0001
0000
1000
0010
0000
0010
0100
0010
0001
,
0010
0000
0010
0100
0000
0100
1000
0000
1000
0010
0100
0001
,
0100
0000
0010
1000
0000
0100
0010
0000
0001
0010
0100
1000
,
0001
0000
0001
0100
0000
0100
0001
1000
0100
0010
0001
0010
,
0100
0000
0100
1000
0000
1000
0010
0000
0010
0100
0010
0100
,
0010
0000
0010
1000
0000
1000
0001
0000
0001
0100
0000
0100
,
0001
0000
1000
0100
0000
0010
0001
0000
0010
0100
0000
1000
,
2002
0000
0000
0000
0000
0000
0000
0000
0000
0000
3003
0000
,
0001
0000
0001
0100
0000
0100
0010
0000
0010
1000
0000
1000
,
0100
0000
0010
0001
0000
0000
0011
0000
0000
0010
0000
0000
,
0100
0000
0100
1000
0000
0000
0010
0000
0010
0100
0000
0000
,
0001
1000
0100
1000
0000
0000
1100
0000
0000
1000
0000
0000
,
0001
0000
0001
0010
0000
0000
0100
0000
0100
1000
0000
0000
,
0010
1000
0001
0100
0000
0000
1001
0000
0000
1000
0000
0000
,
0100
1000
0001
0010
0100
1000
0001
0100
0010
1000
0100
0010
,
0001
0010
0100
1000
0001
0100
0010
1000
0100
1000
0001
1000
,
1001
0000
0000
0000
,
1001
0000
0000
0000
0000
0000
0000
0000
1000
0001
1000
0001
,
1001
0000
0001
0100
0000
0100
0010
1000
0100
0010
0001
0010
,
0100
0000
0100
1000
0000
1000
0010
0100
0001
0100
0010
1000
,
0100
0000
0100
1000
0000
1000
0001
0010
0100
1000
0001
0100
,
0010
1000
0010
1000
0000
0000
0001
0100
0001
0100
0000
0000
,
0001
0100
0010
1000
0100
0010
0001
0010
0100
1000
0001
0100
,
0010
1000
0100
0010
0001
0010
0100
1000
0001
0100
0010
1000
,
0100
1000
0001
0010
0100
1000
0001
0100
0010
1000
0100
1000
,
0001
0000
0001
1000
0000
1000
0010
0000
0000
1001
0000
0000
,
0202
0000
0000
0000
,
0000
0000
0000
0000
0000
0000
0000
0000
0000
0000
0303
0000
,
2002
0000
0000
0000
0000
0000
0000
0000
0000
0000
0000
0000
0000
0000
0000
0000
0000
0000
0000
0000
0000
0000
0000
0000
0000
0000
0000
0000
3003
0000
0000
0000
0000
1000
0000
0000
0100
0000
0000
0010
0000
0000
0001
0000
0000
1000
0000
0000
,
0001
0100
0001
1000
0000
0000
0000
0001
1000
0100
0010
0001
2000
0000
0000
0000
,
0000
0000
0000
0000
0000
0000
3001
0000
0000
0000
0000
0000
0000
0000
0000
0100
0000
0000
0001
0000
1000
0000
0000
0000
0100
0000
0000
0000
0010
0000
0000
0000
0001
0000
0000
0000
1000
0000
0000
0000
0001
0000
0000
0000
0001
0000
0000
0000
,
1000
0100
0010
0001
0100
0010
1000
0100
0010
0001
0100
0010
1000
0100
0010
0001
,
0100
0010
1000
0100
0010
0001
0100
0010
1000
0100
0010
0001
0100
0010
1000
0100
,
0010
0001
0100
0000
2002
0000
0000
0000
0000
0000
0000
0000
0000
0000
0000
0000
,
0000
3003
0000
0000
;

//---------------dance-single - Renard----------------
#NOTES:
     dance-single:
     Renard:
     Medium:
     6:
     0.435,0.560,0.545,0.154,0.170:
0000
0000
0000
0000
,
0000
0000
0000
0000
,
0000
0000
0000
0000
,
0000
0000
0000
0000
,
1000
0000
1001
0000
,
0001
0100
0101
0000
,
1000
0000
1001
0000
,
1000
0010
1010
0000
,
1000
0000
1100
0000
,
1000
0001
0011
0000
,
0001
0000
1001
0000
,
0001
0100
1010
0000
,
1000
0000
1001
0000
,
1000
0100
0011
0000
,
0100
1000
0001
0100
,
0010
0110
0110
0000
,
1100
0000
0010
0000
,
0001
0000
0000
0000
0000
0000
0001
0000
0100
0000
0000
0000
,
0010
0000
1010
0000
,
1000
0001
1000
0001
,
1000
1000
0100
0100
,
0010
0001
1000
0001
,
1000
0000
1000
0001
0000
0000
1000
0000
1000
0001
0000
0000
,
1000
0000
1000
0001
0000
0000
1000
0000
0000
1000
0001
0000
,
1001
0000
0000
0000
,
0001
0001
0100
0100
,
0010
1000
0100
1000
,
1100
0011
1100
0011
,
1100
0011
1100
0011
,
0001
0100
0010
1000
,
0001
0100
0010
1000
,
0101
1010
0101
1010
,
0101
1010
0101
1001
,
1000
0000
1000
0100
0000
0000
0010
0000
0010
0001
0000
0000
,
1000
0010
0100
0001
,
0010
0000
0010
0001
0000
0000
1000
0000
1000
0100
0000
0000
,
1000
0001
0100
0010
,
1000
0000
1000
0001
0000
0000
0010
0000
0010
0100
0000
0000
,
1000
0000
0000
0010
0000
0000
0100
0000
0000
0001
0000
1000
,
0001
0000
0000
0100
0000
0000
0010
0000
1000
0001
0000
1000
,
0100
1000
0001
0010
,
0001
0001
0010
0010
,
0100
1100
1001
1000
,
0010
0010
0100
0100
,
0101
0110
1010
1000
,
1100
1000
1001
1000
,
1010
1100
1001
0001
,
0011
0101
1001
0101
,
0001
0011
1001
0001
,
2002
0000
0000
0000
0000
0000
0000
0000
0000
0000
0000
3000
,
0003
0000
0000
0000
,
0001
0000
0001
1000
0000
0000
0001
0000
0001
1000
0000
0000
,
0001
0000
0001
1000
0000
0000
0001
0000
0001
1000
0000
0000
,
0010
0000
0010
0100
0000
0000
0010
0000
0010
0100
0000
0000
,
0010
1000
0001
1001
,
1000
0000
1000
0100
0000
0000
1000
0000
1000
0010
0000
0000
,
1000
0000
1000
0001
0000
0000
1000
0000
1000
0001
0000
0000
,
0100
0000
0100
0010
0000
0000
0100
0000
0100
0001
0000
0000
,
0100
1010
1001
1100
,
1001
0000
0000
0000
,
0000
0000
0000
0000
,
0002
0000
0000
0000
,
0203
0000
0000
0320
,
0000
0000
0000
0000
0000
2030
0000
0000
3200
0000
0000
0000
,
0320
0000
0000
0002
0030
0000
0000
0023
0000
0000
0000
0230
,
0000
0000
0000
2300
0000
0000
0000
3020
0000
0000
0000
0230
,
0000
0000
0002
0000
0000
0000
0000
0000
0000
0000
0000
0000
,
0000
0000
0000
0000
,
0000
0303
0000
0000
0000
0000
0000
0000
0000
0000
0000
0000
;

//---------------dance-single - Renard----------------
#NOTES:
     dance-single:
     Renard:
     Easy:
     2:
     0.247,0.355,0.103,0.062,0.000: // measure 1
0000
0000
0000
0000
,  // measure 2
0000
0000
0000
0000
,  // measure 3
0000
0000
0000
0000
,  // measure 4
0000
0000
0000
0000
,  // measure 5
0000
0000
0000
0000
,  // measure 6
0000
0000
0000
0000
,  // measure 7
0000
0000
0000
0000
,  // measure 8
0000
0000
0000
0000
,  // measure 9
1000
0000
1000
0000
,  // measure 10
0001
0001
0001
0000
,  // measure 11
0100
0010
0100
0010
,  // measure 12
1000
1000
0001
0000
,  // measure 13
0100
0000
0100
0000
,  // measure 14
0001
0001
0001
0000
,  // measure 15
0010
0100
0010
0100
,  // measure 16
1000
0001
0100
0000
,  // measure 17
1001
0000
0000
0000
,  // measure 18
0000
0000
0000
0000
,  // measure 19
0110
0000
0000
0000
,  // measure 20
0000
0000
0000
0000
,  // measure 21
0010
0000
0010
0000
,  // measure 22
1000
1000
1000
0000
,  // measure 23
0001
0000
0001
0000
,  // measure 24
1000
0000
1000
0000
,  // measure 25
0110
0000
0000
0000
,  // measure 26
0010
0010
1000
1000
,  // measure 27
0001
0001
0100
0100
,  // measure 28
0001
0001
0001
0010
,  // measure 29
0100
0100
1000
0000
,  // measure 30
0010
0010
0100
0100
,  // measure 31
0001
0001
1000
1000
,  // measure 32
0001
0010
0100
1000
,  // measure 33
0001
1000
0000
0001
,  // measure 34
0100
0010
1000
0010
,  // measure 35
0100
0001
1000
0000
,  // measure 36
0001
0001
1000
0000
,  // measure 37
1000
1000
0001
0000
,  // measure 38
0100
0010
0100
0000
,  // measure 39
0010
0010
1000
0000
,  // measure 40
0001
0100
0001
1000
,  // measure 41
0200
0000
1000
0300
,  // measure 42
1000
1000
1000
0000
,  // measure 43
0001
0001
0001
0000
,  // measure 44
0100
0001
1000
0000
,  // measure 45
0001
0000
1000
0000
,  // measure 46
0010
0010
0010
0000
,  // measure 47
0100
0100
0100
0000
,  // measure 48
0001
1000
0001
0100
,  // measure 49
0000
0110
0110
0000
,  // measure 50
1001
0000
0000
0000
,  // measure 51
0000
0000
0000
0000
,  // measure 52
1000
1000
0001
0001
,  // measure 53
1000
0001
1000
0001
,  // measure 54
0100
0100
0010
0010
,  // measure 55
0110
0000
1001
0000
,  // measure 56
0110
0010
1000
0001
,  // measure 57
0100
0001
1000
0100
,  // measure 58
0010
0001
1000
0010
,  // measure 59
0100
0100
0010
0010
,  // measure 60
0110
0000
0000
0000
,  // measure 61
0000
0000
0000
0000
,  // measure 62
2000
0000
0000
0000
,  // measure 63
0000
0001
0002
0000
,  // measure 64
0000
0000
3000
0000
,  // measure 65
0200
0000
0003
0000
,  // measure 66
0020
0000
0300
0000
,  // measure 67
2000
0000
0000
0000
,  // measure 68
0000
0000
0000
0000
,  // measure 69
0000
0000
0000
0000
,  // measure 70
3030
0000
0000
0000
;
