#TITLE:Big Up (Remix);
#SUBTITLE:;
#ARTIST:Binghi Ghost;
#TITLETRANSLIT:;
#SUBTITLETRANSLIT:;
#ARTISTTRANSLIT:;
#CREDIT:;
#BANNER:big.png;
#BACKGROUND:big-bg.png;
#LYRICSPATH:;
#CDTITLE:;
#MUSIC:big.ogg;
#OFFSET:0.000;
#SAMPLESTART:2.486;
#SAMPLELENGTH:12.000;
#SELECTABLE:YES;
#BPMS:0.000=190.000;
#STOPS:;
#BGCHANGES:;

//---------------dance-single - Renard----------------
#NOTES:
     dance-single:
     Renard:
     Hard:
     9:
     0.726,0.736,0.349,0.129,0.060:
0000
0000
0000
0000
,
0000
0000
0000
0000
,
1000
0000
0000
1000
0000
0000
0001
0000
0010
0000
0100
0000
1000
0000
0010
0000
,
0100
0001
1000
0001
1000
0000
2001
0000
,
0010
0000
0000
3010
0000
0000
1000
0000
0010
0000
0100
0000
0001
0000
0010
0000
,
0100
0000
1000
0000
0001
0000
0100
0000
0010
0000
1000
0001
1000
0000
0000
0000
,
0001
0000
0000
0001
0000
0000
0100
0000
0010
0000
1000
0000
0001
0000
0100
0000
,
0001
1000
0010
0100
0001
1000
0001
0000
,
0000
0000
1000
0100
1000
0000
0100
0000
0010
0000
0000
0000
0011
0000
0000
0000
,
0000
0000
0001
0100
0001
0000
0100
0000
0010
0000
0000
0000
1010
0000
0000
0000
,
1000
1000
0000
0001
0100
0010
1000
0100
,
0010
0001
0010
0100
1000
0000
1010
0000
,
0001
0001
0000
0010
0100
1000
0001
0100
,
0010
1000
0100
0010
0001
0010
0100
0000
,
1000
1000
0000
0010
0001
0010
0100
1000
,
0100
0001
0010
0100
1000
0100
0001
0000
,
0000
0000
0100
1000
0100
0000
2000
0000
0002
0000
3003
0000
0110
0000
0000
0000
,
0000
0000
0001
0010
0001
0000
2000
0000
0002
0000
3003
0000
0110
0000
0000
0000
,
2000
0000
0000
0000
0002
0000
0000
3003
,
0001
0100
0010
1000
0100
0000
0110
0000
,
0000
0200
0000
0000
2000
0000
0300
0000
,
3010
0100
0001
1000
0001
0000
0110
0000
,
0010
0000
0000
0010
0000
0000
1000
0000
0010
0000
0100
0000
0001
0000
0000
0000
,
0100
0000
0000
0100
0000
0000
0010
0000
1000
0000
0001
0000
0100
0000
0000
0000
,
0000
0010
0000
0100
0010
0100
0010
0000
,
1000
0100
0010
0001
1000
0000
0101
0000
,
0001
0000
0001
1000
0000
1000
0100
0010
,
0001
0010
0100
1000
0010
0000
0110
0000
,
0010
0000
0010
1000
0000
1000
0001
0100
,
0010
1000
0100
0010
0001
0000
1001
0000
,
0001
1000
0000
0010
0100
0010
1000
0010
,
1000
0001
0010
0100
0010
0000
0110
0000
,
0100
1000
0000
0001
0010
0100
1000
0010
,
0100
0001
0010
0100
1000
0000
0010
0000
,
0100
0010
0000
0010
0100
0010
1000
0100
,
0010
0001
0010
0100
1000
0000
1001
0000
,
0001
0000
0100
0001
1000
0000
0001
0000
2000
0000
0000
0000
0001
0000
0000
0000
,
3000
0000
0001
1000
0001
0000
1000
0000
0002
0000
0000
0000
1000
0000
0000
0000
,
0013
0001
0000
0100
0010
1000
0100
0010
,
0001
0010
0100
1000
0001
0000
0110
0000
,
0010
1000
0000
0100
1000
0001
1000
0010
,
1000
0001
0100
0010
0100
1000
0100
0000
,
0010
0100
0000
0001
0010
0100
0010
1000
,
0010
0100
0001
0100
0010
0001
0010
0000
,
0001
0010
0100
1000
0010
0000
0010
0000
,
0010
1000
0100
0010
0001
0000
1001
0000
,
0100
0000
0000
0100
0000
0000
0100
0000
,
0010
0000
0000
0010
0000
0000
0010
0000
,
0100
0000
0110
0000
0010
1000
0000
0101
,
0000
0010
1000
0100
0010
0000
0011
0000
,
0010
0100
1000
0000
1001
0000
0010
0100
,
0000
0001
0100
0000
0010
1000
0001
0010
,
0100
0000
0110
0000
0110
0000
0100
1000
,
0000
0010
1000
0000
0001
0100
0000
0010
,
0100
0000
1010
0000
1001
0000
1000
0100
,
0010
0001
0010
0000
0011
0000
0010
0100
,
1000
0000
1001
0000
0110
0000
0010
1000
,
0000
0001
0100
0000
0110
0000
0010
1000
,
0100
1000
0001
0000
1000
0010
0000
1000
,
0000
0001
0100
0000
1010
0000
1000
0100
,
0010
0000
0011
0000
0110
0000
0100
1000
,
0000
0010
1000
0000
0001
0100
0010
1000
,
0001
0001
0001
0100
0100
0100
0010
0010
,
1000
1000
1000
0100
0100
0100
0010
0010
,
0001
0001
0001
0010
0010
0010
0100
0100
,
1000
1000
1000
0010
0010
0010
0100
0100
,
0001
0001
0001
1000
1000
1000
0100
0100
,
0010
0010
0010
0001
0001
0001
1000
1000
,
0001
0100
0010
1000
0001
0000
1001
0000
,
1000
0100
0010
0001
1000
0000
1001
0000
,
0002
0000
0000
0000
2000
0000
0000
3003
,
0010
0100
0001
0010
0100
0000
0110
0000
,
0000
0100
0000
0100
1000
0000
1000
0000
,
0010
0100
0001
0100
0010
0000
0110
0000
,
0010
1000
0000
0001
0100
0000
0010
1000
,
0100
0010
0001
0010
0100
1000
0001
0100
,
0010
0010
0010
1000
1000
1000
0001
0001
,
0100
0001
1000
0100
0010
0000
0011
0000
;

//---------------dance-single - Renard----------------
#NOTES:
     dance-single:
     Renard:
     Medium:
     6:
     0.371,0.387,0.020,0.060,0.000:
0000
0000
0000
0000
,
0000
0000
0000
0000
,
1000
0000
0000
1000
0000
0000
1000
0000
,
0001
0000
0000
0001
0000
0000
0001
0000
,
0100
0000
0000
0100
0000
0000
0100
0000
,
0010
0000
0010
0000
,
1000
0000
0000
1000
0000
0000
1000
0000
,
0010
0000
0000
0010
0000
0000
0010
0000
,
0100
0000
0000
0100
0000
0000
0100
0000
,
0001
0001
0001
0001
,
0010
0000
0010
0010
,
0100
0000
0100
0000
,
1000
0000
1000
1000
,
0001
0000
0001
0000
,
0100
0000
0100
0100
,
0010
0000
0010
0010
,
0100
0010
0100
0000
,
0010
0100
0010
0000
,
0200
0000
0000
0000
0020
0000
0300
0030
,
0100
0100
0100
0100
,
0020
0000
0000
0000
0200
0000
0030
0300
,
0010
0010
0010
0110
,
0010
0000
1000
0000
,
0001
0100
0001
0100
,
0001
0000
0001
0000
,
1000
0000
1000
0000
0001
1000
0001
0000
,
1000
1000
0100
0100
,
1000
0001
1000
0001
,
1000
1000
0100
0100
,
1000
0001
1000
1001
,
0001
0000
0000
0001
0000
0000
0001
0000
,
0100
0100
0100
0000
,
0001
0000
0000
0001
0000
0000
0001
0000
,
0100
0100
0100
0000
,
0001
0000
0000
0001
0000
0000
0001
0000
,
1000
1000
1000
0000
,
0010
0100
0010
0000
,
0100
0010
0100
0000
,
0010
0000
0000
0010
0000
0000
0010
0000
,
1000
0000
0000
1000
0000
0000
1000
0000
,
0001
0000
0000
0001
0000
0000
0001
0000
,
0100
0001
0100
0001
,
1000
0000
0000
1000
0000
0000
1000
0000
,
0001
0000
0000
0001
0000
0000
0001
0000
,
1000
0010
1000
0000
,
0001
0100
0001
0001
,
1000
0000
0001
0000
,
1000
0000
0001
0100
,
0010
0000
0000
0010
0100
0000
0100
0000
,
0001
0000
0000
0001
1000
0000
1000
0000
,
0001
0000
0000
0001
1000
0000
1000
0000
,
0010
0000
0000
0010
0100
0000
0100
0000
,
0010
0100
0010
0100
,
0010
1000
0001
0100
,
0001
0000
0000
0001
1000
0000
0000
1000
,
0001
0100
0010
0100
,
0010
0000
0000
0010
0100
0000
0000
0100
,
0010
0010
1000
0001
,
1000
0000
0000
1000
0100
0000
0000
0100
,
1000
0001
1000
0010
,
0100
0000
0000
0100
0001
0000
0000
0001
,
1000
0100
1000
0001
,
0100
0000
0000
0100
0000
0000
0100
0000
,
0010
0000
0100
0000
0010
0100
0010
0000
,
1000
0000
0000
1000
0000
0000
1000
0000
,
0001
0000
1000
0000
0001
1000
0001
0000
,
0100
0000
0000
0100
0000
0000
0100
0000
,
0001
1000
0010
1000
,
0001
0100
0001
0000
,
1000
0100
1000
0001
,
1000
0000
1000
0000
,
0001
0001
0001
0001
,
2000
0000
3002
0000
,
1003
0000
0001
0000
1000
0001
1000
0000
,
0001
0000
0100
0000
,
0001
1000
0100
1000
,
0000
0001
0000
0000
0010
0000
0100
0000
,
0000
1000
0000
0000
0010
0000
0100
0000
;

//---------------dance-single - Renard----------------
#NOTES:
     dance-single:
     Renard:
     Easy:
     3:
     0.289,0.348,0.000,0.149,0.000:
0000
0000
0000
0000
,
0000
0000
0000
0000
,
1000
0000
1000
0000
,
0001
0001
0001
0000
,
1000
0000
1000
0000
,
0001
0001
0001
0000
,
0100
0000
0100
0000
,
0010
0010
0010
0000
,
0200
0000
0010
0000
,
0010
0000
0310
0000
,
0100
0000
0100
0000
,
0010
0010
0010
0000
,
1000
0000
1000
0000
,
0001
0001
0001
0000
,
0100
0000
0100
0000
,
0010
0010
0010
0000
,
2000
0000
0001
0000
,
0001
0000
3001
0000
,
0002
0000
0000
0000
,
2000
0000
0003
0000
,
0020
0000
0000
3000
,
0200
0000
0000
0330
,
0010
0000
0010
0000
,
0010
0000
0010
0000
,
0100
0000
0100
0000
,
0100
0100
0100
0100
,
0001
0000
0001
0001
,
1000
0000
1000
0000
,
0001
0000
0001
0001
,
1000
0000
1000
0010
,
0100
0000
0100
0010
,
0100
0000
0100
0010
,
0100
0000
0100
0010
,
0100
0000
0000
0000
,
0001
0000
0001
1000
,
0001
0000
0001
1000
,
0001
1000
0001
0000
,
1000
0001
1000
0000
,
0001
0000
0001
0000
,
0001
0000
0001
0000
,
1000
0000
1000
0000
,
1000
0000
1000
0000
,
0010
0000
0010
0000
,
0010
0000
0010
0000
,
0100
0100
0100
0000
,
0100
0100
0100
0000
,
0020
0000
0230
0000
,
0302
0000
1003
0001
,
1000
0000
1000
0001
,
1000
0000
0001
0000
,
0001
0000
0001
1000
,
0001
0000
0001
0000
,
0100
0000
0100
0000
,
0001
0010
0100
1000
,
0001
0000
1000
0000
,
0010
1000
0010
0000
,
1000
0000
0001
0000
,
1000
0010
1000
0001
,
0000
0100
0000
0001
,
0000
1000
0000
0100
,
1000
0000
1000
0000
,
0001
1000
0001
0100
,
0010
0000
0010
1000
,
0010
1000
0010
0000
,
0100
0000
0100
0001
,
0100
0010
1000
0001
,
1000
0000
0100
1000
,
0001
0010
0001
1000
,
0000
0010
0010
0000
,
0000
0100
0100
0000
,
0020
0000
0230
0000
,
0302
0000
0000
0000
,
2003
0000
3200
0000
,
0320
0000
0000
0000
,
0001
0001
0001
0001
,
0100
0100
0100
0100
,
0000
1000
0000
0100
,
0000
0001
0001
0031
;

//---------------dance-single - Renard----------------
#NOTES:
     dance-single:
     Renard:
     Challenge:
     95:
     0.800,0.659,0.199,0.000,0.000: // measure 1
0000
0000
0000
0000
,  // measure 2
0000
0000
0000
0000
,  // measure 3
1000
0001
0100
0010
1000
0100
0010
0001
,  // measure 4
0010
1000
0010
0100
0001
0100
1000
0010
,  // measure 5
0100
0001
0100
0010
1000
0100
0010
0001
,  // measure 6
0010
0100
0010
1000
0010
0100
0010
0001
,  // measure 7
0010
0001
0010
0100
1000
0001
0100
0010
,  // measure 8
1000
0100
1000
0100
1000
0001
0100
0010
,  // measure 9
0100
1000
0100
0010
0100
0001
0100
0010
,  // measure 10
0100
0001
0010
0100
0010
1000
0010
0100
,  // measure 11
0010
0001
0010
0100
1000
0010
0100
0001
,  // measure 12
0100
0010
1000
0100
1000
0001
1000
0001
,  // measure 13
1000
0100
1000
0100
0010
0001
0010
0100
,  // measure 14
0010
0001
0100
0001
1000
0001
0100
0010
,  // measure 15
0100
0001
1000
0010
1000
0100
1000
0001
,  // measure 16
0010
0100
0010
0001
0010
0100
1000
0001
,  // measure 17
0100
1000
0100
0001
0100
0001
0100
0010
,  // measure 18
0100
0001
0010
0100
0010
1000
0010
0000
,  // measure 19
0100
0010
0001
0000
0001
0010
0100
0000
,  // measure 20
0100
1000
0010
0000
0010
0100
0001
0000
,  // measure 21
0001
0100
0010
0000
0010
1000
0100
0000
,  // measure 22
0100
1000
0001
0010
0001
0000
0011
0000
,  // measure 23
0010
0100
0000
1000
0010
0100
0001
0000
,  // measure 24
0100
0010
1000
0100
0010
0001
0010
0000
,  // measure 25
0001
0010
0001
0010
0100
0010
0100
0010
,  // measure 26
1000
0010
0100
0010
0001
0000
1001
0000
,  // measure 27
0001
0100
1000
0100
0001
0010
1000
0010
,  // measure 28
0100
0001
0100
1000
0010
0001
0010
0100
,  // measure 29
1000
0100
0001
0010
0100
1000
0100
0001
,  // measure 30
0100
1000
0010
0100
0001
0000
1001
0000
,  // measure 31
0001
0100
1000
0001
0010
1000
0100
0001
,  // measure 32
1000
0010
0001
0010
0100
0001
0100
1000
,  // measure 33
0010
0100
0001
0100
1000
0001
0010
1000
,  // measure 34
0010
0100
0001
0010
0100
0010
0100
0001
,  // measure 35
0100
1000
0010
0100
0010
0100
1000
0100
,  // measure 36
0001
0100
0010
1000
0100
0001
0100
0010
,  // measure 37
0001
0010
1000
0010
0001
0000
0011
0000
,  // measure 38
0010
1000
0010
0100
0010
0000
0110
0000
,  // measure 39
0100
1000
0010
0100
0001
0100
1000
0100
,  // measure 40
0010
0001
0010
1000
0100
1000
0001
0000
,  // measure 41
1001
0000
1000
0100
0010
0001
0010
0000
,  // measure 42
0011
0000
0010
0100
1000
0001
0100
0000
,  // measure 43
0110
0000
0010
1000
0100
1000
0001
0000
,  // measure 44
1001
0000
1000
0100
0010
0001
0010
0000
,  // measure 45
0100
1000
0001
0100
0010
0000
0110
0000
,  // measure 46
0010
1000
0100
0010
0001
0000
0011
0000
,  // measure 47
0010
0000
0010
0100
0000
0100
1000
0001
,  // measure 48
0100
0000
0100
0010
0000
0010
1000
0001
,  // measure 49
0100
1000
0100
1000
0001
0010
0001
0010
,  // measure 50
1000
0100
0010
0001
0010
1000
0010
0100
,  // measure 51
0001
0100
1000
0010
0100
0001
0100
0001
,  // measure 52
1000
0100
1000
0010
1000
0001
0010
0001
,  // measure 53
0100
0001
1000
0010
0100
0001
0100
1000
,  // measure 54
0100
0001
0010
0100
0010
0000
0110
0000
,  // measure 55
0100
1000
0010
0100
0001
0100
0010
1000
,  // measure 56
0001
1000
0100
1000
0001
0000
1001
0000
,  // measure 57
0001
0100
0010
1000
0100
0010
0001
0010
,  // measure 58
0100
1000
0010
0100
0001
0000
0101
0000
,  // measure 59
0001
0100
0010
1000
0100
1000
0001
0100
,  // measure 60
0010
0100
1000
0100
0010
0000
0110
0000
,  // measure 61
0010
1000
0100
0010
0001
0010
1000
0010
,  // measure 62
0100
0010
0001
0010
0001
0000
0011
0000
,  // measure 63
0010
0100
0000
1000
0010
0100
0001
0100
,  // measure 64
1000
0100
0010
0100
0001
0000
0101
0000
,  // measure 65
0001
1000
0100
0010
0001
0010
0100
0010
,  // measure 66
0100
1000
0010
0100
0001
0000
0101
0000
,  // measure 67
0001
0100
0000
0010
0100
0010
1000
0100
,  // measure 68
0010
0001
0010
1000
0001
0100
1000
0000
,  // measure 69
0100
1000
0010
0100
0001
0000
0101
0000
,  // measure 70
0001
0100
1000
0001
0010
0000
0011
0000
,  // measure 71
0010
1000
0001
0100
,  // measure 72
0010
1000
0100
0010
0001
0010
0100
1000
,  // measure 73
0001
0100
0001
1000
,  // measure 74
0100
0010
0001
0010
0100
1000
0010
0100
,  // measure 75
0001
0001
0100
0010
0010
1000
0100
0010
,  // measure 76
0001
0001
0010
0100
0100
1000
0010
0100
,  // measure 77
0001
0001
0100
0010
0010
1000
0100
0100
,  // measure 78
0010
0001
0001
0010
0100
1000
0001
0100
;
