#TITLE:Bicycle Race;
#SUBTITLE:;
#ARTIST:Blümchen;
#TITLETRANSLIT:;
#SUBTITLETRANSLIT:;
#ARTISTTRANSLIT:;
#CREDIT:;
#BANNER:race.png;
#BACKGROUND:race-bg.png;
#LYRICSPATH:;
#CDTITLE:;
#MUSIC:race.ogg;
#OFFSET:0.000;
#SAMPLESTART:31.772;
#SAMPLELENGTH:12.000;
#SELECTABLE:YES;
#BPMS:0.000=181.065;
#STOPS:;
#BGCHANGES:;

//---------------dance-single - Renard----------------
#NOTES:
     dance-single:
     Renard:
     Challenge:
     11:
     0.762,1.000,0.448,0.228,0.389:
0000
0000
0000
0000
,
0000
0000
0000
0000
,
0000
0000
0000
0000
,
0000
0000
0000
0000
,
0000
0000
0000
0000
,
1M11
0000
0000
0000
,
0000
0000
0000
0000
,
11M1
0000
0000
0000
,
1000
0000
0100
0010
0001
0000
0010
0100
1000
0000
0000
0000
0000
0000
0000
0000
,
0101
0000
0010
1000
1100
0000
0100
0010
,
0011
0000
0001
0010
0110
0000
0100
1000
,
1001
0000
0001
0100
0110
0000
0010
1000
,
1001
0000
0001
1000
1100
0000
0100
0010
,
0011
0000
0001
0100
0101
0000
0001
1000
,
1100
0000
0001
0010
0011
0000
0001
1000
,
1010
0000
0010
0100
0101
0000
0010
1000
,
0010
0000
1000
0010
1000
0000
0001
0100
0001
0000
1000
0010
1000
0000
0000
0000
,
0000
0000
0001
0100
0010
0000
1000
0000
0000
0000
0000
0000
0000
0000
0000
0000
,
0000
0000
0010
0100
0001
0000
1000
0000
0000
0000
0000
0000
0000
0000
0000
0000
,
0000
0000
0001
0010
0100
0000
1000
0000
0000
0000
0001
0000
0000
0000
0000
0000
,
0100
0100
0010
0010
1000
1000
0001
0001
,
0010
0010
0100
0100
1000
1000
0001
0001
,
0100
0100
0010
0010
1000
1000
0001
0001
,
0100
0000
0001
1000
0010
0000
0100
0000
0000
0000
0000
0000
0000
0000
0000
0000
,
0000
0000
0001
1000
0100
0000
0010
0000
0000
0000
0000
0000
0000
0000
0000
0000
,
0000
0000
0001
0010
0100
0000
1000
0000
0000
0000
0001
0000
0100
0000
0010
0000
,
1000
1000
0010
0010
0100
0100
0001
0001
,
1000
1000
0001
0001
0010
0010
0100
1000
,
0001
0000
1000
0001
1000
0000
0001
0000
0100
0000
0010
0000
0000
0000
0000
0000
,
2200
0000
0000
0000
00M1
331M
0000
0000
,
0202
0000
0000
0000
10M0
M313
0000
0000
,
2002
0000
0000
0000
0M10
31M3
0000
0000
,
0001
0001
0200
1000
,
1000
0000
0000
0000
0010
0001
0000
0000
,
0001
0000
0000
0000
0010
1300
0000
0000
,
0101
0000
0000
0000
0010
1000
0100
0000
,
0010
0000
0000
0000
0010
0000
0000
0000
0001
1000
0001
0000
1000
0001
1000
0001
,
1000
0000
0000
1000
0100
0000
0010
0000
0011
0000
0011
0000
0000
0000
0000
0000
,
0010
0000
0000
0010
0100
0000
1000
0000
1001
0000
1001
0000
0000
0000
0000
0000
,
0101
0000
0000
0001
0100
0000
0010
0000
1010
0000
1010
0000
0002
0000
0000
0000
,
0200
0003
200M
0300
0M20
3000
M002
0030
,
01M3
0000
000M
0100
0010
0000
1000
0000
1100
0000
1100
0000
MM00
0000
0000
0000
,
0100
0000
0000
0100
0010
0000
0001
0000
0011
0000
0011
0000
00MM
0000
0000
0000
,
0100
0000
0000
0100
1000
0000
0010
0000
0101
0000
0101
0000
0020
0000
0000
0000
,
1030
0000
0000
1000
0001
0000
0100
0000
0010
0000
1000
0000
0100
0000
0010
0000
,
0001
0000
0000
0001
0010
0000
0100
0000
0000
0100
1000
0000
0001
0000
0100
0000
,
0010
0000
0000
0010
1000
0000
0010
0000
0100
0000
0001
0000
0010
0000
0100
0000
,
1000
0000
0000
1000
0001
0000
0100
0000
0000
0100
0010
0000
1000
0000
1100
0000
,
0110
0000
0000
0010
0001
0000
0100
0000
0010
0000
1000
0000
0100
0000
0010
0000
,
0001
0000
0000
0001
1000
0000
0001
0000
0100
0000
0010
0000
1000
0000
0001
0000
,
0100
0000
0100
0010
1000
0000
1000
0100
,
1000
0100
0010
0001
1000
0000
0001
0010
0100
1000
0001
0000
1000
0000
0001
0000
,
1200
0000
0001
0010
1000
0010
0300
0000
,
0210
0000
0001
0010
1000
0010
0300
0000
,
0201
0000
1000
0010
0001
0310
0200
0000
,
2300
3020
0230
0301
,
0201
0000
0010
1000
0001
0010
0300
0000
,
0210
0000
1000
0001
0010
1000
0300
0000
,
M1M1
0000
0000
1M1M
0000
11MM
0000
MM11
0000
0000
1MM1
0000
,
M1M1
0000
0000
0000
0000
0000
0000
0000
0000
0000
0000
0000
0000
0000
0000
0000
0000
0000
0000
0000
0000
0000
0000
0000
0000
0000
0000
0000
0000
0000
0000
0000
1M1M
0000
0000
0000
0000
0000
0000
0000
0000
0000
0000
0000
0000
0000
0000
0000
0000
0000
0000
0000
0000
0000
0000
0000
0000
0000
0000
0000
0000
0000
0000
0000
0000
0000
0000
0000
0000
0000
0000
0000
0000
0000
0000
0000
0000
0000
0000
0000
0000
0000
0000
0000
0000
0000
0000
0000
0000
0000
0000
0000
0000
0000
0000
0000
M1M1
0000
0000
0000
0000
0000
0000
0000
0000
0000
0000
0000
0000
0000
0000
0000
0000
0000
0000
0000
0000
0000
0000
0000
0000
0000
0000
0000
0000
0000
0000
0000
0000
0000
0000
0000
0000
0000
0000
0000
0000
0000
11MM
0000
0000
0000
0000
0000
0000
0000
0000
0000
0000
0000
0000
0000
0000
0000
0000
0000
0000
0000
0000
0000
0000
0000
0000
0000
0000
0000
0000
0000
0000
0000
0000
0000
0000
0000
0000
0000
0000
0000
0000
0000
MM11
0000
0000
0000
0000
0000
0000
0000
0000
0000
0000
0000
,
0000
0000
M11M
2M2M
,
0000
0000
0000
0000
0000
0000
003M
3M01
,
0100
0010
1000
0010
0000
0001
0000
0010
,
0100
0001
0100
1000
0000
0100
0000
0010
,
1000
0100
0001
0100
0000
0010
0000
0100
,
1000
0001
0100
0010
0001
0010
1000
0010
,
0100
0001
0100
1000
0000
1000
0000
0100
,
0010
1000
0010
0001
0000
0001
0000
0010
,
1000
0010
0100
0001
0000
0001
0000
0001
,
0100
0010
1000
0100
0001
0100
0010
0100
,
1000
0100
0010
0100
0001
0100
0010
0100
,
1000
0010
0001
0010
0100
1000
0100
0001
,
0010
0100
1000
0100
0001
0100
0010
0100
,
1000
0100
0010
0100
0001
0010
0100
1000
,
0100
0010
0001
1000
0001
0100
0010
0100
,
0010
1000
0100
0010
0001
0010
0100
1000
,
0001
0100
0010
1000
0001
0100
0010
1000
,
0001
0000
1000
0000
0001
0000
0100
0001
0100
0000
0001
0000
200M
0000
0000
0000
,
3001
0100
0010
1000
0010
0100
0001
0100
0010
1000
0001
1000
0100
0010
0001
1000
,
0001
0010
0100
1000
0001
1000
0100
1000
0001
0010
0100
1000
0001
1000
0001
1000
,
0100
0010
0001
1000
0001
1000
0010
0100
0001
0100
0010
1000
0001
0010
0100
1000
,
0001
0100
0010
1000
0001
1000
1001
0000
,
1000
0001
0100
0010
1000
0001
0010
0100
1000
0001
0010
0001
1000
0100
0010
0001
,
1000
0100
1000
0001
0010
0100
1000
0001
0100
0010
1000
0010
1000
0001
0100
0001
,
1000
0100
1000
0001
0100
0010
1000
0100
0010
0001
1000
0001
0010
0100
1000
0001
,
0100
0010
1000
0001
0100
0010
1000
M001
020M
0000
0000
0000
0000
0000
0000
0000
,
0002
0000
0000
0000
,
0000
0000
0000
0303
0000
0000
0000
0000
;

//---------------dance-single - Renard----------------
#NOTES:
     dance-single:
     Renard:
     Hard:
     9:
     0.642,0.741,0.389,0.017,0.059:
0000
0000
0000
0000
,
0000
0000
0000
0000
,
0000
0000
0000
0000
,
0000
0000
0000
0000
,
0000
0000
0000
0000
,
1111
0000
0000
0000
,
0000
0000
0000
0000
,
1111
0000
0000
0000
,
1000
0001
0100
0001
1001
0000
0000
0000
,
0001
0000
0001
0100
0010
0000
0010
1000
,
0100
0000
0000
0000
0100
0000
0010
0000
0001
0000
0000
0001
0010
0000
0100
0000
,
1000
0000
1000
0001
0100
0000
0100
0010
,
1000
0000
0000
0000
1000
0000
0010
0000
0100
0000
0000
0100
0001
0000
0000
0010
,
0100
0000
0100
1000
0010
0100
0000
0100
,
0001
0000
0000
0000
0001
0000
0100
0000
0000
0000
0010
1000
0010
0000
0000
0000
,
1000
0000
0100
0000
0010
0001
0000
0001
,
0010
0000
0100
1000
0000
0001
0100
0010
,
0000
1000
0100
0010
0000
0001
0010
0100
,
0000
1000
0010
0100
0000
0001
0100
0010
,
0000
1000
0100
0010
0000
0001
0010
0100
,
1000
1000
0001
0001
0100
0010
1000
0100
,
0010
0010
0001
0001
0010
0100
1000
0001
,
0100
0010
1000
0001
1000
0100
0010
0001
,
0000
0001
0010
0100
0000
0100
1000
0010
,
0000
0010
0100
0001
0100
0010
1000
0100
,
0000
0100
0010
0001
0000
0011
0000
0000
,
0010
0100
1000
0001
0010
0100
1000
0000
,
0001
0010
0100
1000
0001
0010
0100
0000
,
0100
0010
0001
1000
0100
1000
0000
0000
,
1001
0000
0001
0100
0010
1000
0000
0000
,
1001
0000
0000
0000
0001
1000
0100
0000
,
0011
0000
0010
0100
1000
0001
1000
0000
,
1001
0110
1001
0110
,
1100
0000
1000
0100
0010
0001
0000
0000
,
1001
0000
0001
0100
0010
1000
0000
0000
,
1001
0000
1000
0100
0010
0001
0010
0000
,
0110
1100
0011
0110
,
0100
1000
0010
0001
0010
1000
0000
0000
,
1000
0100
0001
0100
0010
0001
0010
0000
,
0001
0010
0100
1000
0100
0001
0100
0000
,
0110
0011
1010
0011
,
0001
0010
1000
0010
0100
1000
0000
0000
,
1000
0010
0001
0010
0100
0010
0000
0000
,
0010
1000
0001
0100
0010
1000
0001
0000
,
0100
0000
0000
0000
0001
0000
0000
0001
1000
0000
0100
0000
0000
0000
0010
0000
,
0000
0001
0010
0100
1000
0001
0100
0000
,
0010
0000
0000
0000
1000
0000
0000
1000
0100
0000
0010
0000
0001
0000
0000
0000
,
0010
0000
0100
1000
0000
0010
0000
0100
,
0001
0000
0000
0000
0100
0000
0000
0010
1000
0000
0100
0000
0010
0000
0000
0000
,
0001
0000
0000
0000
0010
0000
0000
0010
0100
0000
1000
0000
0010
0000
0100
0000
,
0001
0000
0001
0100
0010
0000
1000
0000
,
1001
0110
1001
0000
,
1000
0100
0010
0001
0010
0100
1000
0001
,
0010
0100
1000
0100
0010
0001
1000
0010
,
0100
0001
0100
0010
1000
0001
1000
0100
,
1000
0100
1000
0100
0010
0100
0010
0001
,
0010
0001
0010
0100
1000
0001
0100
0000
,
0010
1000
0001
0100
0010
1000
0001
0000
,
0101
0000
0000
1010
0000
1100
0000
0011
0000
0000
1001
0000
,
0101
0000
0000
0000
0000
0000
0000
0000
0000
0000
0000
0000
0000
0000
0000
0000
0000
0000
0000
0000
0000
0000
0000
0000
0000
0000
0000
0000
0000
0000
0000
0000
1010
0000
0000
0000
0000
0000
0000
0000
0000
0000
0000
0000
0000
0000
0000
0000
0000
0000
0000
0000
0000
0000
0000
0000
0000
0000
0000
0000
0000
0000
0000
0000
0000
0000
0000
0000
0000
0000
0000
0000
0000
0000
0000
0000
0000
0000
0000
0000
0000
0000
0000
0000
0000
0000
0000
0000
0000
0000
0000
0000
0000
0000
0000
0000
0101
0000
0000
0000
0000
0000
0000
0000
0000
0000
0000
0000
0000
0000
0000
0000
0000
0000
0000
0000
0000
0000
0000
0000
0000
0000
0000
0000
0000
0000
0000
0000
0000
0000
0000
0000
0000
0000
0000
0000
0000
0000
1100
0000
0000
0000
0000
0000
0000
0000
0000
0000
0000
0000
0000
0000
0000
0000
0000
0000
0000
0000
0000
0000
0000
0000
0000
0000
0000
0000
0000
0000
0000
0000
0000
0000
0000
0000
0000
0000
0000
0000
0000
0000
0011
0000
0000
0000
0000
0000
0000
0000
0000
0000
0000
0000
,
0000
0000
0110
1010
,
0000
0000
0000
0000
0000
0000
0000
0001
,
0100
0001
1000
0100
0000
0100
0000
0010
,
0001
0010
0100
1000
0000
0001
0000
0100
,
0010
1000
0100
0010
0000
0010
0000
0010
,
0100
1000
0001
0010
0100
1000
0001
0010
,
0001
0010
0001
0010
0000
0100
0000
1000
,
0010
0100
0001
0100
0000
0010
0000
1000
,
0010
0100
0001
1000
0000
1000
0000
0100
,
0010
0001
0010
0100
1000
0001
0010
0100
,
1000
0001
0100
0010
0000
0110
0000
0010
,
1000
0100
0010
0001
0000
0011
0000
0010
,
0100
1000
0001
0100
0000
0010
0000
1000
,
0100
0010
0001
0010
0100
1000
0001
0100
,
0010
1000
0100
0010
0000
0110
0000
0010
,
0100
1000
0010
0100
0000
0110
0000
0100
,
0001
0010
0100
1000
0000
1000
0001
0100
,
0001
0100
0010
1000
0100
0010
0001
0000
,
0011
0000
0010
0100
1000
0001
0010
0000
,
0110
0000
0100
1000
0010
0100
0001
0000
,
0101
0000
0100
0010
1000
0100
0010
0000
,
0110
0000
0100
1000
0001
0010
0100
0000
,
1000
0001
1000
0001
0100
0001
0100
0001
,
0100
0010
0100
0010
1000
0010
1000
0010
,
1000
0100
0010
0001
0010
0100
1000
0001
,
0100
0010
1000
0100
0010
0001
1000
0000
,
2002
0000
0000
0000
,
0000
0000
0000
0000
0000
3003
0000
0000
;

//---------------dance-single - Renard----------------
#NOTES:
     dance-single:
     Renard:
     Medium:
     5:
     0.373,0.632,0.093,0.051,0.000:
0000
0000
0000
0000
,
0000
0000
0000
0000
,
0000
0000
0000
0000
,
0000
0000
0000
0000
,
0000
0000
0000
0000
,
2002
0000
0000
0000
,
0000
0000
0000
0000
,
3013
0000
0000
0000
,
0000
0000
0000
0000
,
1000
0000
1000
0001
0100
0000
0100
0000
,
0001
0010
0100
0000
,
1000
0000
0001
0010
0001
0000
1000
0000
,
0001
0000
0100
0000
,
0010
0000
1000
0001
1000
0000
0001
0000
,
0100
0100
0001
0000
,
0010
0000
0100
1000
0001
0000
0100
0000
,
0001
0001
1000
1000
,
0001
0001
0100
0000
,
0010
0010
1000
0000
,
0100
0100
0010
0000
,
0001
0000
1000
0001
1000
0000
0001
0000
,
0100
0000
0010
0100
0010
0000
0100
0000
,
0001
0000
0001
0000
0000
0000
1000
0100
,
1000
0000
0001
0010
0001
0000
1000
0010
,
1000
0000
0001
0100
0001
0000
1000
0000
,
0100
0010
0001
1000
,
0001
0100
0001
0100
0001
0100
0001
0100
,
0001
0100
0001
0100
0001
0100
0001
0100
,
0001
0000
0000
0000
,
1100
0000
0000
0000
0010
0001
0000
0000
,
0101
0000
0000
0000
0010
1000
0000
0000
,
1100
0000
0000
0000
0010
0001
1000
0000
,
0001
1000
0001
1000
,
0110
0000
0000
0000
0010
1000
0000
0000
,
0101
0000
0000
0000
0001
0010
0000
0000
,
1100
0000
0000
0000
0001
0010
0100
0000
,
1000
1000
0001
0001
,
0100
0000
0000
0000
0001
1000
0001
0000
,
0100
0000
0000
0000
0010
0100
0010
0000
,
1000
0000
0000
0000
0001
0100
0001
0000
,
1000
0100
0010
0001
,
1000
0000
0000
0000
0001
0010
0001
0000
,
1000
0000
0000
0000
0100
1000
0001
0000
,
1000
1000
0001
0001
,
0100
0000
0010
0100
0010
0000
0010
0000
,
1000
1000
0001
0000
,
1000
0000
0001
0100
0010
0000
1000
0000
,
1000
0000
0000
1001
,
1001
0001
0100
0100
,
0001
0000
1000
0000
0100
0000
0000
1000
,
0001
0001
0100
0010
,
1000
1000
0001
0000
,
0100
0000
0000
0000
0100
0010
0000
0000
,
1000
0000
0000
0000
0001
1000
0000
0000
,
0001
0000
0000
0000
0010
0001
0000
0000
,
1000
1000
0001
0001
,
0100
0000
0000
0000
0010
1000
0000
0000
,
0001
0000
0000
0000
0100
0001
0000
0000
,
2002
0000
0000
0000
,
0000
0000
0000
0000
,
0000
0000
0000
0000
,
0000
0000
3003
0000
,
1000
0000
0000
1000
0000
1000
0000
1000
,
0001
0000
0000
0001
0000
0001
0000
0001
,
0100
0000
0000
0100
0000
0100
0000
0100
,
0010
0010
1000
1000
,
0001
0000
0001
0100
0000
0100
0000
0000
,
0001
0000
0001
0010
0000
0010
0000
0000
,
0100
0000
0100
1000
0000
1000
0000
0000
,
0010
1000
0010
1000
,
0001
0000
0100
0001
0000
0001
0000
0000
,
1000
0000
0100
1000
0000
1000
0000
0000
,
0010
0000
0100
0010
0000
0010
0000
0000
,
1000
0001
0100
0001
,
1000
0000
1000
0100
0000
0100
0000
0000
,
0010
0000
0010
0001
0000
0001
0000
0000
,
1000
0000
1000
0010
0000
0010
0000
0000
,
0100
0100
0001
1000
,
0100
0000
1000
0100
1000
0000
0001
0000
,
0010
0000
0001
0010
0001
0000
0000
0000
,
1000
0000
0010
1000
0001
0000
0100
0000
,
0100
0000
0010
1000
,
0100
0100
1000
0001
,
0010
0010
0001
1000
,
0010
0100
0001
0010
,
0100
1000
0010
0000
,
2002
0000
0000
0000
,
0000
0000
0000
0000
,
3003
0000
0000
0000
;

//---------------dance-single - Renard----------------
#NOTES:
     dance-single:
     Renard:
     Easy:
     2:
     0.233,0.335,0.051,0.118,0.000: // measure 1
0000
0000
0000
0000
,  // measure 2
0000
0000
0000
0000
,  // measure 3
0000
0000
0000
0000
,  // measure 4
0000
0000
0000
0000
,  // measure 5
0000
0000
0000
0000
,  // measure 6
1001
0000
0000
0000
,  // measure 7
0000
0000
0000
0000
,  // measure 8
0110
0000
0000
0000
,  // measure 9
0000
0000
0000
0000
,  // measure 10
1000
0000
1000
1000
,  // measure 11
0001
0000
0000
0000
,  // measure 12
0100
0000
0100
0100
,  // measure 13
0010
0000
0000
0000
,  // measure 14
1000
0000
1000
1000
,  // measure 15
0001
0000
0001
0000
,  // measure 16
0010
0000
0010
0010
,  // measure 17
0100
0000
0100
0000
,  // measure 18
1000
0000
1000
0000
,  // measure 19
0001
0000
0001
0000
,  // measure 20
0100
0000
0100
0000
,  // measure 21
0010
0010
0010
0010
,  // measure 22
0010
0010
0010
0010
,  // measure 23
0010
0010
0000
0000
,  // measure 24
1000
0000
1000
0000
,  // measure 25
0010
0000
0010
0000
,  // measure 26
0100
0000
0100
0000
,  // measure 27
0001
0000
0001
0000
,  // measure 28
0100
0000
0100
0000
,  // measure 29
1001
1001
1001
0000
,  // measure 30
0020
0000
0000
0000
,  // measure 31
0230
0000
0000
0000
,  // measure 32
0302
0000
0000
0000
,  // measure 33
1003
0100
0010
0001
,  // measure 34
2000
0000
0000
0000
,  // measure 35
3200
0000
0000
0000
,  // measure 36
0320
0000
0000
0000
,  // measure 37
0031
0010
0100
1000
,  // measure 38
0001
0000
1000
0000
,  // measure 39
0010
0000
0100
0000
,  // measure 40
0001
0000
1000
0000
,  // measure 41
0001
1000
0001
1000
,  // measure 42
0010
0000
0100
0000
,  // measure 43
0001
0000
1000
0000
,  // measure 44
0001
0000
1000
0000
,  // measure 45
0010
0000
0010
0000
,  // measure 46
0100
0001
0100
0000
,  // measure 47
0010
0000
0010
0000
,  // measure 48
2000
0000
0000
0000
,  // measure 49
3100
0000
1000
0000
,  // measure 50
0001
0010
0001
0000
,  // measure 51
1000
0000
0010
0000
,  // measure 52
0100
0001
0100
0000
,  // measure 53
0020
0000
0100
0000
,  // measure 54
0230
0000
0001
0000
,  // measure 55
0302
0000
1000
0000
,  // measure 56
1003
0001
0100
0010
,  // measure 57
1000
0000
1000
0000
,  // measure 58
0001
0000
0001
0000
,  // measure 59
2002
0000
0000
0000
,  // measure 60
0000
0000
0000
0000
,  // measure 61
0000
0000
0000
0000
,  // measure 62
0000
0000
3003
0000
,  // measure 63
1000
0000
1000
0000
,  // measure 64
0001
0000
0000
0000
,  // measure 65
0100
0000
0000
0000
,  // measure 66
0010
0000
0000
0000
,  // measure 67
1000
0000
1000
0000
,  // measure 68
0001
0000
0000
0000
,  // measure 69
0100
0000
0100
0000
,  // measure 70
0010
0000
0000
0000
,  // measure 71
1000
0000
0001
1000
,  // measure 72
0001
0000
0100
0000
,  // measure 73
0010
0000
1000
0000
,  // measure 74
0001
1000
0100
0010
,  // measure 75
0001
0000
1000
0001
,  // measure 76
1000
0000
0010
0000
,  // measure 77
0100
0001
1000
0010
,  // measure 78
1000
0000
0001
0000
,  // measure 79
1000
1000
0001
0001
,  // measure 80
1000
1000
0001
0000
,  // measure 81
0100
0100
0010
0010
,  // measure 82
0100
0000
0000
0000
,  // measure 83
0010
0010
1000
1000
,  // measure 84
0001
0001
0100
0100
,  // measure 85
0001
1000
0100
0010
,  // measure 86
0001
1000
0020
0000
,  // measure 87
0200
0000
0000
0000
,  // measure 88
0000
0000
0000
0000
,  // measure 89
0330
0000
0000
0000
;
