#TITLE:Becoming Insane;
#SUBTITLE:;
#ARTIST:Infected Mushroom;
#TITLETRANSLIT:;
#SUBTITLETRANSLIT:;
#ARTISTTRANSLIT:;
#CREDIT:;
#BANNER:insane.png;
#BACKGROUND:insane-bg.png;
#LYRICSPATH:;
#CDTITLE:;
#MUSIC:insane.ogg;
#OFFSET:0.000;
#SAMPLESTART:61.221;
#SAMPLELENGTH:12.000;
#SELECTABLE:YES;
#BPMS:0.000=145.000;
#STOPS:;
#BGCHANGES:;

//---------------dance-single - Renard----------------
#NOTES:
     dance-single:
     Renard:
     Hard:
     9:
     0.567,0.609,0.190,0.091,0.277:
0000
0000
0000
0000
,
0000
0000
0000
0000
,
0000
0000
0000
0000
,
0000
0000
0000
0000
,
0000
0000
0000
0000
,
1000
0000
0001
0100
0001
0000
0010
0000
0000
0000
0110
0000
0000
0000
0100
0000
,
0000
1000
0000
0010
0100
0000
0001
0000
,
0010
0000
0100
0010
0100
0000
1000
0000
0000
0000
0010
0000
0000
0000
0100
0000
,
0000
0001
0000
0010
0001
1000
1001
0000
,
0001
0000
0100
0000
0010
0000
1000
0000
0100
0010
0000
0001
0010
0000
0100
0000
,
1000
0000
0001
0000
0010
0000
0100
0000
1000
0010
0000
1000
0001
0000
0100
0000
,
0010
0000
1000
0000
0100
0000
0010
0000
0001
0010
0000
0100
1000
0000
0001
0000
,
0100
0000
0100
0000
0100
0000
0010
0100
0010
0000
0100
0000
0100
0000
0000
0000
,
0110
0000
0000
0000
0010
0000
1000
0100
1000
0000
1100
0000
0011
0000
0000
0000
,
1001
0000
0001
0100
0010
1000
1100
0000
,
0010
0000
0000
0000
0001
0000
1000
0001
1000
0000
0001
0000
0100
0000
0000
0000
,
2002
0000
0000
0000
0000
0000
0000
3003
,
1000
0000
0001
0000
0100
0000
0010
1000
0000
0000
0000
0000
0000
0000
0000
0000
,
0100
0000
0010
0000
0001
0000
0010
0000
0100
1000
0000
0001
0000
0000
0000
0000
,
0010
0000
0100
0000
1000
0000
0010
0100
0000
0000
0000
0000
0000
0000
0000
0000
,
0001
0000
0100
0000
0010
0000
1000
0000
0100
0000
0010
0100
0010
0000
0100
0000
,
1000
0000
0010
0000
0100
0000
0001
0010
0000
0000
0100
0000
1000
0000
0010
0000
,
0100
0000
0001
0000
1000
0000
0100
0000
0010
0001
0000
0010
0000
0000
0000
0000
,
0100
0000
1000
0000
0010
0000
0100
0001
0000
0000
0100
0000
0010
0000
1000
0000
,
0100
0010
0001
1000
1001
0000
0110
0000
,
1001
0000
0000
0001
0000
0000
0000
0000
0000
0000
0000
1000
0000
1000
0000
0000
,
0001
0000
0000
0100
0000
0000
0000
0000
0000
0000
0000
0000
0000
0100
0000
0000
,
0010
0000
0000
0010
0000
0000
0000
0000
0000
0000
0000
1000
0000
1000
0000
0000
,
0100
0000
0000
0010
0000
0000
0000
0000
0000
0000
0000
0001
0000
0010
0000
0000
,
0001
0000
0001
0010
0000
0010
0100
1000
,
0010
0100
0001
0010
0100
1000
0001
0100
,
0001
0000
1000
0001
1000
0000
0001
1000
0001
0000
1000
0001
1000
0000
0001
2000
,
0002
0000
0000
0000
0020
0000
0000
3033
,
1000
0001
0100
1000
0000
1000
0001
0010
,
0000
0010
1000
0100
0010
0001
0010
0100
,
0001
0100
1000
0010
0000
0010
0001
0010
,
0100
1000
0100
0001
0010
0100
0010
0000
,
0110
0000
0100
1000
0010
0000
0010
0100
,
0001
0010
1000
0010
0100
0001
0100
0000
,
0101
0000
0100
1000
0010
0000
0010
0001
,
0010
0000
0000
0001
0000
0000
0100
0000
1000
0000
0000
0000
0010
1000
0010
0000
,
1000
0000
0000
1000
0001
0000
0100
0000
0000
0000
0100
0000
0010
0000
1000
0000
,
0100
0000
0010
0001
0000
0010
0100
0000
1000
0000
0010
0000
0100
0000
0001
0000
,
0100
0000
0000
0100
0010
0000
1000
0000
0100
0000
0000
0100
0010
0000
0001
0000
,
0010
0000
0100
0000
1000
0000
0001
0000
0100
0000
0001
0100
0001
0000
0100
0000
,
0010
0000
0000
0010
1000
0000
0100
0000
0000
0000
0010
0000
0001
0000
0010
0000
,
0100
0000
1000
0000
0010
0000
0100
0000
0001
0000
0100
0001
0100
0000
0010
0000
,
1000
0000
0000
1000
0100
0000
0010
0000
0001
0000
0010
0000
0100
0000
1000
0000
,
0010
0000
0000
0010
0100
0000
0001
0000
0100
0000
0000
0000
1001
0000
0000
0000
,
2001
0000
0002
0000
3000
1000
0000
2000
,
0000
0000
0003
0001
0000
0002
0000
3003
,
1000
1000
0001
0001
0100
0100
0010
0010
,
1001
0000
0000
0001
0000
1000
0001
1000
,
1001
0001
0100
0010
0100
0010
0000
0010
,
1000
0100
0010
0100
0000
0100
1000
0010
,
0100
0001
1000
1000
0001
0001
0000
0100
,
0001
0100
0010
1000
0000
1000
0100
0010
,
0001
0000
0011
0000
0010
0100
1000
0001
,
0000
0001
0100
0010
1000
0100
0010
0001
,
1000
0000
0100
1000
0100
0000
1000
0001
1000
0000
0001
0010
0001
0000
0010
0000
,
0011
0110
1100
1001
,
0001
0000
0000
0001
0100
0000
1000
0000
0100
0000
0010
0000
1000
0000
0010
0000
,
0001
0000
0000
0001
0010
0000
0100
0000
1000
0000
0100
0000
0001
0000
0100
0000
,
0010
0000
0000
0010
1000
0000
0010
0000
0100
0000
0001
0000
0100
0000
1000
0000
,
0100
0010
0100
0001
0100
0000
0101
0000
,
0001
0000
0000
0001
1000
0000
0100
0000
0010
0000
0001
0000
0010
0000
0100
0000
,
1000
0000
0000
1000
0100
0000
0010
0000
0001
0000
0010
0000
0100
0000
1000
0000
,
0001
1000
0001
0000
0100
0010
0100
0000
0001
1000
0001
0000
0100
0010
0100
0000
,
0001
1000
0001
1000
0001
1000
0001
1000
0010
0100
0010
0100
0010
0100
0010
0100
,
0002
2000
0000
0000
,
3003
0000
0000
0000
;

//---------------dance-single - Renard----------------
#NOTES:
     dance-single:
     Renard:
     Medium:
     6:
     0.403,0.522,0.174,0.041,0.004:
0000
0000
0000
0000
,
0000
0000
0000
0000
,
0000
0000
0000
0000
,
0000
0000
0000
0000
,
0000
0000
0000
0000
,
1000
0000
1000
0001
0000
0001
0000
0100
,
0000
0010
0000
1000
0001
0000
1000
0000
,
0100
0000
0010
0001
0000
0010
0000
0100
,
0000
1000
0000
0001
0100
0001
1000
0001
,
0100
0010
0000
0000
1000
0100
0010
0001
,
0010
0100
1000
0000
0010
0100
0001
0100
,
0010
0100
0000
0010
1000
0100
0010
0001
,
0010
0000
0010
0001
0001
0001
0001
0000
,
1000
0000
0000
0001
0100
0001
0100
0000
,
0001
0000
0000
1000
0100
1000
0100
0000
,
1000
0000
0000
0001
0010
0001
0010
0000
,
0011
0000
0000
0000
,
0100
1000
0100
1000
0000
0000
0000
0000
,
0010
1000
0001
0100
0001
0010
0000
0000
,
0001
0010
0100
1000
0000
0000
0000
0000
,
0001
0100
0010
1000
0100
0010
0001
0000
,
0010
0100
1000
0001
0000
0000
0000
0000
,
0100
0001
1000
0010
0100
0010
1000
0000
,
0010
1000
0100
0010
0000
0000
0000
0000
,
0001
0010
0100
1000
0001
0000
1001
0000
,
0001
0001
1000
1000
,
0001
0001
1000
1000
,
0010
0010
0100
0100
,
0010
0010
0100
0100
,
0001
0000
0100
0000
0001
0100
0001
0100
,
0010
0100
0010
0100
0010
0100
0010
0100
,
0010
1000
0010
1000
0001
1000
0001
1000
,
2002
0000
0000
0000
0020
0000
0030
3003
,
1000
0000
1000
0001
0000
0100
0000
0001
,
0000
1000
0000
0100
1000
0000
0000
0000
,
0001
0000
0010
0001
0000
1000
0000
0010
,
0000
1000
0000
0001
0100
0000
0001
0000
,
1000
0000
0001
0010
0000
0001
0000
1000
,
0000
0010
0000
1000
0001
0000
0100
0000
,
0001
0000
1000
0100
0000
1000
0000
0001
,
0010
0000
0000
0010
0000
0000
0010
0000
0010
0000
0000
0000
0000
0000
0000
0000
,
0010
0000
0010
0001
0000
0001
1000
0000
,
0001
0001
0100
0110
,
0010
0010
1000
1000
,
0100
1000
0100
1000
0001
0000
0001
0000
,
0100
0100
0001
0001
,
1000
0100
1000
1001
,
0001
0100
0001
0010
,
0001
1000
0001
0100
0001
0000
1001
0000
,
1000
0000
1000
0000
0000
0100
0000
0100
,
0000
0000
0000
0010
0000
0010
0000
0000
,
0001
0001
0010
0010
0100
0100
1000
1000
,
1001
0000
0000
0000
,
1000
1000
0001
0001
,
0100
0100
0001
0001
,
0010
0100
1000
0010
,
0100
0001
0010
0100
,
1000
0001
1000
0001
1000
0001
1000
0001
,
1000
0001
1000
0001
1000
0001
1000
0001
,
0100
0010
0100
0010
0100
0010
0100
0010
,
1000
0001
1000
0001
1000
0000
1001
0000
,
0101
0000
1001
0000
0000
1100
0000
1001
,
0000
0000
0000
1001
0000
1001
0000
0000
,
0110
0000
1010
0000
0000
0110
0000
0101
,
0000
0000
0000
0001
0000
0010
0100
0010
,
0100
0000
0110
0000
0000
1100
0000
0011
,
0000
0000
0000
0001
0000
1000
0000
0000
,
0001
0100
0010
1000
0001
0100
0010
1000
,
0001
0100
0010
1000
0001
0100
0010
1000
,
0002
2000
0000
0000
,
3003
0000
0000
0000
;

//---------------dance-single - Renard----------------
#NOTES:
     dance-single:
     Renard:
     Easy:
     2:
     0.251,0.290,0.041,0.075,0.000: // measure 1
0000
0000
0000
0000
,  // measure 2
0000
0000
0000
0000
,  // measure 3
0000
0000
0000
0000
,  // measure 4
0000
0000
0000
0000
,  // measure 5
0000
0000
0000
0000
,  // measure 6
1000
0000
1000
0000
,  // measure 7
0001
0001
0001
0000
,  // measure 8
0100
0000
0100
0000
,  // measure 9
0010
0010
0010
0000
,  // measure 10
1000
1000
1000
1000
,  // measure 11
0001
0001
0001
0001
,  // measure 12
0100
0100
0100
0100
,  // measure 13
0010
0100
0010
0000
,  // measure 14
1000
0000
0010
0010
,  // measure 15
0100
0000
0001
0001
,  // measure 16
0010
0000
0100
0100
,  // measure 17
1000
0000
0010
0100
,  // measure 18
0001
0001
0100
0000
,  // measure 19
0010
0010
1000
0000
,  // measure 20
0100
0100
0010
0000
,  // measure 21
0001
0001
0010
0100
,  // measure 22
1000
1000
0001
0000
,  // measure 23
0100
0100
0010
0000
,  // measure 24
1000
0100
0010
0000
,  // measure 25
0001
0010
0100
1000
,  // measure 26
0010
0010
0000
0000
,  // measure 27
0100
0100
0000
0000
,  // measure 28
0001
0001
0000
0000
,  // measure 29
1000
1000
0000
0000
,  // measure 30
0100
0100
0010
0010
,  // measure 31
0001
0001
1000
1000
,  // measure 32
0001
0100
0010
1000
,  // measure 33
2002
0000
0000
3003
,  // measure 34
0001
0001
1000
1000
,  // measure 35
0001
0001
1000
0000
,  // measure 36
0010
0010
0100
0100
,  // measure 37
0010
0010
0100
0000
,  // measure 38
0001
0100
0001
0100
,  // measure 39
0001
0100
0001
0000
,  // measure 40
1000
0010
1000
0001
,  // measure 41
1000
0000
0100
0000
,  // measure 42
1000
1000
0001
0001
,  // measure 43
0100
0100
0110
0000
,  // measure 44
0010
0010
1000
1000
,  // measure 45
0100
1000
1001
0000
,  // measure 46
0001
0100
0001
0010
,  // measure 47
0001
1000
1001
0000
,  // measure 48
0001
0100
0010
1000
,  // measure 49
0100
1000
1001
0000
,  // measure 50
2000
0000
0000
0000
,  // measure 51
3002
0000
0000
0000
,  // measure 52
0203
0000
0320
0000
,  // measure 53
2030
0000
0000
0000
,  // measure 54
3001
0001
0001
0000
,  // measure 55
0001
0000
0001
0000
,  // measure 56
1000
1000
1000
0000
,  // measure 57
1000
0000
1000
0000
,  // measure 58
1000
0001
1000
0001
,  // measure 59
0100
0010
0100
0010
,  // measure 60
1000
0100
0010
0001
,  // measure 61
1000
0001
0100
0010
,  // measure 62
1000
1000
0000
0010
,  // measure 63
0010
0000
0100
0100
,  // measure 64
0001
0001
0000
0010
,  // measure 65
0010
0000
0100
0100
,  // measure 66
1000
1000
0000
0010
,  // measure 67
0010
0000
0100
0100
,  // measure 68
0001
0010
0100
1000
,  // measure 69
0010
0100
0001
1000
,  // measure 70
0002
2000
0000
0000
,  // measure 71
3003
0000
0000
0000
;
