#TITLE:Bassline of the Century (MGD Re-Edit);
#SUBTITLE:;
#ARTIST:Plus System;
#TITLETRANSLIT:;
#SUBTITLETRANSLIT:;
#ARTISTTRANSLIT:;
#CREDIT:;
#BANNER:century.png;
#BACKGROUND:century-bg.png;
#LYRICSPATH:;
#CDTITLE:;
#MUSIC:century.ogg;
#OFFSET:0.000;
#SAMPLESTART:79.039;
#SAMPLELENGTH:12.000;
#SELECTABLE:YES;
#BPMS:0.000=170.000;
#STOPS:;
#BGCHANGES:;

//---------------dance-single - Renard----------------
#NOTES:
     dance-single:
     Renard:
     Hard:
     8:
     0.511,0.525,0.585,0.230,0.000:
0000
0000
0000
0000
,
0000
0000
0000
0000
,
0000
0000
0000
0000
,
0000
0000
0000
0000
,
1000
0001
0000
0101
0000
0101
0000
0001
,
0010
0100
0000
0110
0000
0110
0000
0100
,
1000
0010
0000
1010
0000
1010
0000
0010
,
0100
0001
0000
0001
0000
0010
0100
1000
,
0100
0010
0000
0110
0000
0110
0000
0010
,
0001
1000
0000
1001
0000
1001
0000
0001
,
0100
0010
0000
0110
0000
0110
0000
0010
,
1000
0100
0000
1100
0000
1000
0100
0010
,
0001
0010
0000
0011
0000
0011
0000
0010
,
0100
1000
0000
1100
0000
1100
0000
1000
,
0001
0100
0000
0110
0000
0110
0000
0010
,
1000
0001
0000
1001
0000
1000
0100
0010
,
00M2
0000
00M0
0M20
0000
0M00
M000
0000
,
M000
0M03
0230
200M
03M0
0020
300M
M200
,
000M
0000
000M
M000
0000
M000
000M
0000
,
000M
M000
0000
M000
000M
M000
000M
0030
,
M002
0000
M300
20M0
0000
00M0
0M00
0000
,
0M00
00M3
3200
002M
M000
0302
MM30
0200
,
M000
0000
M000
00M0
0000
00M3
M320
2000
,
000M
0M00
0000
000M
0M00
0000
0M0M
3030
,
100M
0000
0M00
00M1
0000
00M0
M100
0010
,
M000
1M00
0100
M010
0M00
0001
MM00
0010
,
M000
0000
M100
000M
1000
000M
0M10
1000
,
0M00
10M0
0000
10M0
0M00
100M
0M00
0001
,
01M0
0000
01M0
M010
0100
M000
0M10
1000
,
0M00
M100
0010
M001
00M0
M010
000M
01M0
,
000M
0000
100M
0M00
0010
0M00
01M0
0M02
,
2MM0
0000
0MM0
0000
0MM0
0000
0MM0
3003
,
1MM1
0000
1MM1
0000
1MM1
0000
0M10
01M0
,
0000
1MM1
0000
1MM1
0000
1MM1
0000
0M10
,
01M0
0000
M11M
0000
M11M
0000
0M10
01M0
,
0000
M11M
0000
M11M
0000
M11M
0000
0M10
,
100M
0000
1MM1
0000
1MM1
0000
100M
M001
,
01M0
0000
M1M1
0000
M1M1
0000
01M0
0M10
,
100M
0000
1M1M
0000
1M1M
0000
2000
0002
,
0020
0000
0000
3033
,
1001
0000
0001
0100
0000
1000
0100
0001
,
0000
0001
0010
0000
0011
0000
0010
0100
,
1000
0001
0100
0000
0110
0000
0010
1000
,
1000
1000
0100
0000
0010
0000
0001
0010
,
0100
0010
0110
0000
0110
0000
0100
1000
,
0000
1000
0001
0000
0100
0010
1000
0001
,
0100
0000
0110
0000
0101
0000
0001
1000
,
0000
1000
0100
0000
0011
0000
1000
1000
,
0001
0000
1000
0010
0000
0001
0010
1000
,
0000
1000
0100
0000
1100
0000
0100
0010
,
0001
1000
0010
0000
0110
0000
0100
0001
,
0001
0001
0010
0000
0100
0000
1000
0100
,
0010
0100
0110
0000
0110
0000
0010
0001
,
0000
0001
1000
0000
0010
0100
0001
1000
,
0010
0000
0110
0000
1010
0000
2000
0002
,
0020
0000
0000
3033
,
1000
0001
0100
0000
0101
0000
0001
1000
,
0000
1100
0000
0011
0000
1001
0000
0001
,
0100
0000
0100
1000
0000
1000
0000
0001
,
0010
0000
0010
1000
0000
1000
0000
0100
,
0010
0001
0010
0100
1000
0010
0100
0001
,
0000
0101
0000
0110
0000
1010
0000
1000
,
0100
0000
0100
0001
0000
0001
0000
0100
,
0010
0000
0010
0001
0000
0001
0000
0010
,
0100
1000
0010
0100
0001
0100
1000
0100
,
0000
1100
0000
0101
0000
0101
0000
0001
,
1000
0000
1000
0100
0000
0100
0000
0001
,
1000
0000
1000
0010
0000
0010
0000
0001
,
1000
0010
0100
0000
0101
0000
0100
0010
,
0000
1001
0000
0101
0000
1001
0000
1000
,
0100
0001
0100
0010
0000
0010
0000
0002
,
0020
0000
0000
0000
0000
0000
0000
0033
,
2002
0000
0000
0000
,
0000
0000
0000
0000
,
3003
0000
0000
0000
;

//---------------dance-single - Renard----------------
#NOTES:
     dance-single:
     Renard:
     Medium:
     5:
     0.344,0.383,0.204,0.000,0.000:
0000
0000
0000
0000
,
0000
0000
0000
0000
,
0000
0000
0000
0000
,
0000
0000
0000
0000
,
1000
1000
0001
0001
,
1000
1000
0001
0001
,
1000
1000
0001
0001
,
1000
0000
1000
0000
0001
0010
0100
1000
,
0001
1000
0000
1000
0000
1000
0000
1000
,
0010
0100
0000
0100
0000
0100
0000
0100
,
0001
0010
0000
0010
0000
0010
0000
0010
,
0001
1000
0000
1000
0000
0100
0010
0001
,
1000
0001
0000
0001
0000
0001
0000
0001
,
0100
0001
0000
0001
0000
0001
0000
0001
,
0010
0100
0000
0100
0000
0100
0000
0100
,
1000
0100
0000
0100
0000
1000
0001
1000
,
0001
0000
0000
1000
0000
0000
0000
0000
,
0000
0000
0010
0100
0000
0001
0000
1000
,
0000
0000
0000
0000
,
0000
0000
0000
0000
,
0100
0000
0000
1000
0000
0000
0000
0000
,
0000
0000
0001
0100
0000
0001
0000
0010
,
0000
0000
0000
0000
0000
0000
0100
1000
,
0000
0000
0000
0000
,
0010
0000
0000
0100
0000
0000
0000
0000
,
0000
0000
0001
1000
0000
0010
0000
0100
,
0000
0000
0000
0000
,
0000
0000
0000
0000
,
0001
0000
0000
1000
0000
0000
0000
0000
,
0000
0000
0100
0010
0000
0001
0000
1000
,
0000
0000
0000
0000
0000
0000
0001
0100
,
0001
0000
0000
0000
,
1000
0000
1000
0000
0001
0000
1000
0001
,
0000
1000
0000
0001
0000
1000
0000
0001
,
0100
0000
0010
0000
0100
0000
0010
0100
,
0000
0010
0000
0100
0000
0010
0000
0100
,
0010
0000
1000
0000
0001
0000
1000
0001
,
0100
0000
0010
0000
0100
0000
0010
1000
,
0001
0000
1000
0000
0001
0000
1000
0001
,
0000
0000
0000
0000
,
1000
1001
0000
0110
,
0001
0110
0000
1001
,
1000
1100
0000
0011
,
0001
1001
0000
0110
,
0010
1010
0000
1001
,
1000
1100
0000
0011
,
0001
1001
0000
0110
,
0010
0000
1000
0000
0001
0100
0001
0000
,
1000
1100
0000
0011
,
0000
1001
0000
0110
,
0010
1010
0000
0101
,
1000
1100
0000
0011
,
0001
0000
1000
0000
0010
0100
0001
1000
,
0000
0001
1000
0000
0010
0000
0100
0001
,
1000
0000
0001
1000
0000
0100
0000
0010
,
0001
0000
0000
0000
,
1000
1000
0100
0100
,
1000
0000
0001
0000
0100
0000
0001
0010
,
0001
0000
0001
1000
0000
1000
0000
1000
,
0001
0000
0001
1000
0000
1000
0000
1000
,
0001
0100
0010
1000
,
0100
0000
0010
0000
0001
0000
1000
0001
,
0100
0000
0100
0001
0000
0001
0000
0001
,
1000
0000
1000
0100
0000
0100
0000
0100
,
1000
0001
0010
0100
,
1000
0000
0001
0000
0100
0000
0010
1000
,
0001
0000
0001
1000
0000
1000
0000
1000
,
0010
0000
0010
0100
0000
0100
0000
0100
,
0001
1000
0100
0010
,
0001
0000
1000
0000
0001
0000
0100
0010
,
1000
0000
1000
0001
0000
0001
0000
0100
,
0001
0000
0000
0000
,
1001
0000
0000
0000
;

//---------------dance-single - Renard----------------
#NOTES:
     dance-single:
     Renard:
     Easy:
     2:
     0.204,0.287,0.080,0.018,0.000: // measure 1
0000
0000
0000
0000
,  // measure 2
0000
0000
0000
0000
,  // measure 3
0000
0000
0000
0000
,  // measure 4
0000
0000
0000
0000
,  // measure 5
1000
0000
1000
0000
,  // measure 6
0001
0001
0001
0001
,  // measure 7
0100
0000
0100
0000
,  // measure 8
0001
0001
0001
0001
,  // measure 9
1000
0001
1000
0001
,  // measure 10
0100
0010
0100
0010
,  // measure 11
1000
0001
1000
0001
,  // measure 12
1000
0100
0010
0000
,  // measure 13
0001
1000
0001
1000
,  // measure 14
0010
0100
0010
0100
,  // measure 15
0001
1000
0001
1000
,  // measure 16
0001
1000
0100
0000
,  // measure 17
1000
0000
0001
0000
,  // measure 18
0000
0000
0100
0000
,  // measure 19
0010
0000
0000
0000
,  // measure 20
0000
0000
0000
0000
,  // measure 21
1000
0000
0001
0000
,  // measure 22
0000
0000
0100
0000
,  // measure 23
0010
0000
0000
0000
,  // measure 24
1000
0000
0000
0000
,  // measure 25
0100
0000
0010
0000
,  // measure 26
0001
0000
0000
0000
,  // measure 27
1000
0000
0100
0000
,  // measure 28
0010
0000
0000
0000
,  // measure 29
0100
0000
1000
0000
,  // measure 30
0001
0000
0000
0000
,  // measure 31
0100
0000
0002
0000
,  // measure 32
2000
0000
0000
3003
,  // measure 33
1001
0000
0000
0000
,  // measure 34
0000
0000
0000
0000
,  // measure 35
0110
0000
0000
0000
,  // measure 36
0000
0000
0000
0000
,  // measure 37
1001
0000
0000
0000
,  // measure 38
0110
0000
0000
0000
,  // measure 39
1001
0000
0000
0000
,  // measure 40
0110
0000
0000
0000
,  // measure 41
0010
0010
1000
0000
,  // measure 42
0001
0001
0100
0000
,  // measure 43
0001
0000
1000
0000
,  // measure 44
0100
0000
0010
0000
,  // measure 45
0001
1000
0001
0000
,  // measure 46
0100
0010
0100
0000
,  // measure 47
0010
0010
0010
0000
,  // measure 48
0100
0100
0100
0000
,  // measure 49
0001
0000
0001
0000
,  // measure 50
1000
0000
1000
0000
,  // measure 51
0100
0000
0100
0000
,  // measure 52
1000
0000
1000
0000
,  // measure 53
0001
0000
0001
0000
,  // measure 54
0010
0000
0010
0000
,  // measure 55
0001
0000
1000
0000
,  // measure 56
1001
0000
0000
0000
,  // measure 57
0001
0000
0100
0000
,  // measure 58
0010
1000
0010
1000
,  // measure 59
0100
0000
0010
0000
,  // measure 60
0001
1000
0001
1000
,  // measure 61
0001
0000
0100
0000
,  // measure 62
0010
0100
0010
0100
,  // measure 63
0010
0000
1000
0000
,  // measure 64
0001
0000
0001
0000
,  // measure 65
1000
0000
0100
0000
,  // measure 66
0010
0001
1000
0001
,  // measure 67
0100
0000
0100
0000
,  // measure 68
0010
1000
0001
0100
,  // measure 69
0001
0000
0001
0000
,  // measure 70
1000
0100
0010
0001
,  // measure 71
1000
0000
0001
0000
,  // measure 72
0110
0000
0000
0000
,  // measure 73
1001
0000
0000
0000
;
