#TITLE:Bang Like a Mother;
#SUBTITLE:;
#ARTIST:Sharkey;
#TITLETRANSLIT:;
#SUBTITLETRANSLIT:;
#ARTISTTRANSLIT:;
#CREDIT:;
#BANNER:;
#BACKGROUND:;
#LYRICSPATH:;
#CDTITLE:;
#MUSIC:mother.ogg;
#OFFSET:0.000;
#SAMPLESTART:21.286;
#SAMPLELENGTH:12.000;
#SELECTABLE:YES;
#BPMS:0.000=179.895;
#STOPS:;
#BGCHANGES:;

//---------------dance-single - Renard----------------
#NOTES:
     dance-single:
     Renard:
     Challenge:
     11:
     0.925,1.000,0.266,0.188,0.651:
0000
0000
0000
0000
,
0000
0000
0000
0000
,
0000
0000
0000
0000
,
0000
0000
0000
0000
,
1000
0100
1000
0001
1000
0010
1000
0100
,
1000
0001
1000
0010
1000
0010
1000
0010
,
0100
0001
0100
0010
0100
1000
0100
0010
,
0100
0001
0010
0001
0010
0100
0010
0100
,
1000
0001
0101
0001
1000
0100
0110
0010
,
0001
1000
1010
0010
0100
0001
0011
0010
,
0100
1000
1001
1000
0010
0100
0110
0100
,
0001
0010
0011
0010
0100
1000
1100
1000
,
0001
0100
0101
0100
0010
1000
1010
1000
,
0100
0010
0110
0010
0001
1000
1001
0001
,
0100
0010
1000
0100
0010
0001
0010
0100
,
1000
0010
0010
0010
0010
0010
0010
0010
,
1000
0000
0000
1000
0100
0000
0000
0100
0010
0000
0000
0010
0001
0000
0000
0001
,
1000
0000
0000
1000
0010
0000
0000
0010
0100
0000
0001
0000
0010
0000
0100
0000
,
1000
0000
0000
1000
0001
0000
0000
0001
0100
0000
0000
0100
0010
0000
0000
0010
,
1000
0000
0100
1000
0100
0000
1000
0000
0001
0000
0010
0000
0100
0000
1000
0000
,
0001
0000
0000
0001
0100
0000
0000
0100
0010
0000
1000
0000
0100
0000
0010
0000
,
0001
0000
1000
0001
1000
0000
0001
0000
0100
0000
0010
0100
0010
0000
0100
0000
,
0010
0000
0000
1000
0100
0000
0010
0000
0001
0000
0000
0010
0100
0000
1000
0000
,
0001
0000
0100
0010
0100
0000
0010
0000
1000
0000
0000
0000
1000
0000
0000
0000
,
0100
0000
0000
0010
0001
0000
0010
0000
0100
0000
1000
0000
0001
0000
0010
0000
,
0100
0000
0000
1000
0010
0000
0100
0000
0001
0000
0100
0010
0100
0000
0010
0000
,
1000
0000
0000
0100
0010
0000
0001
0000
0010
0000
0000
0100
1000
0000
0001
0000
,
0010
0000
0100
1000
0100
0000
1000
0000
0001
0000
0010
0001
0010
0000
0001
0000
,
1000
0000
0000
1000
0010
0000
0100
0000
0001
0000
0000
0100
0010
0000
1000
0000
,
0100
0000
0000
0010
0001
0000
0010
0000
0100
0000
1000
0001
1000
0000
0001
0000
,
0100
0010
1000
0100
0010
0001
0010
0100
,
1000
1000
0001
0001
0100
0100
0100
0100
,
0020
0000
0000
1030
0000
1100
0000
0010
,
0001
1001
0101
0110
,
0020
0000
0000
1030
0000
1100
0000
1000
,
0001
0000
0101
0000
0011
0000
0001
0010
,
0200
0000
0000
0310
0000
0011
0000
0010
,
0100
0000
1100
0000
1001
0000
0001
0100
,
0010
0000
0010
1000
0000
1000
0100
0000
,
0011
0000
0110
0000
1100
0000
2000
0002
,
0010
0000
0000
0000
0000
0000
0000
3003
,
1000
0100
0000
0010
0001
0000
1000
0100
0000
0010
0001
0000
1000
0001
1000
0001
,
0100
0001
0000
1000
0010
0000
0100
0001
0000
1000
0010
0000
1000
0001
1000
0001
,
0010
0100
0000
1000
0001
0000
0010
0100
0000
1000
0001
0000
1000
0001
1000
0001
,
0100
0010
0000
1000
0001
0000
1000
0100
0000
0010
0001
0000
1000
0010
1000
0010
,
0100
0001
0000
1000
0100
0000
0010
0001
0000
1000
0010
0000
0100
0001
0100
0001
,
0010
0100
0000
1000
0001
0000
0010
0001
0000
1000
0100
0000
1000
0001
1000
0001
,
0100
0001
0000
1000
0010
0000
0100
0001
0000
1000
0100
0000
0010
0001
0010
0001
,
1000
0100
0000
1000
0001
0000
0010
0001
0000
1000
0100
0000
1000
0001
1000
0001
,
1000
0000
0001
1000
0001
0000
0100
0010
0100
0000
0010
1000
0010
0000
1000
0001
,
1000
0100
0010
0001
0010
0100
1000
0001
,
0100
0000
0010
0100
0010
0000
1000
0010
1000
0000
0001
1000
0001
0000
1000
0100
,
1000
0001
0010
0100
1000
0001
0100
0010
,
1000
0000
0100
1000
0100
0000
1000
0001
1000
0000
0001
0100
0001
0000
0100
0010
,
0100
0010
1000
0100
0010
0001
0010
0100
,
1000
0000
0001
1000
0001
0000
0100
0001
0100
0000
0010
0100
0010
0000
1000
0010
,
1000
0001
1000
0100
0010
0001
0010
0100
,
1000
0100
0001
0100
0010
0001
0010
1000
,
0010
0100
0010
0100
0001
0100
1000
0010
,
0001
0010
0100
1000
0100
0001
0010
0001
,
1000
0100
1000
0010
1000
0001
1000
0100
,
1000
0100
0001
0100
0010
0001
0010
1000
,
0010
0100
1000
0010
0001
0010
0100
1000
,
0100
0001
0100
0001
0100
0010
0100
0010
,
1000
0010
1000
0010
1000
1000
1000
1000
,
0001
0010
0002
0000
1003
0100
0010
0001
1000
0100
2000
0000
3001
0010
0100
1000
,
0001
0010
0002
0000
1003
0100
0010
0001
1000
0100
2000
0000
3001
0010
0100
0000
,
1000
0010
2000
0000
3001
0100
0010
1000
0001
0100
0002
0000
1003
0010
0100
0001
,
1000
0010
2000
0000
3001
0100
0010
1000
0001
0100
0002
0000
1003
0010
1000
0000
,
0001
1000
0002
0000
0103
0010
0100
0010
1000
0001
2000
0000
3010
0100
0010
0100
,
0001
1000
0002
0000
0103
0010
0100
0010
1000
0001
2000
0000
3010
0100
0010
0100
,
0010
0100
0020
0000
1030
0001
1000
0001
0100
0010
0200
0000
0301
1000
0001
0000
,
1000
0010
0101
0000
0010
1000
0100
0010
,
1100
0000
0000
0000
;

//---------------dance-single - Renard----------------
#NOTES:
     dance-single:
     Renard:
     Hard:
     9:
     0.684,0.648,0.533,0.000,0.118:
0000
0000
0000
0000
,
0000
0000
0000
0000
,
0000
0000
0000
0000
,
0000
0000
0000
0000
,
1000
0100
0000
0010
0000
0001
0000
1000
,
0001
0100
0000
0010
0000
1000
0000
0100
,
0010
0001
0000
1000
0000
0001
0000
0100
,
0000
0001
0000
0010
0001
1000
0010
1000
,
0010
0000
1000
0010
0000
0000
0100
0001
0000
0000
0010
0001
0000
0000
1000
0100
,
0000
0000
0010
0001
0000
0000
1000
0010
0000
0000
0100
0001
0000
0000
0100
0001
,
0100
0000
0010
1000
0000
0000
0001
0100
0000
0000
0010
1000
0000
0000
0001
0010
,
0000
0000
0100
1000
0000
0000
0001
0010
0000
0000
0001
1000
0000
0000
0001
1000
,
0001
0000
0100
0001
0000
0000
0100
0001
0000
0000
0100
0010
0000
0000
0100
0010
,
0000
0000
1000
0010
0000
0000
1000
0010
0000
0000
1000
0100
0000
0000
0010
0001
,
1000
0100
0010
0001
0010
0100
1000
0001
,
0100
0010
1000
0100
0010
0010
0010
0010
,
0001
0010
0000
0110
0000
1100
0000
1000
,
0010
0100
0000
0101
0000
0110
0000
0010
,
1000
0100
0000
0011
0000
0110
0000
0100
,
0010
0001
0010
0001
1000
0010
0100
0001
,
1000
0010
0000
1001
0000
1100
0000
1000
,
0100
0010
0000
0011
0000
0110
0000
0100
,
1000
0010
0100
0001
0000
0110
0000
0101
,
0000
0001
1000
0100
0010
0001
1000
0001
,
0100
0010
0000
0110
0000
1001
0000
1000
,
0100
0010
0001
0010
0100
1000
0001
0100
,
0010
1000
0000
1010
0000
1001
0000
1000
,
0100
0010
0000
0011
0000
1001
0000
0001
,
0100
0010
1000
0100
0010
0001
0000
0011
,
0000
0110
0000
1100
0000
1100
0000
1000
,
0001
0100
0000
0110
0000
1001
0000
0110
,
0000
1000
0010
0100
0001
0010
0100
1000
,
0001
0000
0001
0100
0000
0100
0010
1000
,
0100
0110
1001
0110
,
0001
0000
0001
0010
0000
0010
0100
1000
,
0010
0101
1010
1001
,
1000
0100
0010
0001
0000
0001
0010
0100
,
1000
1001
0110
1001
,
1000
0100
1000
0001
0000
0001
0010
0000
,
0001
1000
0010
0000
0101
0000
1010
0000
,
1011
0000
0000
0000
,
1000
0000
0101
0000
0010
1000
0100
0000
,
0010
0000
0011
0000
0010
0100
1000
0000
,
0001
0000
0110
0000
0010
1000
0100
0000
,
0010
0000
0011
0000
0010
0100
1000
0000
,
0001
0000
0110
0000
0010
1000
0100
0000
,
1000
0000
0011
0000
0100
1000
0010
0000
,
0100
0000
1001
0000
1000
0100
0010
0000
,
0001
0010
0100
0000
1000
0001
0100
0000
,
0010
0000
0010
1000
0010
1000
0010
1000
,
0001
1000
0001
1000
0100
1000
0100
1000
,
0001
0010
0001
0010
0100
0010
0100
0010
,
0100
1000
0010
0001
0010
0100
0001
1000
,
0100
0000
0100
0010
0001
0010
0100
1000
,
0100
0001
0100
1000
0010
0100
0001
0010
,
0100
1000
0100
1000
0001
0010
0001
0010
,
0001
0100
0001
0100
0010
0100
1000
0100
,
0010
0000
0100
0001
0100
0010
1000
0100
,
0010
0000
0010
0100
1000
0001
0100
0010
,
1000
0000
1000
0001
0100
0001
1000
0100
,
0010
0000
0010
0100
1000
0001
0010
0100
,
1000
0000
1000
0001
0100
0000
0100
0001
,
0010
0000
0010
0100
1000
0000
1000
0010
,
0100
0100
0001
0010
0100
0100
1000
0010
,
0100
0100
0001
0010
0100
0100
0100
0100
,
1001
0000
0100
0010
1000
0000
0001
0100
,
0010
0000
1001
0000
1000
0100
0010
0000
,
1001
0000
0100
0010
1000
0100
0010
0001
,
0010
0000
0110
0000
0100
1000
0010
0100
,
0001
0000
0101
0000
1001
0000
1000
0100
,
0010
0000
0011
0000
0010
0100
1000
0001
,
0100
0000
0110
0000
0010
1000
0100
0010
,
0001
0000
0011
0000
0010
0100
1000
0001
,
0110
0000
0000
0000
;

//---------------dance-single - Renard----------------
#NOTES:
     dance-single:
     Renard:
     Medium:
     6:
     0.388,0.432,0.010,0.000,0.000:
0000
0000
0000
0000
,
0000
0000
0000
0000
,
0000
0000
0000
0000
,
0000
0000
0000
0000
,
0000
0000
0000
0000
,
0000
0000
0000
0000
,
0000
0000
0000
0000
,
0000
0000
0000
0000
,
1000
0000
0001
0000
0000
0100
0010
0000
,
1000
0000
0001
0000
0000
0100
0010
0000
,
1000
0000
0001
0000
0000
0100
0010
0000
,
1000
0001
0100
0001
,
1000
0100
0010
0001
,
1000
0100
0010
0001
,
1000
0010
0100
0001
,
1000
0000
0001
0000
1000
0001
1000
0001
,
1000
0001
1000
0001
,
0100
0000
0010
0000
0100
0010
0100
0000
,
0010
1000
0010
1000
,
0001
0000
0100
0000
0001
0100
0001
0000
,
0010
0000
0001
0000
0010
0001
0010
0000
,
0100
0000
1000
0000
0100
1000
0100
0000
,
1000
0000
0001
1000
0001
1000
0001
0000
,
0100
0000
0010
0100
0010
0000
0100
0000
,
0010
0000
1000
0000
0001
1000
0001
0000
,
0100
0000
0001
0000
0010
0100
0010
0000
,
0100
0000
1000
0000
0001
0100
0001
0000
,
1000
0010
1000
0000
0001
1000
0001
0000
,
1000
0000
0100
0000
0010
0001
0010
0000
,
0100
0000
1000
0000
0001
0100
0001
0000
,
1000
0010
1000
0000
0001
1000
0001
0000
,
1000
0100
0010
0001
,
1000
0000
0000
0001
0000
0100
0000
0010
,
1000
0001
0100
0010
,
1000
0000
0000
0100
0000
0010
0000
0001
,
1000
0000
0001
0000
0100
0000
0001
1000
,
0001
0000
0000
0100
0000
0010
0000
1000
,
0100
1000
0001
0010
,
0001
0000
0000
1000
0000
0001
0000
0100
,
0010
0000
1000
0000
0001
0000
0100
0001
,
1000
0000
0000
0000
,
0001
0001
1000
1000
,
0001
0001
1000
1000
,
0010
0000
0010
0000
,
0010
0000
0010
0000
,
1000
1000
0001
0001
,
1000
1000
0001
0001
,
0100
0000
0100
0000
,
0100
0000
0100
0000
,
0010
0000
0010
0000
0010
1000
0010
1000
,
0001
0000
0001
0000
,
0100
0000
0100
0000
0001
0010
0001
0010
,
0100
0000
0100
0000
,
1000
0000
1000
0000
,
0010
1000
0010
1000
0010
0000
1000
0000
,
0001
0100
0001
0000
0100
0000
0001
0000
,
0010
0001
0010
0000
0100
0000
1000
0000
,
0001
0001
1000
1000
,
0010
0100
0010
0100
0010
0000
0100
0000
,
0001
1000
0001
1000
,
0010
0100
0010
0100
0010
0000
0100
0000
,
0001
1000
0001
1000
,
0010
0100
0001
1000
,
0001
0000
1000
0000
,
0001
0000
0000
0000
1000
0001
1000
0001
,
1000
1000
0001
0001
,
0100
0100
0000
0100
,
0010
1000
0000
0100
,
0010
0000
0001
0000
1000
0001
1000
0000
,
0001
0000
0100
0000
,
0001
1000
0100
1000
,
0001
0000
0010
0000
0001
1000
0001
0000
,
1000
0000
0001
0000
0100
0010
0100
0000
,
1001
0000
0000
0000
;

//---------------dance-single - Renard----------------
#NOTES:
     dance-single:
     Renard:
     Easy:
     3:
     0.320,0.396,0.089,0.099,0.000: // measure 1
0000
0000
0000
0000
,  // measure 2
0000
0000
0000
0000
,  // measure 3
0000
0000
0000
0000
,  // measure 4
0000
0000
0000
0000
,  // measure 5
0000
0000
0000
0000
,  // measure 6
0000
0000
0000
0000
,  // measure 7
0000
0000
0000
0000
,  // measure 8
0000
0000
0000
0000
,  // measure 9
1000
0000
0001
0100
,  // measure 10
0001
0000
1000
0100
,  // measure 11
1000
0000
0001
0000
,  // measure 12
0010
0000
0100
0000
,  // measure 13
1000
0000
0001
0010
,  // measure 14
0001
0000
1000
0000
,  // measure 15
0010
0000
1000
0000
,  // measure 16
0001
0001
0001
0001
,  // measure 17
0100
0100
0100
0100
,  // measure 18
0100
0100
0100
0100
,  // measure 19
0010
0010
0100
0100
,  // measure 20
0010
0010
0100
0100
,  // measure 21
0001
0001
0001
0001
,  // measure 22
0001
0001
0001
0001
,  // measure 23
1000
0001
1000
0001
,  // measure 24
2000
0002
0000
3003
,  // measure 25
1000
0001
1000
0001
,  // measure 26
1000
0001
1000
0001
,  // measure 27
0100
0100
0100
0100
,  // measure 28
0100
0100
0100
0000
,  // measure 29
0001
1000
0001
1000
,  // measure 30
0001
1000
0001
1000
,  // measure 31
0001
1000
0001
1000
,  // measure 32
0001
0010
0010
0010
,  // measure 33
0001
0000
1000
0000
,  // measure 34
0001
0000
1000
0000
,  // measure 35
0010
0000
0100
0000
,  // measure 36
0010
0100
0010
0100
,  // measure 37
0001
0000
1000
0000
,  // measure 38
0001
0000
1000
0000
,  // measure 39
0001
0000
1000
0000
,  // measure 40
0001
0100
0010
2000
,  // measure 41
0002
0000
0000
3003
,  // measure 42
1000
0000
1000
0000
,  // measure 43
0001
1000
0001
1000
,  // measure 44
0001
0000
0001
0000
,  // measure 45
1000
0001
1000
0000
,  // measure 46
0010
0000
0010
0000
,  // measure 47
0100
0010
0100
0010
,  // measure 48
0100
0000
0100
0000
,  // measure 49
0010
0000
0010
0000
,  // measure 50
2000
0000
0001
0001
,  // measure 51
0001
0001
0001
0001
,  // measure 52
0001
0001
0001
0001
,  // measure 53
0001
0001
0001
3001
,  // measure 54
0002
0000
1000
1000
,  // measure 55
1000
1000
1000
1000
,  // measure 56
1000
1000
1000
1000
,  // measure 57
1000
1000
1000
1003
,  // measure 58
0200
0000
0010
0000
,  // measure 59
0010
0010
0010
0300
,  // measure 60
0020
0000
0100
0000
,  // measure 61
0100
0100
0100
0030
,  // measure 62
2000
0000
0001
0000
,  // measure 63
0001
0001
0001
3000
,  // measure 64
0002
0000
1000
0000
,  // measure 65
1000
1000
1000
1003
,  // measure 66
1000
1000
1000
1000
,  // measure 67
1000
1000
1001
1001
,  // measure 68
0001
0001
0001
0001
,  // measure 69
0001
0001
1001
1001
,  // measure 70
0100
0100
0100
0100
,  // measure 71
0100
0100
0110
0110
,  // measure 72
0010
0010
0010
0010
,  // measure 73
0010
0010
0110
0110
,  // measure 74
0110
0000
0000
0000
;
