#TITLE:Bagpipe;
#SUBTITLE:;
#ARTIST:A.Moe;
#TITLETRANSLIT:;
#SUBTITLETRANSLIT:;
#ARTISTTRANSLIT:;
#CREDIT:;
#BANNER:bagpipe.png;
#BACKGROUND:bagpipe-bg.png;
#LYRICSPATH:;
#CDTITLE:;
#MUSIC:bagpipe.ogg;
#OFFSET:0.000;
#SAMPLESTART:49.714;
#SAMPLELENGTH:12.000;
#SELECTABLE:YES;
#BPMS:0.000=140.000;
#STOPS:;
#BGCHANGES:;

//---------------dance-single - Renard----------------
#NOTES:
     dance-single:
     Renard:
     Challenge:
     9:
     0.673,0.724,0.720,0.237,0.374:
0000
0000
0000
0000
,
0000
0000
0000
0000
,
0000
0000
0000
0000
,
0000
0000
0000
0000
,
0002
0000
0000
0000
,
0203
0000
0000
0000
,
0320
0000
0000
0000
,
2030
0000
0000
0000
,
3200
0000
2300
0000
,
3020
0000
0230
0000
,
0302
0023
0230
2300
,
3020
0000
0230
0000
0301
0100
0010
1000
,
1001
1001
0000
0000
0000
0000
0000
0000
,
1000
0101
1010
1001
1100
1001
0000
1001
,
1100
0011
1001
0101
0000
0001
0100
0010
,
1000
1100
1001
1010
1100
0011
0000
0011
,
0101
1001
0011
0101
0000
0001
0100
0010
,
1000
1100
1010
1001
1100
1010
0000
1001
,
0101
0011
1001
0101
0000
0001
0100
0010
,
1000
1100
1010
1001
1100
1010
0000
1010
,
1100
0000
1001
0000
1010
0000
1100
0000
0000
0000
1100
0000
1001
0000
0000
0001
,
1000
0001
1000
0000
0001
0100
0001
0000
0100
0010
0100
0000
0010
1000
0010
0000
,
1000
0100
1000
0000
0001
0010
0001
0000
0100
0001
0100
0000
0010
0100
0010
0000
,
1000
0010
1000
0000
0100
1000
0100
0000
1000
0001
1000
0000
0001
0100
0001
0000
,
0100
0010
0100
0000
0010
1000
0010
0000
1000
0000
0100
0000
0010
0000
0001
0000
,
0010
0100
0010
0000
0100
1000
0100
0000
1000
0001
1000
0000
0001
1000
0001
0000
,
0100
0000
0010
0000
1000
0000
0010
1000
0010
0000
1000
0001
0100
0000
0001
0000
,
1000
0000
0100
1000
0100
0000
1000
0001
0010
0000
0001
1000
0001
0000
0100
0001
,
0101
0000
0000
0000
1001
0000
1100
0000
0000
0000
1001
0000
1001
0000
0000
0001
,
0100
0000
0000
0000
0010
0000
1000
0010
1000
0000
0100
1000
0100
0000
0000
0000
,
0010
0000
0000
0000
0001
0000
0001
0100
0010
0000
1000
0010
1000
0000
0000
0000
,
0100
0000
0000
0000
0010
0000
0001
0010
0001
0000
0010
0100
0010
0000
0100
0000
,
1000
0000
0000
0000
0010
0000
0010
0100
0010
0000
0100
0001
0100
0000
0001
0000
,
1000
0000
0000
1000
0100
0000
1000
0010
1000
0000
0010
0100
0010
0000
0100
0000
,
0001
0000
0000
0001
1000
0000
0100
1000
0100
0000
1000
0001
1000
0000
0001
0100
,
0001
0000
0000
1000
0010
0000
1000
0001
1000
0000
0100
1000
0001
0000
0010
0001
,
0010
0000
0000
0010
0100
0000
1000
0000
0010
0000
0100
0000
0101
0000
0000
0000
,
0101
0000
0000
0000
0010
0000
1000
0100
1000
0000
0100
0010
0001
0000
0000
0000
,
0011
0000
0000
0000
0010
0000
0100
1000
0001
0000
0100
0010
1000
0000
0000
0000
,
1010
0000
0000
0000
1000
0000
0010
0100
0001
0000
1000
0100
1000
0000
0000
0000
,
1100
0000
0000
0000
0010
0000
0100
0001
0100
0000
0010
1000
0010
0000
0000
0000
,
1100
0000
0000
0000
0001
0000
0010
0100
1000
0000
0001
0100
0001
0000
0000
0000
,
0101
0000
0000
0000
0110
0000
0010
1000
0100
0000
0010
0001
0010
0000
0000
0000
,
0110
0000
0000
0000
1100
0000
0001
0010
0100
0000
1000
0001
0100
0000
0000
0000
,
1010
0000
0000
0000
0101
0000
0001
0100
0010
0000
1000
0100
1000
0000
0000
0000
,
1000
0000
0000
2000
0001
0000
0100
0000
0010
0000
3000
0000
1010
0000
0000
0000
,
0001
0000
0000
0002
1000
0000
0100
0000
0010
0000
0003
0000
0011
0000
0000
0000
,
0010
0000
0000
0010
0200
0000
0001
0000
1000
0000
0300
0000
1100
0000
0000
0000
,
1000
0000
0000
0200
0001
0000
0010
0000
1000
0000
0300
0000
0110
0000
0000
0000
,
0010
0000
0000
2000
0100
0000
0010
0000
0001
0000
3000
0000
1001
0000
0000
0000
,
0001
0000
0000
0002
1000
0000
0100
0000
0010
0000
0003
0000
0011
0000
0000
0000
,
0001
0000
0010
0100
0010
0000
0100
0000
1000
0000
0010
1000
0010
0000
0100
0000
,
0001
0000
0100
0001
0100
0000
0001
0010
0100
0000
1000
0000
1001
0000
0000
0000
,
0001
0000
0000
0002
1000
0000
0010
0000
0100
0000
0003
0000
0101
0000
0000
0000
,
1000
0000
0000
2000
0001
0000
0010
0000
0100
0000
3000
0000
1100
0000
0000
0000
,
0100
0000
0000
0100
0020
0000
1000
0000
0001
0000
0030
0000
0011
0000
0000
0000
,
0001
0000
0000
0020
1000
0000
0100
0000
0001
0000
0030
0000
0110
0000
0000
0000
,
0100
0000
0000
0002
0010
0000
0100
0000
1000
0000
0003
0000
1001
0000
0000
0000
,
1000
0000
0000
2000
0001
0000
0010
0000
0100
0000
3000
0000
1100
0000
0000
0000
,
1000
0000
0100
0010
0100
0000
0010
0000
0001
0000
0100
0001
0100
0000
0010
0000
,
1000
0000
0010
1000
0010
0000
1000
0100
0010
0000
0011
0000
0101
0000
1001
0000
,
0011
0101
0000
0000
0000
0000
0000
0000
;

//---------------dance-single - Renard----------------
#NOTES:
     dance-single:
     Renard:
     Hard:
     9:
     0.548,0.529,0.128,0.000,0.237:
0000
0000
0000
0000
,
0000
0000
0000
0000
,
0000
0000
0000
0000
,
0000
0000
0000
0000
,
1000
0000
1000
0000
1000
0000
1000
0001
,
0100
0000
0100
0000
0100
0000
0100
0001
,
0010
0000
0010
0000
0010
0000
0001
0010
,
0100
0000
0100
0000
0100
0000
0100
1000
,
0010
0000
0010
0100
0001
0000
0001
0010
,
0100
0000
0100
1000
0010
0100
0001
0010
,
0001
0000
0001
1000
0010
0000
0010
0100
,
0001
0010
0100
1000
0001
0100
0010
0100
,
0110
0000
0000
0000
,
0010
0000
1000
0001
1000
0000
0001
0000
0100
0000
0010
0000
0000
0000
1000
0001
,
1000
0001
0100
0010
0000
0010
0000
0010
,
0000
0000
1000
0100
1000
0000
0001
0000
0010
0000
0001
0000
0000
0000
1000
0001
,
1000
0001
0100
0010
0000
0010
0000
0010
,
0000
0000
1000
0100
1000
0000
0001
0000
0010
0000
0100
0000
0000
0000
1000
0001
,
1000
0001
0100
0010
0000
0010
0000
0010
,
0000
0000
1000
0001
1000
0000
0001
0000
0100
0000
0010
0000
0000
0000
1000
0100
,
1000
0001
0010
0100
1000
0001
0100
0010
,
1000
0001
0100
0010
1000
0100
0000
1000
,
0100
0010
0001
1000
0000
1001
0000
0110
,
0000
0010
1000
0001
0100
0010
0000
1000
,
0100
0010
0001
1000
0000
1001
0000
0110
,
0000
0010
0100
0001
0010
0100
0000
0100
,
1000
0010
0100
0001
0000
0101
0000
1010
,
0000
1000
0100
0010
0001
0010
0000
0010
,
0100
1000
0001
0100
0000
1010
0000
0101
,
0001
0000
1000
0000
0100
0000
0010
0001
0010
0000
0001
0010
0001
0000
0000
0000
,
0010
0000
0100
0000
1000
0000
0001
1000
0001
0000
1000
0001
1000
0000
0000
0000
,
0001
0000
0100
0000
0010
0000
1000
0001
1000
0000
0001
1000
0001
0000
0000
0000
,
1000
0000
0010
0000
0100
0000
0001
1000
0001
0000
1000
0001
1000
0000
0000
0000
,
0010
0000
0100
0000
0001
0000
0010
0001
0010
0000
0001
0010
0001
0000
0000
0000
,
0010
0000
0100
0000
1000
0000
0001
1000
0001
0000
1000
0001
1000
0000
0000
0000
,
1000
0000
0100
0000
0010
0000
0001
1000
0001
0000
1000
0001
1000
0000
0000
0000
,
0001
0100
0010
1000
0001
0100
0010
0000
,
0010
0000
0000
0010
1000
0000
0000
1000
0100
0000
0000
0100
0010
0000
0000
0010
,
0001
0000
0000
0001
0010
0000
0000
0010
0100
0000
1000
0000
0001
0000
0100
0000
,
0010
0000
0000
0010
1000
0000
0000
1000
0001
0000
0000
0001
0100
0000
0000
0100
,
0010
0000
0000
0010
1000
0000
0000
1000
0100
0000
0010
0000
0001
0000
0010
0000
,
0100
0000
0000
0100
1000
0000
0000
1000
0010
0000
0000
0010
0100
0000
0000
0100
,
0001
0000
0000
0001
1000
0000
0000
1000
0100
0000
0010
0000
0001
0000
0010
0000
,
0100
0000
0000
0100
1000
0000
0000
1000
0001
0000
0000
0001
0100
0000
0000
0100
,
0010
1000
0100
0010
0001
0010
0010
0010
,
0100
0000
1000
0000
0010
0000
0100
0000
0001
0000
0100
0001
0100
0000
0000
0000
,
0001
0100
0010
1000
0001
0000
1001
0000
,
1000
0000
0100
0000
0010
0000
0001
0000
1000
0000
0100
1000
0100
0000
1000
0000
,
0001
0100
0010
1000
0001
0000
1001
0000
,
0001
0100
0010
0000
0010
1000
0100
0000
,
0100
1000
0100
0010
0001
1000
0001
0000
,
0001
0100
0010
0000
0010
1000
0100
0000
,
0100
0010
0001
1000
0100
0000
1100
0000
,
1000
0000
0001
0100
0001
0000
0100
0000
0010
0000
1000
0000
0100
0000
0010
0000
,
0001
0000
1000
0100
1000
0000
0001
0000
1000
0000
0000
0000
1001
0000
0000
0000
,
0001
0000
0100
0010
0100
0000
0010
0000
1000
0000
0100
0000
0010
0000
0001
0000
,
1000
0000
0001
0100
0001
0000
0100
0000
0010
0000
0000
0000
0110
0000
0000
0000
,
0010
1000
0100
0000
0100
1000
0001
0000
,
0001
1000
0100
0000
0100
1000
0010
0000
,
0010
0000
0100
0000
0001
0000
0010
0000
0100
0000
1000
0001
0100
0000
0000
0000
,
0001
0000
0100
0000
0010
0000
1000
0000
0001
0000
0100
0001
0100
0000
0001
0000
,
1000
0001
0000
0000
0000
0000
0000
0000
;

//---------------dance-single - Renard----------------
#NOTES:
     dance-single:
     Renard:
     Medium:
     5:
     0.335,0.362,0.082,0.109,0.000:
0000
0000
0000
0000
,
0000
0000
0000
0000
,
0000
0000
0000
0000
,
0000
0000
0000
0000
,
1000
0000
1000
0000
,
0001
0000
0001
0100
,
0001
0000
0000
0000
0001
0000
0010
0100
,
1000
0000
1000
0000
,
0001
0000
0000
0000
0000
0000
0100
0010
,
0100
0000
0000
0000
0010
0000
1000
0010
,
1000
0000
1000
0000
,
0001
0000
0001
0000
0100
0001
0100
0001
,
1000
0001
0000
0000
0000
0000
0000
0000
,
1000
0100
1000
0100
1000
0100
0000
1000
,
0001
1000
0001
1000
0000
0000
0000
0000
,
0000
0001
0100
0001
0100
0001
0000
0010
,
0001
0010
0001
0010
0000
0000
0000
0000
,
0000
0100
1000
0100
1000
0100
0000
1000
,
0010
1000
0010
1000
0000
0000
0000
0000
,
0000
0001
0100
0001
0100
0001
0000
0010
,
0001
0010
0001
0010
0000
0010
0000
0010
,
0000
0100
1000
0100
1000
0100
0000
1000
,
0001
1000
0001
1000
0000
0000
0000
0000
,
0000
0001
0100
0001
0100
0001
0000
1000
,
0001
1000
0001
1000
0000
0000
0000
0000
,
0000
0010
0100
0010
0100
0010
0000
1000
,
0001
1000
0001
1000
0000
0000
0000
0000
,
0000
1000
0100
1000
0100
1000
0000
0001
,
0010
0001
0010
0001
0000
0000
0000
0000
,
1000
1001
0000
1001
,
0001
1001
0000
1001
,
0010
0110
0000
0110
,
0100
0110
0000
0110
,
0010
1000
0010
0000
1000
0000
0001
0000
,
0100
0001
0100
0000
0001
0000
0010
0000
,
0100
1000
0100
0000
1000
0000
0001
0000
,
0010
0001
0010
0000
0001
1000
0001
0000
,
1000
1000
0001
0001
,
1000
0000
1000
0000
0001
1000
0001
1000
,
0010
0010
0100
0100
,
0010
0000
0010
0000
0100
0010
0100
0010
,
1000
0000
1000
0000
0010
1000
0010
0000
,
0100
0000
0100
0000
0001
0100
0001
0000
,
0001
0000
0001
0000
0010
0001
0010
0000
,
0100
1000
0100
0000
1000
0000
0001
0000
,
0200
0000
0000
0000
0001
0000
0001
0300
,
0002
0000
0000
0000
0013
0000
0100
1000
,
0001
0000
0100
0000
0001
0000
1000
0100
,
1000
0001
0100
0010
,
2000
0000
0000
0000
0100
0000
3100
0020
,
0002
0000
0000
0000
0003
0000
0200
0030
,
2000
0000
0000
0000
,
0000
0000
0000
3300
,
1000
0000
0010
0000
0100
0000
0001
1000
,
0002
0000
0200
0003
,
0020
0000
0000
0000
0300
0000
2030
0002
,
0000
0000
0000
3003
,
0010
0000
1000
0001
0100
0000
0001
0000
,
1001
0000
0000
0000
1000
0000
0100
0010
,
0001
0000
1000
0001
,
0100
0000
0000
0000
0010
1000
0001
0100
,
0010
1000
0000
0000
0000
0000
0000
0000
;

//---------------dance-single - Renard----------------
#NOTES:
     dance-single:
     Renard:
     Easy:
     2:
     0.197,0.222,0.055,0.228,0.000: // measure 1
0000
0000
0000
0000
,  // measure 2
0000
0000
0000
0000
,  // measure 3
0000
0000
0000
0000
,  // measure 4
0000
0000
0000
0000
,  // measure 5
2002
0000
0000
3000
,  // measure 6
0200
0000
0000
0003
,  // measure 7
0020
0000
0000
0300
,  // measure 8
2000
0000
0000
0030
,  // measure 9
0200
0000
0000
3000
,  // measure 10
0020
0000
0000
0300
,  // measure 11
0002
0000
0000
0030
,  // measure 12
2000
0000
0000
3003
,  // measure 13
0110
0000
0000
0000
,  // measure 14
0010
0000
0010
0000
,  // measure 15
0100
0100
0100
0000
,  // measure 16
0010
0000
0010
0000
,  // measure 17
0100
0100
0100
0000
,  // measure 18
0001
0000
0001
0000
,  // measure 19
1000
1000
1000
0000
,  // measure 20
0001
0000
0001
0000
,  // measure 21
1000
1000
1000
0000
,  // measure 22
0001
0100
0001
0100
,  // measure 23
0001
0100
0001
0000
,  // measure 24
1000
0100
1000
0100
,  // measure 25
1000
0100
1000
0000
,  // measure 26
0001
0010
0001
0010
,  // measure 27
0001
0010
0001
0000
,  // measure 28
1000
0010
1000
0010
,  // measure 29
1000
0010
1000
0000
,  // measure 30
0001
0000
0001
0100
,  // measure 31
0001
0000
0001
1000
,  // measure 32
0100
0000
0100
1000
,  // measure 33
0010
0000
0010
0000
,  // measure 34
1000
0000
1000
0001
,  // measure 35
0010
0000
0001
1000
,  // measure 36
0010
0000
1000
0001
,  // measure 37
0100
0000
0001
1000
,  // measure 38
0100
0000
0100
0000
,  // measure 39
1000
0000
1000
0000
,  // measure 40
0001
0000
0001
0000
,  // measure 41
0010
0010
0010
0010
,  // measure 42
0100
0000
0100
0000
,  // measure 43
1000
0000
1000
0000
,  // measure 44
0001
0000
0001
0000
,  // measure 45
0100
0100
0100
0100
,  // measure 46
0020
0000
0000
0000
,  // measure 47
0230
0000
0000
0302
,  // measure 48
2000
0000
0000
0003
,  // measure 49
0200
0000
0000
3000
,  // measure 50
0020
0000
0000
0300
,  // measure 51
0002
0000
0000
0030
,  // measure 52
2000
0000
0000
0000
,  // measure 53
0000
0000
0000
0003
,  // measure 54
0020
0000
0000
3000
,  // measure 55
0200
0000
0030
0302
,  // measure 56
2000
0000
0000
0003
,  // measure 57
0200
0000
0000
3000
,  // measure 58
0020
0000
0000
0300
,  // measure 59
0002
0000
0000
0030
,  // measure 60
2000
0000
0000
3003
,  // measure 61
0110
0000
1001
0110
,  // measure 62
1001
0000
0000
0000
;
