#TITLE:Bad Days;
#SUBTITLE:;
#ARTIST:Beta 2;
#TITLETRANSLIT:;
#SUBTITLETRANSLIT:;
#ARTISTTRANSLIT:;
#CREDIT:;
#BANNER:bad.png;
#BACKGROUND:bad-bg.png;
#LYRICSPATH:;
#CDTITLE:;
#MUSIC:bad.ogg;
#OFFSET:0.000;
#SAMPLESTART:33.083;
#SAMPLELENGTH:12.000;
#SELECTABLE:YES;
#BPMS:0.000=174.000;
#STOPS:92.000=0.862
,92.500=0.172
;
#BGCHANGES:;

//---------------dance-single - Renard----------------
#NOTES:
     dance-single:
     Renard:
     Hard:
     8:
     0.553,0.558,0.431,0.157,0.118:
0000
0000
0000
0000
,
0000
0000
0000
0000
,
0000
0000
0000
0000
,
0000
0000
0000
0000
,
0001
0100
0010
1000
0100
0010
0001
0100
,
0010
1000
0100
0010
0001
0000
0100
0010
,
1000
0010
0100
0001
0010
0100
1000
0010
,
0100
0001
0010
0100
1000
0000
0010
0100
,
0001
0000
0000
0000
0100
0000
0000
0100
0010
0000
1000
0000
0000
0000
0100
0000
,
0000
0000
0010
0000
0001
0000
0000
0001
0010
0000
0100
0000
1000
0000
0010
0000
,
0100
0000
0000
0000
0001
0000
0000
0001
0100
0000
0010
0000
0000
0000
1000
0000
,
0000
0100
0010
0001
1000
0010
0100
0000
,
0202
0000
0000
0000
,
0000
0000
0000
0300
,
2000
0000
0000
0000
,
3003
0000
0000
0000
,
1001
0000
1010
0000
0101
0000
0000
0011
,
0000
0110
0000
1100
0000
1001
0000
0000
,
1001
0000
1100
0000
0000
0000
0000
0011
,
0000
0101
0000
1001
,
1001
0000
0101
0000
1010
0000
0000
1100
,
0000
0110
0000
0011
0000
1001
0000
0000
,
1001
0011
0000
0000
,
2200
3311
1000
0100
0010
0000
0110
0000
,
0000
0011
0000
0101
0000
1010
0000
1001
,
0000
0000
1000
0100
0010
0000
0010
0001
,
0100
0010
0000
0010
1000
0000
1000
0010
,
0100
0001
0010
0100
0010
0000
0100
0000
,
0100
1000
0000
1000
0010
0100
0001
0010
,
0001
1000
0001
0100
0001
0000
1000
0010
,
0100
0110
0000
0000
1010
0000
1001
0000
,
0101
0000
0000
0000
0001
0000
0000
0000
0100
0000
0000
0100
0010
0000
1000
0000
,
0000
0000
0110
0000
0000
0000
0100
0000
1000
0000
0000
1000
0010
0000
0100
0000
,
0001
0000
0010
0000
0100
0000
1000
0000
0001
0000
0000
0001
0100
0000
0010
0000
,
0000
0110
0000
0010
1000
0001
0010
0100
,
1000
0000
0000
0000
0001
0000
1000
0000
0001
0000
0000
0001
0100
0000
0010
0000
,
0000
0000
1001
0000
0000
0000
1000
0000
0100
0000
0000
0100
0010
0000
0100
0000
,
1000
0010
0100
0001
1000
0000
0001
0100
,
0000
0000
1001
0000
0000
0000
1000
0000
0100
0000
0000
0100
0000
0010
0001
0000
,
1000
0000
0001
0100
0010
1000
0010
0100
,
0100
0001
0010
0010
0100
1000
0010
0100
,
0001
0100
0010
1000
0100
0000
0110
0000
,
0100
1000
0000
1000
0010
0100
0001
0010
,
0100
0000
0100
1000
0010
0100
0001
0010
,
0100
1000
1000
0010
0010
0100
0100
0001
,
0001
0000
1000
0100
0010
0001
0100
0000
,
0100
0010
0000
0010
1000
0100
0010
0001
,
0100
0000
0000
0000
0010
0000
0000
0010
1000
0000
0000
1000
0100
0000
0000
0000
,
0010
0000
0001
0000
0000
0000
0001
0000
0010
0000
0000
0010
0100
0000
1000
0000
,
0010
0000
0000
0000
0010
0000
0100
0000
0001
0000
0000
0001
0100
0000
0100
0000
,
0010
0000
1000
0000
0000
0000
1000
0000
0100
0000
0000
0100
0010
0000
0001
0000
,
1000
0000
0010
0000
0100
0000
0000
0100
0001
0000
0000
0001
0100
0000
0000
0100
,
0010
0000
1000
0000
0000
0000
0100
0000
0010
0000
0001
0000
0010
0000
0000
0010
,
0100
0000
0100
0000
1000
0000
0010
0000
0100
0000
0000
0100
0001
0000
0100
0000
,
0010
0000
0010
0000
1000
0000
0000
1000
0100
0000
0010
0000
0000
0010
0001
0000
,
1000
0001
2000
0000
0000
0000
0000
0000
,
0000
0000
3002
0000
0000
0203
0000
0000
,
0320
2030
0000
0000
,
0000
0000
0000
0000
,
0000
3200
0000
0000
,
0000
0000
0320
0000
0000
0032
0000
0000
,
0203
0320
0000
0000
,
0000
2030
0000
0000
,
0000
3001
0100
0110
,
0000
1010
0000
1001
0000
1100
0000
0011
,
0000
0000
0001
0100
0010
0000
0000
0000
,
0000
1000
0000
0000
1000
0000
0000
0000
,
1000
0000
0100
0010
0001
0000
0010
0000
,
0000
0100
0000
1000
0000
0010
0000
0100
,
0000
0000
0001
0100
0010
0000
0000
0000
,
0000
0000
0000
0000
0100
0000
0001
0000
0010
0000
0000
0010
0000
0100
1000
0000
,
0001
0100
1001
0000
0000
0000
0000
0000
;

//---------------dance-single - Renard----------------
#NOTES:
     dance-single:
     Renard:
     Challenge:
     10:
     0.672,0.698,0.598,0.353,0.309:
0000
0000
0000
0000
,
0000
0000
0000
0000
,
0000
0000
0000
0000
,
0000
0000
0000
0000
,
0001
0100
0001
0000
0100
0000
0010
0100
0010
0000
1000
0000
0010
1000
0010
0000
,
1000
0000
0100
1000
0100
0000
1000
0000
0100
0000
0010
0000
0001
0000
0000
0000
,
0010
0001
0010
0000
0001
0000
0010
0100
0010
0000
0100
0000
1000
0100
1000
0000
,
0100
0000
1000
0010
1000
0000
0010
0000
1000
0000
0010
0000
1000
0000
0000
0000
,
0001
0000
0000
0000
0100
0000
0000
0100
0010
0000
1000
0000
0000
0000
1100
0000
,
0000
0000
0100
0000
0010
0000
0000
0010
0001
0000
0010
0000
0100
0000
1000
0000
,
0001
0000
0000
0000
0100
0000
0000
0100
0010
0000
1000
0000
0000
0000
1010
0000
,
0000
0000
1000
0000
0100
0000
0000
0100
0010
0000
0001
0000
0010
0000
0100
0000
,
2002
0000
0000
0000
,
0000
0000
0000
0000
0000
0000
0000
0000
0000
0000
0000
0000
0000
3003
0000
0000
,
0220
0000
0000
0000
,
0330
0000
0000
0000
,
1010
0000
0110
0000
0110
0000
0000
0101
,
0000
0110
0000
1010
0000
1100
0000
0000
,
0110
0000
0011
0000
0000
0000
0000
0110
,
0000
1100
0000
1010
,
0101
0000
0011
0000
0110
0000
0000
1100
,
0000
1001
0000
0101
0000
1010
0000
0000
,
1001
0101
0000
0000
,
1001
0000
0110
0000
1010
0000
0000
0000
0101
0000
0000
0001
0100
0000
0010
0000
,
0000
0000
1010
0000
0000
0000
1000
0000
0100
0000
0000
0100
0010
0001
0010
0000
,
0100
0000
1000
0000
1100
0000
0000
0000
0110
0000
0000
0100
0010
0000
0001
0000
,
0000
0000
0011
0000
0000
0000
0010
0000
0100
0000
1000
0001
1000
0001
0000
0000
,
1000
0000
0001
0000
0100
0000
0000
0000
0110
0000
0000
0010
1000
0000
0001
0000
,
0000
0000
1001
0000
0000
0000
0001
0100
0001
0000
0100
0000
0010
0000
1000
0000
,
1010
0000
0000
1000
0100
0000
0000
0000
0110
0000
0000
0100
0010
0000
0001
0000
,
0000
0000
0011
0000
0000
0000
0010
0000
0100
0000
1000
0100
1000
0100
1000
0000
,
0010
0000
1000
0000
1010
0000
0000
0000
0110
0000
0000
0100
0001
0000
0100
0000
,
0000
0000
0101
0000
0000
0000
0100
0000
0110
0000
0000
0000
0010
1000
0010
0000
,
1000
0000
0001
0000
1000
0000
0000
0000
1100
0000
0000
0100
0010
0000
0001
0000
,
0000
0000
0011
0000
0000
0000
0010
0000
0100
0000
1000
0001
0010
0100
1000
0000
,
0001
0000
1000
0000
1001
0000
0000
0000
0101
0000
0000
0100
0010
0000
0100
0000
,
0000
0000
1010
0000
0000
0000
1000
0000
0001
0000
0100
0001
0100
0001
0100
0000
,
0010
0000
0100
0000
0110
0000
0000
0000
1010
0000
0000
0001
0100
0000
0010
0000
,
0000
0000
1100
0000
0000
0000
0100
0000
0010
0000
0001
0010
0100
1000
0001
0000
,
1001
0000
0000
0000
1000
0000
0000
1000
0001
0000
0000
0001
0100
0000
0010
0000
,
1000
0000
0100
0000
0010
0000
0000
0010
0001
0000
0000
0001
0010
0000
0100
0000
,
1000
0001
0010
0100
1000
0000
0000
0000
0001
0000
0000
0001
0100
0000
0010
0000
,
1000
0000
0010
0000
0000
0000
1000
0000
0100
0000
0000
0100
0010
0000
0001
0000
,
0010
0000
0100
0000
1000
0000
0000
1000
0001
0000
0000
0001
0100
0000
0010
0000
,
1000
0000
0100
0000
0000
0000
0100
0000
0010
0000
0000
0010
0001
0010
0100
0000
,
1000
0000
0001
0000
0010
0000
0000
0000
0100
0000
0000
0100
1000
0000
0010
0000
,
0000
0000
0101
0000
0000
0000
0100
0000
0010
0000
1000
0010
1000
0010
1000
0000
,
0100
0000
0010
0000
0001
0000
0000
0000
0010
0000
0000
0010
0100
0000
1000
0000
,
0000
0000
1001
0000
0000
0000
1000
0000
0010
0000
0000
0100
0001
0100
0010
0000
,
0100
0000
0010
0000
1000
0000
0000
0000
1010
0000
0000
1000
0100
0000
0010
0000
,
0000
0000
0110
0000
0000
0000
0010
0000
0001
0000
0010
0001
0010
0001
0010
0000
,
0100
0000
0010
0000
0110
0000
0000
0000
1100
0000
0000
1000
0001
0000
1000
0000
,
0000
0000
0101
0000
0000
0000
0100
0000
0010
0000
1000
0010
1000
0000
0001
0000
,
1000
0000
0100
0000
0010
0000
0000
0000
0001
0000
0000
0001
0010
0000
0100
0000
,
0000
1001
0000
1000
0010
0100
0001
0100
,
0010
1000
0001
0100
0020
0000
0000
0000
1000
0000
0000
0000
0100
0000
0000
0000
,
0001
0000
0230
0000
0000
1000
0000
0000
,
0010
0302
0010
1000
,
0100
0000
2000
0003
0000
3200
0000
0000
,
0320
0001
1000
0100
,
0001
0000
0032
0000
0000
0200
0003
0000
,
2300
3200
0010
1000
,
0001
0300
0020
0000
0000
0100
0000
0000
,
1000
0000
0230
0000
2300
0000
0020
3000
,
0000
0230
0000
0302
0000
0203
0000
0320
,
0000
2030
3200
0000
,
0020
0300
0000
0000
0032
0000
0000
0003
,
0020
0230
2300
3020
,
0000
0230
0000
0302
0000
0203
0000
0320
,
0000
2030
0200
0000
,
3300
0000
0000
0000
1001
0000
0000
0000
0001
0000
0100
0010
1000
0001
0010
0000
,
0100
0010
1001
0000
0000
0000
0000
0000
;

//---------------dance-single - Renard----------------
#NOTES:
     dance-single:
     Renard:
     Medium:
     6:
     0.297,0.384,0.020,0.108,0.000:
0000
0000
0000
0000
,
0000
0000
0000
0000
,
0000
0000
0000
0000
,
0000
0000
0000
0000
,
0000
0000
0000
0000
,
0000
0000
0000
0000
,
0000
0000
0000
0000
,
0000
0000
0000
0000
,
1000
1000
1000
0000
,
0001
0001
0001
0000
,
0100
0100
0100
0000
,
0010
0010
0010
0000
,
2000
0000
0000
0000
,
0000
0000
0000
0000
,
0002
0000
0000
0000
,
3003
0000
0000
0000
,
1000
0000
1000
0000
1000
0000
0000
0010
,
0000
0100
0000
0001
0000
0010
0000
0000
,
0001
0000
0001
0000
0000
0000
0000
1000
,
0000
1000
0000
1000
,
0010
0000
0100
0000
0010
0000
0000
0100
,
0000
0100
0000
0100
0000
0001
0000
0000
,
0001
0010
0000
0000
,
1001
0110
0010
0000
1000
0000
0010
0000
,
0000
1000
0000
0001
0000
0100
0000
0001
,
0000
1000
0100
0000
,
0000
0010
0000
0000
0001
0000
0000
0000
,
0010
0100
1000
0010
,
0000
0100
0000
0001
0000
0100
0000
0001
,
0000
1000
0100
0000
,
0000
0010
0000
0000
0001
0000
0000
0000
,
0010
0100
1000
0001
,
0100
0001
0000
0100
0000
0010
0000
1000
,
0100
0000
1000
0000
0001
0000
0010
0001
,
1000
0001
0000
0000
0100
0000
0000
0000
,
0001
1000
0100
0010
,
0001
1000
0000
0010
0000
0100
0000
0001
,
0010
0000
0001
1000
0001
0000
0100
0000
,
0010
1000
0000
0001
0100
0000
0010
1000
,
0001
1000
1000
1000
,
0000
0100
0000
0010
0001
0010
0000
0001
,
0010
0001
0010
0000
0100
0000
1000
0000
,
0000
0001
0000
0000
0001
0000
0000
0000
,
0100
0001
1000
0001
,
0000
0100
0000
0100
0000
0100
0000
0010
,
0000
0010
1000
0001
,
0000
1000
0100
1000
,
0001
0100
0100
0100
,
0000
0001
0000
1000
0000
0100
0000
0010
,
0000
0001
1000
0000
,
0000
0001
0000
0000
0100
0000
0000
0000
,
0010
1000
0100
0010
,
0000
0001
0000
0010
0000
0100
0000
1000
,
0000
0010
0100
0000
,
0000
0000
0001
0000
0001
1000
0000
1000
,
0001
2000
0000
0001
,
0000
3001
0000
0001
,
0000
0002
0000
1000
,
0000
1000
0000
1003
,
0010
0200
0000
0010
,
0000
0010
0000
0310
,
0200
0002
0000
0000
,
0300
2000
0000
0003
,
0100
0000
0200
0000
0000
0000
0000
3000
,
0000
1000
0000
1000
0000
1000
0000
1300
,
0000
1000
2000
0000
,
0000
0010
0000
0000
0010
0000
0000
0000
,
3010
0010
0010
0020
,
0000
0100
0000
0100
0000
0100
0000
0130
,
0000
0100
0001
0000
,
1000
0001
0100
0000
0001
1000
0000
0001
,
0100
0010
1000
0000
0000
0000
0000
0000
;

//---------------dance-single - Renard----------------
#NOTES:
     dance-single:
     Renard:
     Easy:
     2:
     0.176,0.209,0.010,0.206,0.000: // measure 1
0000
0000
0000
0000
,  // measure 2
0000
0000
0000
0000
,  // measure 3
0000
0000
0000
0000
,  // measure 4
0000
0000
0000
0000
,  // measure 5
0000
0000
0000
0000
,  // measure 6
0000
0000
0000
0000
,  // measure 7
0000
0000
0000
0000
,  // measure 8
0000
0000
0000
0000
,  // measure 9
2000
0000
0001
0000
,  // measure 10
0001
0000
3001
0000
,  // measure 11
0002
0000
1000
0000
,  // measure 12
1000
0000
1003
0000
,  // measure 13
0020
0000
0000
0000
,  // measure 14
0000
0000
0000
0000
,  // measure 15
0200
0000
0000
0000
,  // measure 16
0330
0000
0000
0000
,  // measure 17
0020
0000
0000
0000
,  // measure 18
2030
0000
0000
0000
,  // measure 19
3200
0000
0000
0000
,  // measure 20
0000
0000
0000
0000
,  // measure 21
0320
0000
0000
0000
,  // measure 22
0032
0000
0000
0000
,  // measure 23
0200
0000
0000
0000
,  // measure 24
0313
0001
0000
0001
,  // measure 25
0000
1000
0000
1000
,  // measure 26
0000
0001
0100
0000
,  // measure 27
0000
0010
0000
1000
,  // measure 28
0000
0100
0000
0100
,  // measure 29
0000
0010
0000
0010
,  // measure 30
0000
0001
1000
0000
,  // measure 31
0000
0001
0000
0100
,  // measure 32
0000
0010
0000
0010
,  // measure 33
0000
1000
0000
1000
,  // measure 34
0000
0001
1000
0000
,  // measure 35
0000
0001
0000
0001
,  // measure 36
0000
0100
0000
0100
,  // measure 37
0000
0010
0000
0010
,  // measure 38
0000
1000
0100
0000
,  // measure 39
0000
1000
0000
1000
,  // measure 40
0000
0001
0100
0001
,  // measure 41
0000
1000
0000
1000
,  // measure 42
0000
0001
0000
0001
,  // measure 43
0000
1000
0000
1000
,  // measure 44
0000
0010
0100
0010
,  // measure 45
0000
1000
0000
1000
,  // measure 46
0000
0001
0000
0100
,  // measure 47
0000
0001
0000
0010
,  // measure 48
0000
0100
1000
0100
,  // measure 49
0000
1000
0000
0001
,  // measure 50
0000
0100
0000
0010
,  // measure 51
0000
0100
0000
0001
,  // measure 52
0000
1000
0100
1000
,  // measure 53
0000
0001
0000
0010
,  // measure 54
0000
0001
0000
1000
,  // measure 55
0000
0001
0100
0010
,  // measure 56
0100
0020
0000
0000
,  // measure 57
0000
2030
0000
0000
,  // measure 58
0000
3200
0000
0000
,  // measure 59
0000
0000
0000
0000
,  // measure 60
0000
0320
0000
0000
,  // measure 61
0000
0032
0000
0000
,  // measure 62
0000
2000
0000
0000
,  // measure 63
0000
0000
0000
3003
,  // measure 64
0000
0020
0000
0000
,  // measure 65
0000
0230
0000
0000
,  // measure 66
0000
0002
0000
0000
,  // measure 67
0000
0000
0000
0300
,  // measure 68
0000
2000
0000
0000
,  // measure 69
0003
0200
0000
0000
,  // measure 70
3300
0010
0000
0010
,  // measure 71
0000
0001
1000
0010
,  // measure 72
0000
1001
0000
0000
;
