#TITLE:Avril 14th;
#SUBTITLE:;
#ARTIST:Aphex Twin;
#TITLETRANSLIT:;
#SUBTITLETRANSLIT:;
#ARTISTTRANSLIT:;
#CREDIT:;
#BANNER:avril.png;
#BACKGROUND:avril-bg.png;
#LYRICSPATH:;
#CDTITLE:;
#MUSIC:avril.ogg;
#OFFSET:0.000;
#SAMPLESTART:45.637;
#SAMPLELENGTH:12.000;
#SELECTABLE:YES;
#BPMS:0.000=39.472;
#STOPS:;
#BGCHANGES:;

//---------------dance-single - Renard----------------
#NOTES:
     dance-single:
     Renard:
     Hard:
     8:
     0.521,0.482,0.667,0.009,0.914:
0000
0000
0000
0000
0000
0000
0000
0000
0001
0100
0010
1000
1100
0110
0011
1001
,
0101
0000
0100
0000
0110
0000
0010
0000
1010
0000
1000
0000
0100
0000
0010
0001
0010
0000
0100
0000
1000
0000
0001
0000
1001
0000
1000
0000
1010
0000
0010
0000
,
0110
0000
0100
0000
0101
0000
0001
0000
1001
0000
1000
0000
0100
0000
0010
0100
0010
0000
0100
0000
1000
0000
0010
0000
0100
0001
0100
0000
0010
1000
0010
0000
,
1000
0000
0100
0000
0010
0000
0001
0000
0011
0000
0010
0000
0100
1000
0001
0100
0001
0000
0100
0000
0010
0000
1000
0100
1000
0000
0001
0010
0001
0000
1000
0000
,
0010
0000
0110
0000
0101
0000
0001
1000
0100
0000
1100
0000
1001
0000
1000
0100
0010
0000
0110
0000
0011
0000
0001
0010
0100
1000
0010
0000
0100
0000
0101
0000
,
0110
0000
0010
1000
0100
0000
1100
0000
0011
0000
0010
0100
1000
0000
1010
0000
0101
0000
0001
0100
0010
1000
0100
0000
1100
0000
0001
0010
0100
0000
1100
0000
,
1001
0000
1000
0001
0100
0000
0110
0000
1010
0000
1000
0100
0010
0001
0010
0000
0011
0000
0010
0100
1000
0001
1000
0000
1001
0000
0101
0000
1010
0000
1000
0100
,
0010
0000
0110
0000
1100
0000
0001
0010
0100
1000
0001
0000
0011
0000
0010
0100
1000
0000
1010
0000
0101
0000
0001
1000
0010
1000
0100
0000
1100
0000
0011
0000
,
0010
0000
0110
0000
1100
0000
0011
0000
0110
0000
1100
0000
1000
0010
0100
0001
0100
0000
0101
0000
0110
0000
1010
0000
1100
0000
0110
0000
0011
0000
0110
0000
,
0100
1000
0010
0000
1010
0000
0110
0000
0101
0000
0001
0100
0010
1000
0100
0010
0001
0000
0011
0000
0110
0000
1100
0000
1100
0000
1001
0000
0101
0000
1001
0000
,
1000
0001
1000
0001
0100
0001
0100
0001
1000
0001
1000
0001
1000
0001
1000
0010
1000
0000
0100
1000
0001
0000
0010
0001
1000
0000
0010
0000
1000
0000
0001
0000
,
1000
0001
1000
0001
0100
0001
0100
0001
0010
0001
0010
0001
0010
0000
0010
0100
1000
0000
1000
0010
0100
0000
0100
0001
0100
0010
1000
0100
0010
0000
0110
0000
,
1100
0000
0001
0010
0100
0000
0110
0000
1100
0000
1000
0010
0100
0000
0010
0100
0001
0000
0100
0010
1000
0000
0010
0000
0100
0001
0100
0001
0100
0010
0100
0010
,
1000
0000
0010
1000
0100
0000
1000
0001
0100
0000
0001
0010
0100
1000
0001
0000
1000
0000
0001
0100
0001
0000
1000
0100
1000
0000
0001
0010
0100
1000
0001
0000
,
1001
0000
0000
0000
0000
0000
0000
0001
0101
0000
0000
0000
0000
0000
0000
0001
0101
0100
0010
0000
1010
0000
0000
0000
1100
0000
0000
0000
0000
0000
0000
0000
,
0011
0000
0000
0000
0000
0000
0000
0010
0110
0000
0000
0000
0000
0000
0000
0100
1100
0000
0100
1000
0010
0000
0000
0000
0110
0000
0000
0000
0101
0000
0000
0000
,
0001
1000
0000
0000
0000
0000
0100
1000
0001
0010
0000
0000
0000
0000
0000
0100
1000
0001
0010
0000
0001
0000
1000
0000
0010
0000
0100
0001
0100
0000
0010
1000
,
0010
1000
0000
0000
0000
0000
0001
0100
0001
0100
0000
0000
0010
0000
1000
0000
0100
1000
0000
0000
0001
0010
0000
0000
0100
1000
0001
0010
0100
1000
0002
0000
,
0000
0003
0000
0000
;

//---------------dance-single - Renard----------------
#NOTES:
     dance-single:
     Renard:
     Medium:
     4:
     0.174,0.171,0.000,0.043,0.165:
0000
0000
0000
0000
,
0000
0000
0000
0000
,
1000
0000
1000
0000
0001
0000
0100
0001
0010
0000
0010
0000
0100
0000
0100
0000
,
1000
0000
0010
0000
0100
0000
0001
1000
0100
0000
0100
0000
1000
0000
0001
0000
,
0100
0010
0100
0010
1000
0000
0000
0000
0010
0100
0010
0100
0001
0000
0000
0000
,
0010
0100
0010
0100
1000
0000
0000
0000
0010
0100
0010
0100
0001
0000
0000
0000
,
1000
0000
0100
0010
0001
0000
0000
0000
0010
0000
0000
0100
1000
0000
0001
0000
,
0100
0000
0001
0010
0100
0000
1000
0000
0010
0000
0000
0100
0001
0000
0000
0000
,
0000
1000
0100
0010
0001
0000
0000
0000
0000
0001
0010
0100
1000
0000
0000
0000
,
0000
0001
0010
0100
1000
0000
0000
0000
0000
1000
0100
0010
0001
0000
0000
0000
,
1000
0000
1000
0000
0001
0000
0000
0000
0100
0000
0000
0000
0010
1000
0100
0010
,
0001
0000
0001
0000
0010
0000
0000
0000
0100
0000
0000
0000
1000
0010
0100
0001
,
0010
0000
0001
0000
1000
0000
0000
0000
0001
0000
0000
0000
1000
0001
0100
0001
,
1000
0000
0100
0000
0010
0000
0000
0000
0001
0000
0000
0000
1000
0001
0100
0010
,
0200
0000
0000
0000
0302
0000
0000
0000
1003
0100
0010
0000
0001
0000
0000
0000
,
2000
0000
0000
0000
3200
0000
0000
0000
0310
0001
1000
0000
0002
0000
0000
0000
,
0103
0000
0100
0000
0010
1000
0100
0000
1000
0000
0001
0000
0010
0000
0100
1000
,
0001
0000
0100
0001
1000
0000
0100
0010
0001
0000
1000
0000
0010
0100
0001
0010
;

//---------------dance-single - Renard----------------
#NOTES:
     dance-single:
     Renard:
     Easy:
     1:
     0.113,0.132,0.052,0.087,0.000: // measure 1
0000
0000
0000
0000
,  // measure 2
0000
0000
0000
0000
,  // measure 3
1000
1000
0001
0000
0001
0000
0000
0000
,  // measure 4
0001
0001
1000
0000
1000
0000
0000
0000
,  // measure 5
0020
0230
0302
1003
,  // measure 6
2000
3002
0203
0310
,  // measure 7
0110
0110
2002
3003
,  // measure 8
1001
1001
0220
0330
,  // measure 9
0010
0010
1000
0000
0001
0001
0100
0000
,  // measure 10
0001
0001
0010
0000
0100
0100
1000
0000
,  // measure 11
0001
0001
1000
0000
0010
0000
0100
0000
,  // measure 12
0001
0001
1000
0000
0100
0000
0000
0000
,  // measure 13
1000
0001
1000
0000
0001
0000
0100
0001
,  // measure 14
0010
0010
0100
0000
1000
0000
0001
0100
,  // measure 15
0001
0000
1000
0000
0001
0100
0001
0000
,  // measure 16
1000
0000
0100
0000
0010
0001
1000
0000
,  // measure 17
0100
0000
0100
0000
0010
0001
1000
0000
,  // measure 18
0001
0000
0100
0000
0010
0000
1000
0100
;
