#TITLE:Atmos Break;
#SUBTITLE:;
#ARTIST:D-Mode-D;
#TITLETRANSLIT:;
#SUBTITLETRANSLIT:;
#ARTISTTRANSLIT:;
#CREDIT:;
#BANNER:atmos.png;
#BACKGROUND:atmos-bg.png;
#LYRICSPATH:;
#CDTITLE:;
#MUSIC:atmos.ogg;
#OFFSET:0.000;
#SAMPLESTART:43.766;
#SAMPLELENGTH:12.000;
#SELECTABLE:YES;
#BPMS:0.000=175.000,96.000=87.500,111.500=175.000,112.003=175.000;
#STOPS:112.000=0.171
;
#BGCHANGES:;

//---------------dance-single - Renard----------------
#NOTES:
     dance-single:
     Renard:
     Hard:
     9:
     0.708,0.947,0.587,0.036,0.396:
0000
0000
0000
0000
,
0000
0000
0000
0000
,
0000
0000
0000
0000
,
0000
0000
0000
0000
,
1000
0000
0001
0000
1001
0000
0000
0000
0000
0000
0101
0000
0000
0110
0000
0000
,
1100
0000
0000
0110
0000
0000
0101
0000
0000
0110
0000
0000
0001
0000
1000
0000
,
0100
0000
0010
0000
0001
0000
0000
0000
0000
0000
0011
0000
0000
0110
0000
0000
,
1010
0000
0000
0110
0000
0000
0011
0000
0000
1001
0000
0000
1001
0000
0000
0000
,
0001
1000
1001
0000
0000
0010
1010
0000
,
1000
0100
1100
0000
0000
0001
0011
0000
,
0001
1000
1010
0000
0000
0001
0100
0000
,
0001
1000
0100
0010
0001
0010
0100
0000
,
1000
0001
1001
0000
0000
0001
0101
0000
,
0001
1000
1010
0000
0000
1000
1001
0000
,
0001
0100
0010
0000
1000
0100
0010
0000
,
0001
0010
0100
1000
0001
0000
1001
0000
,
0001
0100
0010
1000
0100
0010
0100
0000
,
1000
0010
0100
0001
0010
0100
0010
0000
,
0100
0010
0001
1000
0010
0100
0010
0000
,
0100
1000
0100
0000
0001
0100
0001
0000
,
0100
0010
1000
0100
0010
0001
0010
0000
,
0001
0010
0100
0010
0100
1000
0100
0000
,
1000
0000
0000
0100
0000
0000
0001
0000
0000
0100
0000
0000
1000
0000
0000
0010
,
0000
0000
0001
0000
0000
0010
0000
0000
0100
0000
0000
0000
0110
0000
0000
0000
,
0010
0000
1000
0100
0010
0001
0010
0100
0000
1100
0000
1010
0000
1000
0001
0100
,
0001
0000
1001
0000
0001
0100
0010
1000
0000
1001
0000
1000
0100
0010
0001
0000
,
1000
0000
0001
1000
0010
1000
0100
0010
0000
0001
0000
0010
0000
0100
1000
0001
,
0100
0000
0010
1000
0001
1000
0100
0010
0000
0001
0000
1000
0001
1000
2002
0000
,
3003
M00M
0000
0000
0110
0000
0000
0000
0010
0000
1000
0000
0100
0000
0000
0000
,
1000
0000
0001
0000
0010
0000
0000
0001
0000
1000
0010
0000
1000
0000
0001
0000
,
0100
0000
0010
0000
1000
0000
0000
0001
0000
1000
0100
0000
1000
0000
0001
0000
,
0010
0000
0001
0000
1000
0000
0000
0001
0000
0100
0010
0000
0100
0000
0010
0000
,
1000
0000
0100
0000
1000
0000
0000
0001
0000
0010
0001
0000
0010
0000
0001
0000
,
1000
0000
0010
0000
0100
0000
0000
0001
0000
1000
0100
0000
0010
0000
0100
0000
,
1000
0001
0100
0010
1000
0001
1000
0100
,
1000
0001
1000
0010
0000
1001
1001
0000
,
1000
0000
0001
0000
0100
0000
0000
0010
0000
1000
0001
0000
1000
0000
0100
0000
,
0010
0000
0001
0000
0010
0000
0000
0001
0000
1000
0010
0000
1000
0000
0001
0000
,
0100
0000
0010
0000
1000
0000
0000
0001
0000
1000
0100
0000
1000
0000
0001
0000
,
0010
0000
0001
0000
1000
0000
0000
0010
0000
0100
0001
0000
0100
0000
0010
0000
,
1000
0000
0100
0000
0010
0000
0000
0001
0000
0010
0100
0000
1000
0000
0010
0000
,
0100
0000
0001
0000
0010
0000
0000
0100
0000
1000
0001
0000
0100
0000
0010
0000
,
1000
0000
0001
0000
1000
0000
0000
0100
1000
0000
0001
0000
0000
1000
0010
0000
,
1000
0000
0000
0001
1000
0000
0100
0000
0000
0000
1000
0000
1001
0000
0000
0000
,
1001
0000
0010
0100
0000
1001
0000
1000
,
0100
0000
0010
0001
0000
0010
0100
1000
,
0010
0000
1001
0000
0100
0001
1000
0010
,
0000
1001
0000
1000
0100
0000
0110
0000
,
0100
1000
0010
0000
0100
0001
0010
0001
,
0000
0000
1001
0000
0000
0000
0001
0000
0100
0000
0010
1000
0010
0000
0100
0001
,
0100
0010
0100
0010
1000
0010
0001
0010
,
0100
0010
0000
1001
0000
0110
0110
0000
,
1001
0000
1000
0001
0000
1001
0000
1001
,
0000
0000
0001
0000
0100
0000
0000
0010
0000
1000
0001
0000
1000
0000
0000
0000
,
1001
0000
0110
0110
0000
1001
0000
0110
,
0000
0000
1000
0000
0100
0000
0000
0010
0000
0001
0010
0000
0100
0000
1000
0000
,
1001
0000
0110
1001
0000
0110
0000
1001
,
0000
0000
1000
0000
0001
0000
0100
0010
0000
1000
0001
0000
0010
0000
0100
0000
,
0110
0000
1001
0110
0000
1001
0000
0110
,
0110
0000
0000
0000
1001
0000
0000
0001
0000
0100
0001
0000
1001
0000
0000
0000
,
1001
0000
0000
0000
0001
0000
0000
0100
0000
0001
1000
0000
0100
0000
0010
0000
,
0001
0000
0000
0000
0010
0000
0000
0100
0000
1000
0010
0000
1000
0000
0001
0000
,
0100
0000
0000
0000
0010
0000
0000
1000
0000
0100
0010
0000
0001
0000
0010
0000
,
0100
0000
0000
0000
1000
0000
0000
0001
0000
0100
0010
0000
1000
0000
0001
0000
,
1000
0000
0000
0000
0100
0000
0000
0010
0000
0001
0010
0000
0100
0000
1000
0000
,
0010
0000
0000
0000
0100
0000
0000
0001
0000
0100
0010
0000
1000
0000
0100
0000
,
0010
0000
0000
0000
0001
0000
0000
0010
0001
0000
1000
0000
0000
0001
0100
0000
,
0001
0000
0000
0010
0001
0000
1000
0000
0000
0000
0001
0000
0100
0000
0000
0000
,
0001
0100
0010
0000
1000
0100
0000
0010
,
0001
0000
1000
0000
0010
0100
0001
0100
,
1000
0100
0010
0100
0001
0010
0100
1000
,
0100
0000
0010
0000
0001
0000
0000
1000
0000
0000
0001
0000
1000
0000
0000
0000
,
0001
0100
0010
1000
0100
0010
0001
0010
,
0100
0000
0000
1000
0000
0000
0000
0000
0000
1000
0000
0000
0001
0000
0000
0000
0000
0000
0000
0000
0100
0000
0001
0000
,
1000
0100
0000
0010
0001
1000
0001
0100
,
0010
1000
0000
0001
0100
0000
0202
0000
,
1303
0000
0000
0000
;

//---------------dance-single - Renard----------------
#NOTES:
     dance-single:
     Renard:
     Challenge:
     10:
     0.728,0.845,1.000,0.383,0.067:
0000
0000
0000
0000
,
0000
0000
0000
0000
,
0000
0000
0000
0000
,
0000
0000
0000
0000
,
1000
0000
0001
0000
1001
0000
0000
0000
0000
0000
1011
0000
0000
0101
0000
0000
,
0111
0000
0000
1001
0000
0000
1011
0000
0000
1100
0000
0000
1110
0000
0000
0000
,
1000
0001
1011
0000
0000
1101
0000
0000
,
1110
0000
0000
0111
0000
0000
1111
0000
,
0220
1000
0000
0331
,
0220
0001
0000
1330
,
2002
0010
0000
3103
,
2002
0000
0100
0000
0010
0100
3113
0000
,
2200
0000
0001
0000
0000
0010
3301
0000
,
0202
0000
0010
0000
0000
1000
0313
0000
,
2002
0000
0010
0000
0000
0100
3013
0000
,
0220
0000
0001
0000
0000
1000
0331
0000
,
1000
1110
0000
1110
,
0001
0111
0000
0111
,
1000
1011
0000
1011
,
0001
1101
0000
1101
,
1000
0000
1002
0000
0200
0010
0313
0000
,
0001
0000
2000
0000
0200
0010
3310
0000
,
0110
0000
0000
0110
0000
0000
0110
0000
0000
0110
0000
0000
1001
0000
0000
1001
,
0000
0000
1001
0000
0000
1001
0000
0000
2002
0000
0000
0000
3113
0000
0000
0000
,
2200
0000
0000
0000
0001
0000
0000
0001
0000
0001
0010
0000
3311
0000
0000
0000
,
0202
0000
0000
0000
0010
0000
0000
0010
0000
0010
1000
0000
1313
0000
0000
0000
,
2002
0000
0000
0000
0010
0000
0000
0010
0000
0010
0100
0000
3113
0000
0000
0000
,
0220
0000
0000
0000
0001
0000
0000
0001
0000
0001
1330
0000
0101
0000
1111
0000
,
0000
0111
0000
1011
,
0000
0111
0000
1011
,
0000
0111
0000
1011
,
1000
1001
0001
1001
,
0000
1110
0000
1011
,
0000
1110
0000
1011
,
0000
0000
1110
0000
0000
1110
0000
0000
,
0111
0000
0000
0111
0000
0000
1111
0000
,
0000
1011
0000
1110
,
0000
1011
0000
1110
,
0000
1011
0000
1110
,
0100
0110
0010
0110
,
0000
1101
0000
1110
,
0000
1101
0000
1110
,
0000
0000
1101
0000
0000
1101
0000
0000
,
1011
0000
0000
1011
0000
0000
1111
0000
,
0011
0000
0011
0011
0000
0011
0000
0101
,
0101
0000
0101
0101
0000
1001
0000
1001
,
1001
0000
1010
0000
1001
0000
1000
0100
,
0000
0010
0000
0001
1000
0001
1000
0000
,
1100
1100
1100
0000
1010
1010
1010
1010
,
0000
1001
0000
1001
2002
0000
3013
0000
,
1100
1010
0101
1001
,
0101
0110
0000
1001
0000
1001
1011
0000
,
1011
0000
1011
1101
0000
1101
0000
1011
,
0000
1000
0001
0100
0010
1000
0001
0000
,
1011
0000
1011
1101
0000
1101
0000
1011
,
0000
1000
0001
1000
0001
0000
1000
0000
,
0111
0000
0111
1101
0000
1101
0000
0111
,
0000
0000
0000
0000
,
1110
0000
1110
1101
0000
1101
0000
1110
,
0000
0000
0000
1111
,
2200
0010
0000
3310
,
0202
0010
1000
1313
,
2000
0010
0001
0002
,
0200
0310
0110
3113
,
0202
1313
1001
1010
,
2200
0011
0000
3311
,
1000
0000
1000
0000
0000
1100
0000
0000
,
1110
0000
0000
1111
0000
0000
1111
0000
,
0001
0100
0001
0000
1000
0100
0010
0001
,
0000
1000
0000
0001
0000
0100
0001
1000
,
0001
0000
1000
0010
1000
0001
1000
0100
,
0000
1000
0000
0001
0010
0001
1000
0000
,
0001
0000
0100
0001
1000
0001
1000
0010
,
1000
0001
1000
0100
0000
1000
0001
0010
,
0001
0000
1000
0001
0100
0001
1000
0010
,
0000
1000
0000
0001
0100
0000
1011
0000
,
1111
0000
0000
0000
;

//---------------dance-single - Renard----------------
#NOTES:
     dance-single:
     Renard:
     Medium:
     5:
     0.357,0.609,0.107,0.116,0.000:
0000
0000
0000
0000
,
0000
0000
0000
0000
,
0000
0000
0000
0000
,
0000
0000
0000
0000
,
0000
0000
0000
0000
,
0000
0000
0000
0000
,
0000
0000
0000
0000
,
0000
0000
0000
0000
,
1000
0000
0001
0000
0000
0100
0001
0000
,
1000
0000
0100
0000
0000
1000
0001
0000
,
0010
0000
0001
0000
0000
1000
0010
0000
,
0100
0001
1000
0100
,
1000
0000
0001
0000
0000
0010
0001
0000
,
1000
0000
0010
0000
0000
0100
0001
0000
,
1000
0000
0100
0000
0000
0100
0000
0000
,
0010
0000
0000
0010
0000
0000
0001
0000
,
1000
0000
0001
0000
0000
0100
0001
0000
,
1000
0000
0010
0000
0000
1000
0001
0000
,
1000
0000
0100
0000
0000
1000
0001
0000
,
0010
0000
0001
0000
0000
1000
0001
0000
,
0100
0000
0001
0000
0000
1000
0010
0000
,
1000
0000
0100
0000
0000
0010
0001
0000
,
1000
0000
0000
0001
0000
0000
0100
0000
,
0000
0010
0000
0000
1000
0000
1001
0000
,
2000
0000
3002
0000
0203
0000
0010
0010
,
0320
0000
2030
0000
3200
0000
0010
0010
,
0320
0032
0203
2300
,
3200
0000
0320
0000
2000
3030
1001
0110
,
0000
1000
0000
0010
,
0000
0100
0001
0010
,
0000
0100
0000
1000
,
0000
0010
1000
0001
,
0000
0100
0000
0001
,
0000
0010
0000
0100
,
1000
0000
0010
0000
0000
0010
0000
0000
,
0100
0000
0000
0100
0000
0100
0001
0000
,
1000
0100
0010
0001
,
1000
1000
0001
0000
,
0001
0010
0100
1000
,
0001
0001
1000
0000
,
0010
0000
1000
0000
0000
0001
0100
0000
,
0001
0000
1000
0000
0000
0100
1000
0000
,
0001
0000
0010
0000
0000
0001
0000
0000
,
1001
0000
0000
1001
0000
0000
1001
0000
,
0010
1000
0001
0100
,
0001
0000
1000
0001
0000
1000
0001
0000
,
0100
0000
0100
0000
0010
0000
0010
1000
,
0000
0001
0000
0100
0001
0000
1001
0000
,
1000
0000
1000
0000
0001
0000
0010
0001
,
0000
1000
0000
0010
1000
0000
0001
0000
,
0100
0001
0100
0000
0001
1000
0001
0000
,
1000
0100
0000
1000
0000
0001
1000
0000
,
0001
0000
0001
0100
0000
0100
0000
0001
,
0000
1000
0100
0000
,
1000
0000
1000
0100
0000
0100
0000
1000
,
0000
0010
1000
0001
,
0100
0000
0100
0001
0000
0001
0000
1000
,
0000
0010
1000
0001
,
0100
0000
0100
0001
0000
0001
0000
1000
,
0000
0000
0000
1001
,
0001
0001
0100
0100
,
0010
0000
1000
0000
0001
0000
1000
0100
,
1000
0001
0010
0100
,
1000
1000
0001
0001
,
0100
0100
0010
0010
,
1000
0000
1000
0000
0001
0000
0100
0001
,
0100
0000
0001
0000
0000
1001
0000
0000
,
1000
0000
0000
1001
0000
0000
0110
0000
,
0010
0000
1000
0000
0000
0001
0100
0000
,
0001
1000
0000
1000
,
0100
0000
1000
0000
0000
0001
0010
0000
,
0001
1000
0000
0010
,
1000
0000
0010
0000
0000
1000
0001
0000
,
1000
0001
0000
0100
,
0001
0000
1000
0000
0000
0100
0000
0000
,
0010
0000
0000
0001
0000
0010
0100
0000
,
1001
0000
0000
0000
;

//---------------dance-single - Renard----------------
#NOTES:
     dance-single:
     Renard:
     Easy:
     2:
     0.216,0.304,0.036,0.018,0.000: // measure 1
0000
0000
0000
0000
,  // measure 2
0000
0000
0000
0000
,  // measure 3
0000
0000
0000
0000
,  // measure 4
0000
0000
0000
0000
,  // measure 5
0000
0000
0000
0000
,  // measure 6
0000
0000
0000
0000
,  // measure 7
0000
0000
0000
0000
,  // measure 8
0000
0000
0000
0000
,  // measure 9
0000
1000
0000
0001
,  // measure 10
0000
0100
0000
0001
,  // measure 11
0010
0100
0000
1000
,  // measure 12
0000
0001
0000
0100
,  // measure 13
0010
1000
0000
0100
,  // measure 14
0000
0010
0000
0001
,  // measure 15
0010
0100
0000
1000
,  // measure 16
0010
0100
0001
1000
,  // measure 17
0000
0001
0000
0100
,  // measure 18
0000
0010
0000
1000
,  // measure 19
0100
0010
0000
0001
,  // measure 20
0000
1000
0000
0001
,  // measure 21
0100
0010
0000
1000
,  // measure 22
0000
0001
0000
1000
,  // measure 23
2002
0000
0000
0000
,  // measure 24
0000
0000
3003
0110
,  // measure 25
0010
0000
0010
0000
,  // measure 26
1000
0000
1000
0000
,  // measure 27
0001
0001
1000
1000
,  // measure 28
0001
0000
0100
0000
0010
0000
1000
0001
,  // measure 29
0000
1000
0000
0001
,  // measure 30
0100
0010
0000
0010
,  // measure 31
0000
1000
0000
1000
,  // measure 32
0100
0010
0000
0001
,  // measure 33
0000
1000
0000
0001
,  // measure 34
0100
0010
0000
0010
,  // measure 35
0000
1000
0000
1000
,  // measure 36
0000
0001
0000
0001
,  // measure 37
1000
0100
0000
0010
,  // measure 38
0000
0001
0000
1000
,  // measure 39
0001
0010
0000
0100
,  // measure 40
0000
1000
0000
0001
,  // measure 41
0010
0100
0000
1000
,  // measure 42
0000
0001
0000
0100
,  // measure 43
0010
1000
0000
1000
,  // measure 44
0000
0001
0000
0001
,  // measure 45
0100
0000
0100
0000
,  // measure 46
0001
0000
0001
0000
,  // measure 47
1000
0000
1000
0000
,  // measure 48
0100
0010
0001
1000
,  // measure 49
0001
0000
0001
0000
,  // measure 50
0100
0000
0100
0000
,  // measure 51
0001
1000
0010
0100
,  // measure 52
0001
0000
0001
0000
,  // measure 53
1000
0000
1000
0000
,  // measure 54
0001
0000
0000
0000
,  // measure 55
0001
0000
0001
0000
,  // measure 56
1000
0000
0000
0000
,  // measure 57
0010
0000
0010
0000
,  // measure 58
0100
0000
0000
0000
,  // measure 59
0100
0000
0100
0000
,  // measure 60
0010
0000
0000
1001
,  // measure 61
1000
0000
0001
0000
,  // measure 62
0100
0001
1000
0001
,  // measure 63
0100
0000
0001
0000
,  // measure 64
1000
0010
1000
0001
,  // measure 65
1000
0000
0001
0000
,  // measure 66
1000
0001
1000
0000
,  // measure 67
0010
0000
0010
0000
,  // measure 68
0100
0000
0100
0000
,  // measure 69
0001
1000
0001
0000
,  // measure 70
0100
0000
0100
0000
,  // measure 71
0001
1000
0001
0000
,  // measure 72
0010
0000
0100
0000
,  // measure 73
1000
0001
1000
0000
,  // measure 74
0100
0000
0100
0000
,  // measure 75
1000
0000
0001
0000
,  // measure 76
0100
0010
1000
0000
,  // measure 77
1001
0000
0000
0000
;
