#TITLE:At the River;
#SUBTITLE:;
#ARTIST:Groove Armada;
#TITLETRANSLIT:;
#SUBTITLETRANSLIT:;
#ARTISTTRANSLIT:;
#CREDIT:;
#BANNER:;
#BACKGROUND:;
#LYRICSPATH:;
#CDTITLE:;
#MUSIC:river.ogg;
#OFFSET:0.000;
#SAMPLESTART:42.356;
#SAMPLELENGTH:12.000;
#SELECTABLE:YES;
#BPMS:0.000=67.995;
#STOPS:;
#BGCHANGES:;

//---------------dance-single - Renard----------------
#NOTES:
     dance-single:
     Renard:
     Challenge:
     7:
     0.389,0.396,0.405,0.000,0.263:
0000
0000
0000
0000
,
0000
0000
0000
0000
,
0000
0000
0000
0000
,
0000
0000
0000
0000
,
0001
0000
0000
1000
0000
0000
1001
0000
0000
0001
0000
0100
0010
0000
1000
0010
0000
0000
1100
0000
0000
1000
0000
0010
,
0100
0000
0000
0001
0000
0000
0101
0000
0000
0001
0000
1000
0100
0000
1000
0010
0000
0000
1010
0000
0000
1000
0000
0010
,
0100
0000
0000
0001
0000
0000
0011
0000
0000
0001
0000
0010
0100
0000
1000
0001
0000
0000
1001
0000
0000
0001
0000
0100
,
0010
0000
0000
1001
,
0001
0000
0000
0001
0000
0100
0010
0000
0000
0010
0000
1000
0100
0000
0000
0100
0000
1000
0001
0000
0000
0001
0000
0010
,
0001
0000
0000
0001
0000
0100
0010
0000
1000
0001
0000
0000
0001
0000
0000
0001
0000
0000
1000
0000
0000
0100
0000
0000
,
1100
0000
0000
1000
0000
0000
1010
0000
0000
0010
0000
0100
0001
0000
0010
0100
0000
0000
1100
0000
0000
1000
0000
0001
,
0100
0000
0000
0001
0000
0100
0010
0000
0000
0010
0000
1000
0100
0000
1000
0010
0000
0100
0001
0000
0000
0001
0000
1000
,
0100
0000
0000
0100
0000
1000
0010
0000
0000
0010
0000
0100
0001
0000
0000
0010
0000
0000
0011
0000
0000
0001
0000
0010
,
0100
0000
0000
0100
0000
0000
0000
0000
0000
0000
0000
0100
1000
0000
0010
1000
0000
0000
1010
0000
0000
0000
0000
0000
,
0110
0000
0000
0101
0000
0000
0000
0000
0000
0000
0000
0001
1000
0000
0100
1000
0000
0000
0001
0000
0000
0010
0000
0001
,
0010
0011
0010
0100
1000
0010
1010
0010
,
0110
0000
0000
0101
0000
0000
1001
0000
0000
1000
0000
0100
1000
0000
0001
0010
0000
0000
0001
0000
0000
1000
0000
0001
,
0100
0000
0000
0010
0000
0000
0000
0000
0000
0000
0000
0010
1000
0000
0100
1000
0000
0000
0100
0000
0000
1000
0000
0000
,
1010
0000
0000
1010
0000
0000
0001
0000
0000
0100
0000
0001
1000
0000
0100
0010
0000
0000
0011
0000
0000
0010
0000
0000
,
0100
0000
0000
1000
0000
0000
1100
0000
0000
1000
0000
0010
0100
0000
0001
0100
0000
0000
0101
0000
0000
0001
0000
0000
,
1000
0001
1001
0010
0100
0110
1000
1001
,
0001
1000
1001
0010
0100
0110
0001
1001
,
1000
0001
1001
0100
0010
0110
0001
1001
,
1000
0100
1100
0001
0010
0011
1001
1001
,
0001
0000
0000
0100
0000
0100
0010
0000
0000
1000
0000
0000
0100
0000
0000
0010
0000
0000
0011
0000
0000
0001
0000
0010
,
0100
0000
0000
1000
0000
0000
0000
0000
0000
0000
0000
0010
0100
0000
0001
0100
0000
0000
0001
0000
0000
0100
0000
0010
,
1000
0000
0000
1010
0000
0000
1000
0000
0000
0010
0000
0100
0001
0000
0100
0010
0000
0000
1000
0000
0000
0010
0000
0010
,
1000
0000
0001
1000
0000
0000
0001
0000
0000
0100
0000
0010
1000
0000
0010
1000
0000
0000
1100
0000
0000
0001
0000
1000
;

//---------------dance-single - Renard----------------
#NOTES:
     dance-single:
     Renard:
     Hard:
     6:
     0.237,0.382,0.192,0.000,0.142:
0000
0000
0000
0000
,
0000
0000
0000
0000
,
0000
0000
0000
0000
,
0000
0000
0000
1001
,
0001
0000
0000
0000
0000
0000
1000
0000
0000
0001
0000
0100
0001
0000
0000
0000
0000
0000
0100
0000
0000
0000
0000
0000
,
0010
0000
0000
0000
0000
0000
1000
0000
0000
0100
0000
1000
0100
0000
0000
0000
0000
0000
1000
0000
0000
0000
0000
0000
,
0010
0000
0000
0000
0000
0000
0100
0000
0000
0001
0000
0100
0001
0000
0000
0000
0000
0000
1000
0000
0000
0000
0000
0000
,
0100
0000
0000
1001
,
0001
0000
0000
0000
0000
0000
0100
0000
0000
0000
0000
0000
0010
0000
1000
0010
0000
0000
1000
0000
0000
0000
0000
0000
,
0100
0000
0000
1000
0000
0100
1000
0000
0100
1000
0000
0000
0010
0000
0000
0000
0000
0000
0100
0000
0000
0100
0000
0000
,
0001
0000
0000
0000
0000
0000
0010
0000
0000
0000
0000
0000
0100
0000
1000
0100
0000
0000
1000
0000
0000
0000
0000
0000
,
0010
0000
0100
0001
0100
0010
1000
0000
,
0010
0000
0000
0010
0000
0000
0000
0000
0000
0000
0000
0000
0000
0000
0000
0000
0000
0000
0000
0000
0000
0010
0000
0100
,
0001
0000
0000
0100
0000
0000
0000
0000
0000
0000
0000
0010
1000
0000
0010
1000
0000
0000
0010
0000
0000
0000
0000
0000
,
1000
0000
0000
1000
0000
0000
0000
0000
0000
0000
0000
0000
0000
0000
0000
0000
0000
0000
0000
0000
0000
0100
0000
1000
,
0100
0100
0000
0000
0000
0000
0000
0000
,
1000
0000
0000
1000
0000
0000
0000
0000
0000
0000
0000
0000
0000
0000
0000
0000
0000
0000
0000
0000
0000
0000
0000
0100
,
0001
0000
0000
0001
0000
0000
0000
0000
0000
0000
0000
0001
0010
0000
0100
1000
0000
0000
1001
0000
0000
0000
0000
0000
,
1010
0000
0000
1001
0000
0000
0000
0000
0000
0000
0000
0000
0000
0000
0000
0000
0000
0000
0000
0000
0000
0001
0000
0100
,
0001
0000
1000
0001
0000
0000
0000
0000
0000
0000
0000
0000
0000
0000
0000
0000
0000
0000
1001
0000
0000
0000
0000
0000
,
0001
0100
0101
0000
0000
0000
0110
0000
,
0010
1000
1010
0000
1000
0100
0100
0000
,
1000
0010
1010
0000
0001
0100
0100
0000
,
0001
0010
0011
0000
0100
1000
1100
0000
,
1000
0000
0000
0001
0000
0000
1001
0000
0000
0000
0000
0000
0001
0000
0100
0001
0000
0000
0100
0000
0000
0010
0000
1000
,
0010
0000
0000
1010
0000
0000
0000
0000
0000
0000
0000
0010
1000
0000
0100
1000
0000
0000
1001
0000
0000
0000
0000
0001
,
0100
0000
0000
0101
0000
0000
0001
0000
0000
1000
0000
0100
1000
0000
0100
1000
0000
0000
1010
0000
0000
0010
0000
1000
,
0001
0000
0100
0001
0000
0000
0101
0000
0000
0001
0000
1000
0100
0000
1000
0010
0000
0000
1010
0000
0000
0001
0000
0100
;

//---------------dance-single - Renard----------------
#NOTES:
     dance-single:
     Renard:
     Medium:
     3:
     0.175,0.197,0.061,0.061,0.000:
0000
0000
0000
0000
,
0000
0000
0000
0000
,
0000
0000
0000
0000
,
0000
0000
0000
1001
,
0001
1000
0100
0000
1000
0001
0010
0000
,
0001
0100
0010
1000
0100
0010
0001
0000
,
1000
0000
0001
0000
0100
0001
1000
0000
,
1001
0000
0000
0110
,
0010
0000
0010
0000
1000
0100
0010
0000
,
0001
0100
0010
0000
0010
0000
0010
1000
,
0001
0100
0010
1000
,
0001
0000
1000
0000
0100
1000
0100
0000
,
1000
1000
0010
0010
,
0100
0000
0100
0002
0000
0000
0000
0000
,
0013
0010
0100
0100
,
1000
0000
0010
0200
0000
0000
0010
0000
,
0310
1000
0100
0010
0001
0000
0001
0000
,
0100
0000
0010
2000
0000
0000
0000
0000
,
3100
0000
0010
0000
0001
0100
0001
0000
,
2000
0000
3002
0200
0000
0000
0303
0000
,
0001
1000
0100
0000
1000
0000
0001
0000
,
0100
0001
1000
0100
,
1000
0001
0100
0010
,
1000
1001
0001
1001
,
0001
0100
0001
0000
1000
0000
0100
1000
,
0010
0010
0000
0000
0100
0100
0100
0000
,
0001
0001
0000
0000
0000
0000
0000
0001
,
0010
0010
0000
0000
0100
1000
1001
0000
;

//---------------dance-single - Renard----------------
#NOTES:
     dance-single:
     Renard:
     Easy:
     1:
     0.087,0.112,0.000,0.020,0.000: // measure 1
0000
0000
0000
0000
,  // measure 2
0000
0000
0000
0000
,  // measure 3
0000
0000
0000
0000
,  // measure 4
0000
0000
0000
0000
,  // measure 5
0001
0000
1000
0000
,  // measure 6
0010
0000
0010
0000
,  // measure 7
1000
0000
0001
0000
,  // measure 8
0100
0000
0000
0001
,  // measure 9
1000
0000
0100
0000
,  // measure 10
0010
0000
0001
0000
,  // measure 11
1000
0000
0010
0000
,  // measure 12
1000
0000
0001
0100
,  // measure 13
0001
0000
1000
0000
,  // measure 14
0100
0000
1000
0010
,  // measure 15
0100
0000
0000
0001
,  // measure 16
0010
0000
0000
0100
,  // measure 17
1000
0000
0010
0000
,  // measure 18
0100
0000
0001
1000
,  // measure 19
0001
0000
0010
0000
,  // measure 20
0100
0000
1000
0010
,  // measure 21
0100
0100
0100
0000
,  // measure 22
0010
1000
0001
1000
,  // measure 23
0010
0010
0010
0000
,  // measure 24
2000
0002
0000
3003
,  // measure 25
0001
0001
0000
0000
,  // measure 26
0100
0100
0010
0000
,  // measure 27
1000
1000
0000
0000
,  // measure 28
0100
0000
0010
0001
;
