#TITLE:Artillery;
#SUBTITLE:;
#ARTIST:Infected Mushroom;
#TITLETRANSLIT:;
#SUBTITLETRANSLIT:;
#ARTISTTRANSLIT:;
#CREDIT:;
#BANNER:artillery.png;
#BACKGROUND:artillery-bg.png;
#LYRICSPATH:;
#CDTITLE:;
#MUSIC:artillery.ogg;
#OFFSET:0.000;
#SAMPLESTART:61.760;
#SAMPLELENGTH:12.000;
#SELECTABLE:YES;
#BPMS:0.000=100.000;
#STOPS:;
#BGCHANGES:;

//---------------dance-single - Renard----------------
#NOTES:
     dance-single:
     Renard:
     Challenge:
     9:
     0.604,0.590,0.253,0.009,0.829: // measure 1
0000
0000
0000
0000
,  // measure 2
0000
0000
0000
0000
,  // measure 3
0000
0000
0000
0000
,  // measure 4
0000
0000
0000
0000
,  // measure 5
1001
0000
0000
1000
0001
0000
0000
0100
0000
0000
0100
0000
0010
0000
0000
0000
,  // measure 6
0110
0000
0000
0010
1000
0000
0000
0001
0000
0000
1000
0000
1001
0000
0000
0000
,  // measure 7
1000
0001
0100
0001
0010
0100
1000
0001
0100
0010
1000
0100
0010
0001
0010
0001
,  // measure 8
0000
0001
0010
0000
0010
0100
1000
0010
0100
0001
0100
0000
1001
0000
1001
0000
,  // measure 9
0000
0000
0000
0100
0000
0000
1000
0000
0000
0001
0000
0000
0010
0000
0000
0001
0000
0000
1000
0000
0000
0010
0000
0000
0100
0000
0000
0001
0000
0000
0010
0000
0100
0000
0010
0000
0001
0000
0000
0000
0000
0000
1000
0000
0000
0001
0000
0000
,  // measure 10
0000
0100
0010
1000
0010
1000
0001
1000
0100
0010
0001
0010
0100
1000
0100
1000
,  // measure 11
0000
0001
1000
0001
0100
0010
1000
0100
0010
0001
0000
0001
0010
0100
1000
0001
,  // measure 12
0100
0010
1000
0100
0010
0001
0010
0100
1000
0001
0100
0010
1000
0001
1000
0000
,  // measure 13
0001
0000
0001
1000
0100
0000
0010
0001
0010
0000
0100
1000
0100
1000
0001
0100
,  // measure 14
0001
0100
0001
1000
0100
0000
0100
0000
1000
0001
0100
0010
1000
0001
0000
0000
,  // measure 15
2000
0000
0001
0000
3001
0000
1000
0100
0000
0010
0001
0010
0100
1000
0001
0100
,  // measure 16
0010
0000
0100
0000
0010
0000
1000
0100
0010
0000
0001
0010
0000
0100
1000
0001
,  // measure 17
0100
0000
0110
0000
0110
0000
0010
1000
0100
0010
0001
0010
0100
1000
0001
0100
,  // measure 18
0001
0000
1001
0000
1001
0000
1000
0001
0100
0010
1000
0010
0000
0000
0000
1000
,  // measure 19
0001
0000
0100
0000
0101
0000
0001
1000
0000
0100
1000
0000
1001
0000
1000
0001
,  // measure 20
0010
0000
0100
0000
0110
0000
0100
1000
0000
0001
0100
0010
1000
0100
0010
0000
,  // measure 21
0001
0010
0100
0000
0110
0000
0100
1000
0010
0100
0001
0000
0100
0001
0100
0000
,  // measure 22
0010
0100
0010
0000
1000
0010
1000
0000
1001
0000
0110
0000
1001
0000
0110
0000
,  // measure 23
1001
0000
0000
0000
1000
0000
0000
0001
0000
0000
0001
0000
0100
0000
0000
0000
,  // measure 24
0010
0000
0000
0000
0010
0000
0000
1000
0000
0000
1000
0000
1000
0000
0000
0000
,  // measure 25
0100
0000
0000
0000
0110
0000
0000
0010
0000
0000
0001
0000
1001
0000
0000
0000
,  // measure 26
0001
0000
0000
0000
0000
0000
0000
0000
0000
1000
1000
0001
1001
0000
1000
0100
,  // measure 27
0010
0001
0010
0000
0000
0000
0100
1000
0010
0100
0001
0000
0000
0000
0100
0001
,  // measure 28
0010
0100
1000
0000
0000
0000
0010
0100
0001
0010
0100
0000
0000
0000
0010
0100
,  // measure 29
1000
0010
0001
0000
0000
0000
0001
0010
1000
0100
0001
0000
0000
0000
0001
0100
,  // measure 30
1000
0000
0010
0000
0100
0000
0000
0000
0000
0000
0000
0000
0001
0000
0100
0000
0010
0000
0010
0000
0010
0000
0010
0000
0010
0000
1000
0010
1000
0000
0010
0000
,  // measure 31
1000
0000
0100
0000
0010
0000
0000
0000
0000
0000
0001
0010
0001
0000
0010
0000
0100
0000
1000
0000
0001
0000
0000
0000
0000
0000
0100
0001
0100
0000
0001
0000
,  // measure 32
0100
0000
0010
0000
1000
0000
0000
0000
0000
0000
0100
1000
0100
0000
1000
0000
0010
0000
0100
0000
0001
0000
0000
0000
0000
0000
0010
0001
0010
0000
0001
0000
,  // measure 33
0010
0000
0100
0000
1000
0000
0000
0000
0000
0000
0001
0100
0001
0000
0100
0000
0010
0000
1000
0000
0100
0000
0000
0000
0000
0000
1000
0100
1000
0000
0001
0000
,  // measure 34
0100
0010
1000
0000
0000
0000
0100
0010
0001
0010
1000
0000
0011
0000
0000
0000
,  // measure 35
0001
0010
0100
1000
0001
0000
0100
0010
0000
0010
1000
0100
0010
0000
0001
0000
,  // measure 36
1000
0001
0100
0001
0100
0000
0010
1000
0000
1000
0010
0000
1000
0000
0100
0000
,  // measure 37
0010
0001
0010
0100
1000
0000
0001
0100
0000
0100
0010
0000
1010
0000
1000
0000
,  // measure 38
0100
0010
0001
0010
0100
0000
0000
0000
0100
1000
0010
0100
0010
0000
0000
0000
,  // measure 39
0100
0001
0010
0100
1000
0000
0001
0100
0000
0001
1000
0000
1100
0000
1000
0000
,  // measure 40
0001
0010
0100
1000
0001
0000
0100
0010
0000
1000
0001
0000
0011
0000
0010
0000
,  // measure 41
0100
1000
0001
0010
0001
0000
1000
0010
0000
0100
0001
0000
1001
0000
1000
0000
,  // measure 42
0100
0010
0001
0010
0100
1000
0001
0100
0010
1000
0100
0010
0001
0010
0100
1000
,  // measure 43
1001
0000
0000
0000
;

//---------------dance-single - Renard----------------
#NOTES:
     dance-single:
     Renard:
     Hard:
     8:
     0.427,0.472,0.422,0.037,0.333:
0000
0000
0000
0000
,
0000
0000
0000
0000
,
0000
0000
0000
0000
,
0000
0000
0000
0000
,
1000
1001
0000
1001
,
0001
1001
0000
1001
,
1000
0000
0100
0000
1100
0000
0000
1000
0000
0000
0001
0000
0101
0000
0000
0000
,
0001
0000
0010
0000
0011
0000
0000
0010
0000
0000
0100
0000
0110
0000
0000
0000
,
0100
0000
1000
0000
1010
0000
0000
1000
0000
0000
0001
0000
0101
0000
0000
0000
,
0001
0000
1000
0000
0100
0000
0010
0000
0001
0000
1000
0001
1000
0000
0001
0000
,
0100
0000
0000
0000
0110
0000
0000
0010
0000
0000
1000
0000
1001
0000
0000
0000
,
0001
0000
0100
0000
0101
0000
0000
0001
0000
0010
0100
0000
0110
0000
0000
0000
,
0100
0000
1000
0000
1001
0000
0000
0001
0000
0100
0001
0000
0101
0000
0000
0000
,
0001
1000
1100
0000
1000
0000
0000
0000
,
1001
0000
0000
0000
0110
0000
0000
0010
0000
1000
0001
0000
0100
0000
0010
0000
,
1000
0000
0100
0000
0010
0000
0001
0010
0000
0100
1000
0000
1001
0000
0000
0000
,
0001
0000
0100
0000
0110
0000
0000
0010
0000
1000
0001
0000
1001
0000
0000
0000
,
1000
0000
0100
0000
0110
0000
0000
0000
0010
0000
0001
0010
0000
0000
0000
0000
,
0001
0000
0000
0000
0011
0000
0000
0010
0000
0100
1000
0000
0010
0000
0100
0001
,
0100
0000
0000
0000
0101
0000
0000
0001
0000
1000
0100
0000
0010
0001
0010
0000
,
0110
0000
0000
0000
1100
0000
0000
0011
0000
0000
0010
0100
1000
0000
0001
0000
,
0100
0100
0001
0001
1000
1000
0001
0000
,
1000
1000
0001
0001
,
0100
0100
0010
0010
,
1000
1000
0001
0001
,
1000
0000
0000
0000
0000
0000
0000
0000
0000
0000
0000
0000
0000
0000
1000
0001
,
0100
0001
1000
0000
0000
0000
1000
0100
0010
0001
1000
0000
0000
0000
0001
0010
,
0100
1000
0001
0000
0000
0000
1000
0100
0010
0001
1000
0000
0000
0000
0001
0010
,
0100
1000
0001
0000
0000
0000
1000
0100
0010
0001
1000
0000
0000
0000
0001
0010
,
0100
1000
0001
0000
0000
0000
1000
0001
0100
0010
0100
0010
0100
0000
0010
0000
,
1000
0000
0010
0000
1010
0000
1000
0100
0000
0010
0001
0000
0011
0000
0010
0100
,
1000
0001
0100
0000
0010
0000
1000
0100
0000
0010
0001
0000
0010
0000
0100
1000
,
0001
0100
0010
0000
0110
0000
0010
1000
0000
0100
0010
0000
0001
0000
0010
0100
,
1000
0001
0100
0000
0010
0000
1000
0001
1000
0001
1000
0000
1001
0000
0000
0000
,
0002
0000
0000
0000
0100
0000
0000
0010
0000
0000
0013
0000
0011
0000
0000
0000
,
0001
0010
0100
0000
1100
0000
0000
2000
0000
0000
0001
0000
3001
0000
0000
0000
,
0001
0100
0010
0000
0120
0000
0000
1000
0000
0000
1030
0000
1010
0000
0000
0000
,
1000
0100
1000
0000
0001
0010
0001
0000
1000
0000
0001
0000
1001
0000
0000
0000
,
0101
0000
0000
0000
0110
0000
0000
0010
0000
1000
0100
0000
0011
0000
0000
0000
,
0010
0000
0100
0000
1100
0000
0000
1000
0000
0001
0100
0000
0101
0000
0001
2000
,
0100
0000
0000
0000
0010
0000
0000
0001
0000
0000
0001
0000
3100
0000
0000
0000
,
1000
0100
0010
0000
0011
0000
0010
0100
0000
1000
0001
0000
0110
0000
0000
0000
,
1001
0000
0000
0000
;

//---------------dance-single - Renard----------------
#NOTES:
     dance-single:
     Renard:
     Medium:
     5:
     0.329,0.374,0.309,0.047,0.000:
0000
0000
0000
0000
,
0000
0000
0000
0000
,
0000
0000
0000
0000
,
0000
0000
0000
0000
,
1000
1000
0001
0001
,
1000
0001
1000
0001
,
1000
1001
0000
0101
,
0100
0110
0000
1010
,
1000
1100
0000
0011
,
0001
1001
0110
1001
,
1000
0100
0010
0001
0010
0100
1000
0001
,
0010
0100
1000
0100
0010
0000
1001
0000
,
0001
0010
0100
1000
0010
0100
0001
0010
,
0100
1000
0001
0100
0010
0000
1001
0000
,
1001
0000
0110
0000
0010
1000
0100
0010
,
0001
0000
0110
0000
0100
1000
0010
0000
,
0100
0000
0101
0000
0001
0100
0010
1000
,
0001
1001
0110
1001
,
1000
0100
0010
0001
0010
0100
1000
0000
,
0001
0100
0010
1000
0100
0010
0001
0000
,
1000
0101
0010
1100
,
0010
0000
0101
0000
0001
1000
0001
1000
,
0001
0001
1000
1000
,
0001
0001
1000
1000
,
0001
0100
0010
2000
,
0002
0000
0000
0000
0000
3003
1001
0000
,
0001
0100
0010
0000
1000
0100
0010
0000
,
0001
0010
0100
0000
1000
0010
0100
0000
,
0001
0100
0010
1000
0100
0010
0001
0010
,
0100
2000
0001
0000
0001
0001
3001
0000
,
1000
0001
0100
0000
0001
1000
0100
0000
,
1000
0001
0010
0000
0001
1000
0010
0000
,
1000
0001
1000
0001
0100
0010
0100
0010
,
1000
0010
0100
0001
2002
0000
3013
0000
,
1001
0000
0110
0000
0010
1000
0100
0010
,
0001
0000
0110
0000
0100
1000
0001
0100
,
0001
1001
0110
1001
,
0001
1000
0001
1000
0010
0100
0010
0100
,
0001
0000
1001
0000
1000
0100
0010
0001
,
1000
0000
1001
0000
0001
0100
0010
1000
,
0001
0000
1001
0000
1000
0100
0010
0001
,
1000
0000
0001
0000
0100
0001
1000
0000
,
1001
0000
0000
0000
;

//---------------dance-single - Renard----------------
#NOTES:
     dance-single:
     Renard:
     Easy:
     2:
     0.194,0.275,0.066,0.159,0.000:
0000
0000
0000
0000
,
0000
0000
0000
0000
,
0000
0000
0000
0000
,
0000
0000
0000
0000
,
1000
1000
0000
1000
,
0001
0001
0000
0001
,
0100
0100
0000
0010
,
1000
1000
0000
0001
,
0010
0010
0000
0100
,
1000
1000
0001
1001
,
0001
0000
1000
0100
,
0010
0000
0001
1000
,
0001
0000
0100
0010
,
1000
1000
0001
0000
,
1000
0001
0000
0001
,
0100
0010
1000
0001
,
1000
0100
0000
0100
,
1000
0001
1000
0001
,
0100
0100
0001
0001
,
1000
1000
0100
0010
,
0001
0001
1000
1000
,
0001
0000
0001
0000
1000
0001
1000
0000
,
0001
0000
0000
0000
,
1000
0000
0000
0000
,
0020
0000
0000
0000
,
0200
0000
0330
0010
,
0010
0000
1000
0000
0010
1000
0010
0000
,
0100
0000
0001
0000
0100
0001
0100
0000
,
0001
0000
0010
0000
0001
0010
0001
0000
,
1000
0100
2002
3003
,
1000
0000
1000
0000
0001
0100
0001
0000
,
1000
0000
1000
0000
0001
0010
0001
0000
,
1000
0000
1000
0000
0001
1000
0001
0000
,
1000
0000
0001
0000
1000
0001
1000
0000
,
0002
0000
0000
0000
0000
0003
0100
0000
,
0200
0000
0000
0000
0000
0300
0010
0000
,
0020
0000
2000
0030
,
0200
0000
0000
3000
,
0020
0000
0000
0000
0300
0030
0001
0000
,
0022
0000
0000
0000
0000
0033
0010
0000
,
2200
0000
0000
0000
0000
3300
1001
0000
,
0220
0000
0000
0300
2000
0000
0000
3030
,
1001
0000
0000
0000
;
