#TITLE:Around the World in a Tea Daze;
#SUBTITLE:;
#ARTIST:Shpongle;
#TITLETRANSLIT:;
#SUBTITLETRANSLIT:;
#ARTISTTRANSLIT:;
#CREDIT:;
#BANNER:tea.jpg;
#BACKGROUND:tea-bg.jpg;
#LYRICSPATH:;
#CDTITLE:;
#MUSIC:tea.ogg;
#OFFSET:0.000;
#SAMPLESTART:12.700;
#SAMPLELENGTH:12.000;
#SELECTABLE:YES;
#BPMS:0.000=150.000;
#STOPS:;
#BGCHANGES:;

//---------------dance-single - Renard----------------
#NOTES:
     dance-single:
     Renard:
     Hard:
     8:
     0.584,0.737,0.277,0.174,0.128:
0000
0000
0000
0000
,
0000
0000
0000
0000
,
0000
0000
0000
0000
,
0000
0000
0000
0000
,
1000
0000
1000
0001
0000
0001
0100
0000
,
0100
0010
0000
0010
1000
0000
0100
0000
,
0010
0000
0010
0001
0000
0001
0010
0000
,
0010
0100
0000
0100
1000
0000
0110
0000
,
0100
0000
0001
0010
0100
0000
1000
0001
,
0100
0010
0100
0000
0110
0000
0100
0001
,
1000
0000
0100
1000
0000
0001
0000
0011
,
0000
0010
0100
0000
1001
0000
1000
0010
,
0100
0000
0101
0000
1100
0000
0100
0010
,
1000
0100
0001
0000
0101
0000
0100
1000
,
0010
0000
0000
0000
0110
0000
0000
0000
0100
0000
0001
0100
0001
0000
0000
0000
,
0100
0000
0010
1000
0010
0000
0000
0000
1100
0000
0000
0000
1000
0000
0100
0000
,
0010
0001
0010
0100
1000
0010
0000
0110
,
0000
0100
0001
0000
0011
0000
0010
0000
,
0100
0000
1000
0010
0100
1000
0000
0100
,
0000
0100
0010
0000
0101
0000
0100
0000
,
0001
0010
0100
1000
0100
0001
0000
0101
,
0000
0100
1000
0000
1010
0000
0100
0000
,
0001
0000
0010
1000
0010
1000
0000
0010
,
0000
0100
0001
0000
1100
0000
0000
0000
,
1000
0001
0100
0010
0100
0010
1000
0010
,
1000
0000
1000
0001
0000
0001
0010
0100
,
0001
0100
0001
0100
1000
0100
1000
0100
,
1000
0010
1000
0010
0001
0010
0001
0010
,
0100
0010
0100
0001
1000
0000
0100
0010
,
0001
1000
0001
0000
0100
0000
0010
0000
1000
0000
0100
0000
0010
0000
0001
0000
,
1000
0001
0100
0000
0001
0000
1000
0000
0100
0000
0010
0000
0001
0000
1000
0000
,
0010
0000
0100
0010
0200
0000
0302
0000
2003
0000
3200
0000
0320
0000
0032
0000
,
1003
0000
0100
1000
0100
0000
1000
0000
0001
0000
0010
0001
0010
0000
0001
0000
,
0100
0010
1000
0100
0010
0001
0010
0100
,
1000
0000
0010
1000
0010
0000
1000
0000
0001
0000
0100
0001
0100
0000
0001
0000
,
0010
0100
1000
0001
0100
0010
1000
0100
,
0010
0000
0001
0010
0001
0000
0010
0000
0100
0000
1000
0100
1000
0000
0010
0000
,
0100
0001
0010
0100
1000
0001
0100
0010
,
1000
0000
0100
1000
0100
0000
1000
0000
0001
0000
0010
0001
0010
0000
0001
0000
,
0100
0010
1000
0100
0010
0002
1000
1003
,
0001
0000
0001
0100
0001
0000
1000
0000
1000
0100
1000
0000
0001
0000
0010
0000
,
0100
0000
0100
1000
0100
0000
0010
0000
0010
0000
0001
0000
1001
0000
0000
0000
,
1000
0000
1000
0010
1000
0000
0001
0000
0001
0010
0001
0000
1000
0000
0100
0000
,
0010
0000
0010
0001
0010
0000
0100
0000
0100
0000
1000
0000
1001
0000
0000
0000
,
0100
0000
0100
1000
0100
0000
0010
0000
0010
1000
0010
0000
0100
0000
0001
0000
,
1000
0000
1000
0010
1000
0000
0001
0000
0001
0000
0100
0000
0110
0000
0000
0000
,
0010
0000
0010
0001
0010
0000
0100
0000
0100
0001
0100
0000
0010
0000
1000
0000
,
0001
0000
0001
0100
0001
0000
1000
0000
1000
0000
0010
0000
0110
0000
0000
0000
,
0100
0001
0010
0100
1000
0010
0000
0101
,
0000
0100
0010
0000
1010
0000
1000
0000
,
0200
0000
1300
0010
0100
0001
0000
0011
,
0000
0010
0100
0000
2200
0000
3300
0000
,
1000
0100
0010
0001
1000
0002
0000
0203
,
0000
0310
1000
0000
0110
0000
0000
0000
,
0020
0000
0031
0010
0100
1000
0000
0110
,
0000
0001
0010
0000
2200
0000
0000
0000
,
0022
0000
0000
0000
,
0000
0000
3333
0000
;

//---------------dance-single - Renard----------------
#NOTES:
     dance-single:
     Renard:
     Challenge:
     9:
     0.623,0.737,0.236,0.174,0.220:
0000
0000
0000
0000
,
0000
0000
0000
0000
,
0000
0000
0000
0000
,
0000
0000
0000
0000
,
0001
0000
0001
1000
0000
1000
0010
0000
,
0010
0100
0000
0100
0001
0000
0010
0000
,
0100
0000
0100
1000
0000
1000
0100
0000
,
0100
0010
0000
0010
0001
0000
0110
0000
,
0010
0000
0000
0000
1000
0000
0100
0000
0010
0001
0010
0000
0001
0000
1000
0000
,
0010
0100
0010
0000
0110
0000
0010
1000
,
0001
0000
0000
0000
0010
0000
0001
0010
0001
0000
1000
0000
0000
0000
1100
0000
,
0000
0100
0010
0000
1001
0000
0001
0100
,
0010
0000
1010
0000
0011
0000
0010
0100
,
0001
0000
0010
0000
1000
0010
1000
0000
1010
0000
0000
0000
0010
0000
0001
0000
,
0100
0000
0000
0000
0110
0000
0000
0000
0010
0000
1000
0010
1000
0000
0000
0000
,
0010
0000
0100
0001
0100
0000
0000
0000
0011
0000
0000
0000
0001
0000
0010
0000
,
0100
1000
0100
0010
0001
0100
0000
0110
,
0000
0000
0010
0000
1000
0000
0000
0000
1100
0000
0000
0000
0100
0010
0100
0000
,
0010
0000
0000
0000
0001
0000
0100
0000
0010
0000
0001
0000
0000
0000
0010
0100
,
0010
0010
0100
0000
1010
0000
0010
0000
,
1000
0000
0100
0000
0010
0000
0001
0000
0010
0000
1000
0010
1000
0000
1010
0000
,
0000
0000
0010
0000
0001
0010
0001
0000
0101
0000
0000
0000
0010
0100
0010
0000
,
1000
0000
0100
0001
0100
0001
0000
0100
,
0000
0010
1000
0000
0011
0000
0000
0000
,
0001
1000
0010
0100
0010
0100
0001
0100
,
0001
0000
0001
1000
0000
1000
0100
0010
,
1000
0010
1000
0010
0001
0010
0001
0010
,
0001
0100
0001
0100
1000
0100
1000
0100
,
0010
0000
0100
0001
0100
0000
0010
1000
0010
0000
1000
0000
0100
0000
0010
0000
,
0001
0000
1000
0100
1000
0000
0001
0010
0001
0000
1000
0000
0010
0000
0100
0000
,
0001
0000
1000
0100
0010
0000
0001
0010
0100
0000
1000
0000
0001
0000
0100
0000
,
1000
0100
0020
2030
3002
0023
0230
2300
,
3001
0000
0010
0001
0010
0000
0001
0000
1000
0000
0100
1000
0100
0000
1000
0000
,
0010
0100
0001
0010
0100
1000
0100
0010
,
0001
0000
0100
0001
0100
0000
0001
0000
1000
0000
0010
1000
0010
0000
1000
0000
,
0100
0010
0001
1000
0010
0100
0001
0010
,
0100
0000
1000
0100
1000
0000
0100
0000
0010
0000
0001
0010
0001
0000
0100
0000
,
0010
1000
0100
0010
0001
1000
0010
0100
,
0001
0000
0010
0001
0010
0000
0001
0000
1000
0000
0100
1000
0100
0000
1000
0000
,
0010
0100
0001
0010
0100
2000
0001
3001
,
1000
0000
0010
0100
0010
0000
0100
0001
0100
0000
0001
0000
0010
0000
0100
0000
,
1000
0000
0001
0010
0001
0000
0010
0100
0010
0000
0100
0000
1000
0000
0001
0000
,
0100
0000
0010
0100
0010
0000
1000
0100
1000
0000
0100
0010
0100
0000
0010
0001
,
0010
0000
0001
0100
0001
0000
0100
0010
1000
0000
0100
0000
0010
0000
0001
0000
,
1000
0000
0010
0100
0010
0000
0100
0000
0001
0000
0010
0000
0100
0000
1000
0000
,
0001
0000
0010
0001
0010
0000
0001
0000
1000
0000
0100
0000
0010
0000
0001
0010
,
0001
0000
1000
0010
1000
0000
0010
0100
0010
0000
0100
0001
0100
0000
0001
0010
,
0100
0000
0010
0100
1000
0000
0100
0010
0001
0000
1000
0000
0010
0000
0000
0000
,
0010
1000
0100
0010
0001
0100
0000
1010
,
0000
0010
0100
0000
0101
0000
0001
0000
,
0020
0000
0031
0100
0010
1000
0000
1100
,
0000
0100
0010
0000
0022
0000
0033
0000
,
0001
0010
0100
1000
0001
2000
0000
3020
,
0000
0130
0001
0000
0110
0000
0000
0000
,
0200
0000
1300
0100
0010
0001
0000
0110
,
0000
1000
0100
0000
0022
0000
0000
0000
,
2200
0000
0000
0000
,
0000
0000
3333
0000
;

//---------------dance-single - Renard----------------
#NOTES:
     dance-single:
     Renard:
     Medium:
     5:
     0.352,0.387,0.062,0.226,0.000:
0000
0000
0000
0000
,
0000
0000
0000
0000
,
0000
0000
0000
0000
,
0000
0000
0000
0000
,
2000
0000
0000
3002
0000
0000
0203
0000
,
0000
0320
0000
0000
2030
0000
3200
0000
,
0320
0000
0000
0032
0000
0000
0023
0000
,
0000
0230
0000
0000
2300
0000
3002
0000
,
0103
0000
0001
0000
1000
0000
0000
0100
,
1000
0001
0010
0000
0011
0000
0000
0000
,
0010
0000
0100
1000
0000
0001
0000
0100
,
0000
0001
1000
0000
0001
0000
0000
0000
,
0100
0001
1000
0000
,
0100
0010
0001
0000
0010
0000
0000
0000
,
0100
0000
1000
0001
0100
0010
1000
0000
,
0010
1000
0010
0000
1000
0000
0000
0000
,
0001
0000
0100
0000
0001
1000
0000
0100
,
0000
1000
0001
0000
1000
0000
0000
0000
,
0001
0000
0010
0000
0100
1000
0000
0001
,
0000
1000
0001
0000
0100
0000
0000
0000
,
0001
0000
1000
0000
0100
0000
0000
1000
,
0000
0001
0010
0000
0001
0000
0000
0000
,
1000
0000
0010
0000
1000
0000
0000
0001
,
0000
0100
0001
0000
1000
0000
0000
0000
,
0100
1000
0100
1000
0100
1000
0100
1000
,
0100
0000
0000
0100
0000
0000
0100
0000
,
0010
0001
0010
0001
0010
0001
0010
0001
,
0010
0000
0000
0010
0000
0000
0010
0000
,
0001
0100
0001
0100
0001
0100
0001
0100
,
0001
0000
0000
0001
0000
0000
0001
0000
,
1000
0100
1000
0100
1000
0100
1000
0100
,
1000
0000
0000
1000
0000
0000
1000
0000
,
0002
0000
0103
0000
,
0010
1000
0100
0010
0001
1000
0010
0100
,
0002
0000
0203
0000
,
0310
0000
1000
0010
1000
0000
0100
0000
,
0020
0000
0032
0000
,
0103
0000
0001
1000
0100
1000
0001
0000
,
2000
0000
3002
0000
,
0103
0000
0001
0000
1000
0100
1000
0000
,
0001
1000
0010
0100
,
0001
0000
1000
0000
0100
1000
0100
0000
,
1000
0001
0010
0100
,
1000
0001
1001
0000
,
0001
0000
0100
0000
0010
0000
1000
0010
,
1000
0000
0001
0100
0001
0000
1000
0000
,
0100
0000
1000
0000
0001
1000
0001
0000
,
1000
0001
0020
0000
,
0031
0000
0001
0000
0010
0000
0000
0100
,
0000
1000
0100
0000
1100
0000
0000
0000
,
1000
0000
0001
0000
0100
0000
0000
0001
,
0000
1000
1100
0000
,
1000
0000
0001
0000
0010
0000
0000
0001
,
0000
1000
1010
0000
,
1000
0000
0001
0000
0010
0000
0000
0100
,
0000
1000
0010
0000
0100
0000
0000
0000
,
2002
0000
0000
0000
,
0000
0000
0000
0000
,
3003
0000
0000
0000
;

//---------------dance-single - Renard----------------
#NOTES:
     dance-single:
     Renard:
     Easy:
     2:
     0.226,0.238,0.031,0.072,0.000: // measure 1
0000
0000
0000
0000
,  // measure 2
0000
0000
0000
0000
,  // measure 3
0000
0000
0000
0000
,  // measure 4
0000
0000
0000
0000
,  // measure 5
1000
0000
0000
0001
,  // measure 6
0000
0000
0100
0010
,  // measure 7
1000
0000
0000
0001
,  // measure 8
0000
0000
0010
0100
,  // measure 9
1000
0000
1000
0000
,  // measure 10
0001
0100
0101
0000
,  // measure 11
0001
0000
0000
1000
0000
0100
0000
1000
,  // measure 12
0000
0001
1000
0000
,  // measure 13
0001
0000
0100
0000
,  // measure 14
0010
1000
1010
0000
,  // measure 15
1000
0000
0001
0000
,  // measure 16
0010
0001
1000
0000
,  // measure 17
0001
0000
0001
0000
0001
0000
0000
0100
,  // measure 18
0000
0000
0100
0000
,  // measure 19
0010
0000
1000
0000
0010
0000
0000
1000
,  // measure 20
0000
0000
0010
0000
,  // measure 21
1000
0000
1000
0000
1000
0000
0000
0100
,  // measure 22
0000
0000
0010
0000
,  // measure 23
0001
0000
1000
0000
0001
0000
0000
0100
,  // measure 24
0000
0100
0100
0000
,  // measure 25
0010
0010
0010
0010
,  // measure 26
0010
0000
0000
0010
0000
0000
0010
0000
,  // measure 27
0100
0100
0100
0100
,  // measure 28
0100
0000
0000
0100
0000
0000
0100
0000
,  // measure 29
0001
0001
0001
0001
,  // measure 30
0001
0000
0000
0001
0000
0000
0001
0000
,  // measure 31
1000
1000
1000
1000
,  // measure 32
1000
0000
0000
1000
0000
0000
1000
0000
,  // measure 33
0001
0000
1000
0000
,  // measure 34
0001
0100
0001
0000
,  // measure 35
1000
0000
0001
0000
,  // measure 36
1000
0100
1000
0000
,  // measure 37
0001
0010
0200
0000
,  // measure 38
1300
0000
0001
0000
,  // measure 39
0100
0001
1000
0000
,  // measure 40
0001
0010
0100
1000
,  // measure 41
0001
1000
0001
0000
,  // measure 42
0100
0010
0100
0000
,  // measure 43
0001
1000
0001
0000
,  // measure 44
1000
0100
1000
0000
,  // measure 45
0001
0010
0001
0000
,  // measure 46
1000
0010
0100
0000
,  // measure 47
0001
0000
1000
0000
,  // measure 48
0100
1000
0002
0000
,  // measure 49
0013
0001
2000
0000
,  // measure 50
3002
0000
0103
0000
,  // measure 51
0010
0100
0001
0000
,  // measure 52
2000
0000
3100
0000
,  // measure 53
0010
0001
1000
0000
,  // measure 54
0010
0000
0100
0000
,  // measure 55
0001
0000
0000
0000
1000
0000
0000
0100
,  // measure 56
0000
0010
0001
0000
,  // measure 57
2002
0000
0000
0000
,  // measure 58
0000
0000
0000
0000
,  // measure 59
3003
0000
0000
0000
;
