#TITLE:Army of Hardcore;
#SUBTITLE:;
#ARTIST:Rotterdam Terror Corps;
#TITLETRANSLIT:;
#SUBTITLETRANSLIT:;
#ARTISTTRANSLIT:;
#CREDIT:;
#BANNER:army.img;
#BACKGROUND:army-bg.img;
#LYRICSPATH:;
#CDTITLE:;
#MUSIC:army.ogg;
#OFFSET:0.000;
#SAMPLESTART:31.579;
#SAMPLELENGTH:12.000;
#SELECTABLE:YES;
#BPMS:0.000=190.000;
#STOPS:;
#BGCHANGES:;
#GENRE:Hardcore;

//---------------dance-single - Renard----------------
#NOTES:
     dance-single:
     Renard:
     Challenge:
     9:
     0.652,0.723,0.594,0.052,0.156:
0000
0000
0000
0000
,
0000
0000
0000
0000
,
0000
0000
0000
0000
,
0000
0000
0000
0000
,
2001
0000
0100
0000
,
3001
0000
0021
0030
,
0210
0000
0001
0000
,
1000
0000
0002
0303
,
0101
0000
0000
0010
1000
0000
0000
0000
,
0001
0100
0001
1000
,
0100
0000
0000
0010
0001
0000
0000
0000
,
0010
0100
1000
0010
,
0100
0000
0000
0001
0100
0000
0000
0000
,
0010
1000
0001
1000
,
0100
0000
0110
0000
,
0011
0000
1100
0000
,
0011
0000
0000
0010
0100
0000
1000
0000
,
0010
0100
0101
0100
,
0110
0000
0000
0010
1000
0000
0010
0000
,
0100
0001
0100
0010
,
1000
0010
0100
0001
0100
0010
1000
0100
,
0010
0001
0010
0100
1000
0001
0010
0100
,
1000
0001
1000
0010
0100
0001
1000
0100
,
0010
0100
1000
0001
0010
0100
0010
0000
,
0011
1200
0001
0010
,
1300
0000
0000
1000
0100
0000
1000
0000
0010
0000
0000
0000
0100
0000
0000
0000
,
0001
0000
0000
0001
0100
0000
0010
0000
1000
0000
0001
0000
0100
0000
0010
0000
,
1000
0000
0000
1000
0100
0000
0010
0000
0001
0000
0000
0000
0010
0000
0000
0000
,
0100
0000
0000
0100
1000
0000
0010
0000
0100
0000
0001
0000
0100
0000
0010
0000
,
1000
0000
0000
1000
0001
0000
0100
0000
0010
0000
0000
0000
1000
0000
0000
0000
,
0001
0000
0000
0001
1000
0000
0100
0000
0010
0000
0001
0000
0010
0000
0100
0000
,
1000
0000
0000
1000
0100
0000
0010
0000
0001
0000
0000
0000
0010
0000
0000
0000
,
0100
0000
0000
1000
0010
0000
0100
0000
0001
0000
0100
0000
0010
0000
1000
0000
,
0010
0000
0000
0010
0100
0000
0001
0000
0100
0000
0000
0000
0110
0000
0000
0000
,
1000
0000
0000
0001
1000
0000
0001
0000
1000
0000
0010
0000
0100
0000
0001
0000
,
1000
0000
0000
0100
0010
0000
0001
0000
0010
0000
0000
0000
0110
0000
0000
0000
,
1000
0000
0000
0001
1000
0000
0010
0000
0100
0000
0001
0000
0100
0000
0010
0000
,
1000
0000
0000
1000
0010
0000
0100
0000
0001
0000
0000
0000
0101
0000
0000
0000
,
0010
0000
0000
0010
1000
0000
0100
0000
0010
0000
0001
0000
0010
0000
0100
0000
,
1000
0000
0000
1000
0100
0000
0010
0000
0001
0000
0010
0000
0001
0000
0010
0000
,
0001
1000
0000
0000
1000
0001
0001
0001
,
1001
0000
1010
0000
,
0101
0000
0001
1000
0100
0000
0010
0000
,
0011
0000
0010
0000
0100
0000
1000
0010
,
0000
0100
0000
0001
0100
0010
1000
0000
,
0101
0000
1010
0000
,
0101
0000
0010
1000
0100
0000
0000
0000
,
0011
0000
0010
0000
0110
0000
0100
1000
,
0000
0001
0000
0010
0100
0000
1000
0001
,
0100
0000
0110
0000
,
1010
0000
0001
0100
0010
0000
1000
0000
,
1100
0000
0010
0000
0011
0000
0010
0100
,
0000
1000
0000
0001
1000
0000
0010
0100
,
0001
0100
0110
0010
,
1010
0000
0001
0100
0010
0000
1000
0000
,
1100
0000
0011
0000
1100
0000
0001
0010
,
0000
0100
0000
1000
0100
0000
0010
0001
,
1100
0000
0000
0010
0001
0000
0100
0000
0010
0000
0000
0000
1010
0000
0000
0000
,
0101
0000
0000
0001
0100
0000
0010
0000
1000
0000
0100
0000
0010
0000
0001
0000
,
0011
0000
0000
0010
0100
0000
1000
0000
0001
0000
0000
0000
0011
0000
0000
0000
,
1100
0000
0000
1000
0001
0000
0100
0000
0010
0000
1000
0000
0001
0000
0100
0000
,
0110
0000
0000
0010
1000
0000
0010
0000
0100
0000
0000
0000
1001
0000
0000
0000
,
1010
0000
0000
1000
0001
0000
0100
0000
0010
0000
1000
0000
0001
0000
0100
0000
,
0110
0000
0000
0010
1000
0000
0010
0000
1000
0000
0000
0000
1001
0000
0000
0000
,
0100
0000
0000
0010
1000
0000
0010
0000
0100
0000
0001
0000
1000
0000
0100
0000
,
0011
0000
0000
0100
1000
0000
0010
0000
0100
0000
0000
0000
0101
0000
0000
0000
,
1010
0000
0000
1000
0010
0000
0100
0000
0001
0000
0010
0000
0100
0000
1000
0000
,
1100
0000
0000
0100
0010
0000
0001
0000
1000
0000
0000
0000
1100
0000
0000
0000
,
0011
0000
0000
0001
1000
0000
0010
0000
0100
0000
0001
0000
1000
0000
0010
0000
,
0110
0000
0000
0100
0001
0000
0100
0000
0010
0000
0000
0000
1001
0000
0000
0000
,
0101
0000
0000
0001
1000
0000
0010
0000
0100
0000
0001
0000
1000
0000
0010
0000
,
0110
0000
0000
0100
0001
0000
0100
0000
0001
0000
0000
0000
1001
0000
0000
0000
,
0010
0100
0000
0000
1001
0100
0100
0100
,
1001
0000
0000
0000
;

//---------------dance-single - Renard----------------
#NOTES:
     dance-single:
     Renard:
     Hard:
     9:
     0.622,0.685,0.177,0.021,0.000:
0000
0000
0000
0000
,
0000
0000
0000
0000
,
0000
0000
0000
0000
,
0000
0000
0000
0000
,
1000
0000
0100
0000
,
0010
0000
0001
0000
,
1000
0000
2002
0000
,
0010
0000
3103
0000
,
0001
0000
0000
0001
0100
0000
0000
0000
,
0000
0010
1000
0100
,
0010
0000
0000
0010
0001
0000
0000
0000
,
0000
0001
0010
0100
,
1000
0000
0000
1000
0001
0000
0000
0000
,
0100
0000
0010
1000
,
0100
0000
1001
0000
,
0100
0000
1001
0000
,
0001
0000
0000
0001
0100
0000
0010
0000
,
1000
0100
0010
0001
,
0010
0000
0000
0010
0100
0000
1000
0000
,
0010
0100
0001
0100
,
0001
0100
0001
0100
0001
0100
0001
0000
,
0001
1000
0001
1000
0001
1000
0001
0000
,
0001
0010
0001
0010
0100
0010
0100
0010
,
0100
1000
0100
1000
0001
1000
0001
0000
,
1001
0110
1001
0000
,
1000
0100
0010
0001
0010
0000
0100
0000
,
1000
0010
0100
0001
0100
0000
0010
0000
,
1000
0100
1000
0001
0010
0001
0010
0001
,
0100
0001
0100
0010
1000
0100
0010
0001
,
0010
0000
0010
0100
1000
0000
0001
0010
,
0100
0000
1000
0001
0100
0010
1000
0010
,
0100
0000
0100
0001
0100
0000
0010
1000
,
0010
1000
0100
0010
0001
0010
0100
1000
,
0001
0000
0001
0100
0010
1000
1010
0000
,
1000
0000
0100
0010
0001
0010
0011
0000
,
0010
0000
0100
1000
0001
0100
0101
0000
,
0001
0100
0101
0000
0100
0010
0110
0000
,
0010
1000
0100
0010
0001
0010
0100
0000
,
0100
1000
0010
0100
0001
0100
0101
0000
,
0001
0100
0110
0000
0010
1000
1010
0000
,
1100
0000
0011
0000
,
1000
0001
1000
0001
0100
0000
0001
0100
,
0010
1000
0100
0010
0001
0000
0010
0000
,
0100
0000
1000
0000
0001
0000
0010
0001
,
0000
1000
0000
0100
0010
0000
0001
0010
,
0100
0000
1000
0000
0001
0000
0100
0010
,
0000
1000
0010
0100
0001
0000
0100
0000
,
0010
0000
1000
0000
0010
0000
0100
0001
,
0000
0100
0000
0010
1000
0000
0010
0100
,
0001
0000
0001
0100
0010
0000
0010
1000
,
0100
0000
0100
0010
0001
0000
0001
0010
,
0100
0000
0100
1000
0010
0000
0010
0100
,
0001
0000
0001
0100
0010
0000
0010
1000
,
0100
0000
0100
0010
0001
0000
0001
0010
,
0100
0000
0100
1000
0010
0000
0010
0100
,
0001
0000
0001
0100
0010
0000
0010
1000
,
0100
0010
0001
0010
0100
0000
0100
0000
,
1000
0001
1000
0001
1000
0100
1000
0100
,
0010
0100
0010
0001
0010
0100
1000
0001
,
0100
0001
0100
0001
0100
0010
0100
0010
,
1000
0010
1000
0100
0010
0001
0010
0100
,
1000
0100
0010
0001
0010
1000
0010
0100
,
0001
0100
1000
0010
0100
0001
0100
1000
,
0100
1000
0100
0010
0100
0010
0001
0010
,
1000
0010
0100
0001
0100
0010
1000
0100
,
0010
0001
0010
0100
1000
0001
0010
0100
,
1000
0001
0100
0010
1000
0100
1000
0001
,
0010
0001
0100
0001
0100
0010
1000
0100
,
1000
0100
0001
0100
0010
0001
0010
1000
,
0010
0100
1000
0010
0100
0010
0001
0010
,
1000
0010
0100
0010
0100
1000
0100
0001
,
0100
0010
1000
0100
0001
0100
0010
0001
,
0010
0100
1000
0010
0100
0001
1000
0001
,
0110
0000
0000
0000
;

//---------------dance-single - Renard----------------
#NOTES:
     dance-single:
     Renard:
     Medium:
     6:
     0.393,0.647,0.042,0.000,0.000:
0000
0000
0000
0000
,
0000
0000
0000
0000
,
0000
0000
0000
0000
,
0000
0000
0000
0000
,
0000
0000
0000
0000
,
0000
0000
0000
0000
,
0000
0000
1000
0000
,
0001
0000
1000
0000
,
0001
0000
0000
0001
1000
0000
0000
0000
,
0000
1000
0010
0100
,
0001
0000
0000
0001
1000
0000
0000
0000
,
0000
0001
0010
0100
,
1000
0000
0000
1000
0001
0000
0000
0000
,
0000
1000
0100
0010
,
0001
0000
1000
0000
,
0001
0000
1000
0000
,
0001
0000
0100
0000
,
0010
0000
1000
0000
,
0010
0010
1000
0000
,
0001
0001
0100
0000
,
0001
1000
0100
0010
,
0001
0010
0100
1000
,
0001
1000
0001
1000
0001
1000
0001
1000
,
0001
1000
0001
1000
0001
1000
0001
1000
,
0001
0001
1000
0000
,
0001
0001
0100
0100
,
0010
0000
0010
0000
1000
0001
1000
0001
,
1000
1000
0100
0100
,
0010
0000
0010
0000
0001
1000
0001
1000
,
0001
0001
1000
1000
,
0100
0000
0100
0000
1000
0010
1000
0010
,
0100
0100
0001
0001
,
0100
0000
0100
0000
0001
0010
0001
0010
,
0100
0010
0100
0010
,
0100
1000
0100
1000
,
0001
0010
0001
0010
,
0001
0100
0001
0000
1000
0010
1000
0000
,
0001
0001
1000
0100
,
0010
0010
0100
1000
,
0100
0100
0010
0100
,
1000
0000
1000
0000
,
0001
0000
1000
0000
,
0010
0100
0001
0000
,
0100
0000
0010
0000
1000
0000
0010
1000
,
0000
0010
0000
1000
0010
0000
1000
0000
,
0001
0000
0100
0000
,
0001
0010
0100
0000
,
1000
0000
0001
0000
0100
0000
0001
0010
,
0000
0001
0000
0010
0100
0000
1000
0000
,
0001
0001
1000
0000
,
1000
1000
0001
0000
,
0100
0100
0010
0000
,
0100
0100
0010
0100
,
0001
0000
0000
0001
1000
0000
0100
0000
,
0010
0001
0010
0000
,
0100
1000
0001
0100
,
0010
1000
0001
0100
,
0001
0001
1000
1000
,
0010
0000
0100
0000
0001
0000
1000
0001
,
1000
0001
0100
0010
,
1000
0000
0001
0000
1000
0001
1000
0000
,
0010
0100
0001
1000
,
0100
0000
0010
0000
0001
1000
0001
0000
,
1000
0001
1000
0000
0001
1000
0001
0000
,
1001
0000
1001
0000
,
0101
0000
0000
0001
0100
0000
0000
0000
,
0000
0000
0010
0000
1000
0100
1000
0000
,
0001
0000
0000
0001
0010
0000
0000
0000
,
0000
0000
0100
0000
1000
0001
1000
0000
,
0001
0000
0000
0001
0100
0000
0000
0000
,
0000
0000
0010
0000
1000
0001
1000
0000
,
0001
0100
0001
0000
1000
0001
1000
0000
,
1000
0100
1000
0100
1000
0001
1000
0000
,
1001
0000
0000
0000
;

//---------------dance-single - Renard----------------
#NOTES:
     dance-single:
     Renard:
     Easy:
     3:
     0.360,0.418,0.261,0.000,0.000: // measure 1
0000
0000
0000
0000
,  // measure 2
0000
0000
0000
0000
,  // measure 3
0000
0000
0000
0000
,  // measure 4
0000
0000
0000
0000
,  // measure 5
0000
0000
0000
0000
,  // measure 6
0000
0000
0000
0000
,  // measure 7
0000
0000
1000
0000
,  // measure 8
1000
0000
0001
0000
,  // measure 9
1000
0000
1001
0000
,  // measure 10
0000
0001
0100
0010
,  // measure 11
1000
0000
1001
0000
,  // measure 12
0000
1000
0100
0010
,  // measure 13
0001
0000
1001
0000
,  // measure 14
0000
0001
0010
0100
,  // measure 15
1000
0000
0001
0000
,  // measure 16
1000
0000
0001
0000
,  // measure 17
1000
0000
0010
0000
,  // measure 18
0100
0000
0001
0000
,  // measure 19
0100
0100
0001
0000
,  // measure 20
1000
1000
0010
0000
,  // measure 21
1000
0001
0010
0100
,  // measure 22
1000
0100
0010
0001
,  // measure 23
1000
0001
0100
0010
,  // measure 24
1000
0000
0001
0000
1000
0000
0001
1000
,  // measure 25
0001
1000
0001
0000
,  // measure 26
1000
1000
0010
0010
,  // measure 27
0100
0100
0001
1001
,  // measure 28
1001
0001
0010
0010
,  // measure 29
0100
0100
1000
1001
,  // measure 30
1001
1000
0001
0001
,  // measure 31
0010
0010
0001
0101
,  // measure 32
0110
0010
1000
1000
,  // measure 33
0010
0010
1000
1100
,  // measure 34
0110
0100
0010
0100
,  // measure 35
0010
0001
0010
0001
,  // measure 36
1000
0100
1000
0100
,  // measure 37
1000
1000
0001
0001
,  // measure 38
1000
1000
0001
0010
,  // measure 39
0100
0100
0010
0001
,  // measure 40
0010
0010
0100
0010
,  // measure 41
0001
0000
0001
0000
,  // measure 42
1000
0000
0001
0000
,  // measure 43
0100
0010
1000
0000
,  // measure 44
0010
0100
0001
0100
,  // measure 45
0001
0100
0100
0001
,  // measure 46
1000
0000
0010
0000
,  // measure 47
1000
0100
0010
0000
,  // measure 48
0001
1000
0010
1000
,  // measure 49
0100
1000
1000
0001
,  // measure 50
1000
1000
0001
0000
,  // measure 51
0001
0001
1000
0000
,  // measure 52
0010
0010
0100
0000
,  // measure 53
0010
0010
0100
0010
,  // measure 54
1000
0000
0001
0010
,  // measure 55
0100
1000
0100
0000
,  // measure 56
0010
0001
1000
0010
,  // measure 57
0100
0001
1000
0010
,  // measure 58
1000
1000
0001
0001
,  // measure 59
0100
0010
1000
0001
,  // measure 60
1000
1000
0010
0100
,  // measure 61
0001
1000
0001
0001
,  // measure 62
0100
0010
1000
0001
,  // measure 63
0010
0100
1000
1000
,  // measure 64
0001
0001
1000
1001
,  // measure 65
1001
0000
1001
0000
,  // measure 66
1010
0000
1010
0000
,  // measure 67
0000
0100
0001
0001
,  // measure 68
1001
0000
1100
0000
,  // measure 69
0000
0010
0001
1000
,  // measure 70
1001
0000
1010
0000
,  // measure 71
0000
0100
0001
1000
,  // measure 72
1001
0000
0110
0000
,  // measure 73
1001
0000
0110
0000
,  // measure 74
1001
0000
0000
0000
;
