#TITLE:Anubis;
#SUBTITLE:;
#ARTIST:Banzai;
#TITLETRANSLIT:;
#SUBTITLETRANSLIT:;
#ARTISTTRANSLIT:;
#CREDIT:;
#BANNER:anubis.png;
#BACKGROUND:anubis-bg.png;
#LYRICSPATH:;
#CDTITLE:;
#MUSIC:anubis.ogg;
#OFFSET:0.000;
#SAMPLESTART:8.727;
#SAMPLELENGTH:12.000;
#SELECTABLE:YES;
#BPMS:0.000=110.000;
#STOPS:;
#BGCHANGES:;

//---------------dance-single - Renard----------------
#NOTES:
     dance-single:
     Renard:
     Challenge:
     9:
     0.700,0.729,0.433,0.051,0.900:
0000
0000
0000
0000
,
0000
0000
0000
0000
,
0001
0100
0001
0100
0001
0010
0001
0010
0011
0000
0011
0000
0000
0000
0000
0000
,
1000
0100
1000
0100
1000
0010
1000
0010
1010
0000
1010
0000
1001
0000
0000
0000
,
1000
0000
0000
1000
0100
0000
0000
0100
0010
0001
0010
0000
0100
0000
1000
0000
,
0010
0000
0000
0010
0100
0000
0000
0100
0001
1000
0100
0010
0001
0010
0100
0000
,
1000
0000
0000
1000
0001
0000
0000
0001
0100
0010
1000
0000
0100
0000
0010
0000
,
0001
0000
0000
0001
0010
0000
0000
0010
0100
1000
0001
0100
0001
1000
0001
0000
,
1000
0000
0000
1000
0001
0000
0000
0001
0100
0001
1000
0000
0100
0000
0010
0000
,
0001
0000
0000
0001
1000
0000
0000
1000
0010
0100
0001
0010
0100
1000
0001
0000
,
1000
0000
0000
1000
0001
0000
0000
0001
0100
0000
0001
0000
1000
0001
0100
0000
,
0001
0000
0000
0001
1000
0000
0000
0100
0010
0000
0000
0010
0000
0000
0010
0000
,
0100
1000
0001
0100
0001
0000
0000
1001
0000
0101
0000
0001
1000
0000
0000
0000
,
0100
1000
0001
0010
0001
0000
0000
1001
0000
0101
0000
0100
0001
0000
0000
0000
,
0001
1000
0100
0010
0001
0000
0000
0011
0000
0110
0000
0100
1000
0000
0010
0000
,
1000
0001
1000
0100
1000
0000
0002
2000
0000
0000
0000
0000
0010
0000
3003
0000
,
0001
0100
0010
0000
0110
0000
0000
0000
0010
1000
0100
0000
1100
0000
0000
1000
,
0000
1000
0001
0000
0100
0000
0010
0000
1000
0000
0100
0000
0010
0001
0010
0100
,
1000
0001
0100
0000
0101
0000
0001
1000
0000
0100
1000
0000
1001
0000
1000
0001
,
0010
0100
1000
0000
0001
0000
1000
0010
0000
0010
0100
0000
0001
0010
0100
0000
,
1000
0001
0100
0000
0101
0000
0001
1000
0000
0100
1000
0000
1100
0000
1000
0001
,
0010
0001
1000
0000
0101
0000
0001
1000
0000
0100
0010
0000
0001
0010
0100
1000
,
0001
0100
0001
0000
0101
0000
0001
1000
0000
0010
1000
0000
1001
0000
1000
0100
,
0010
0001
0010
0000
0100
0000
1000
0000
0001
0000
1000
0000
1001
0000
0000
0000
,
0001
0000
0100
0000
0001
0000
0100
0000
0000
0000
0000
0000
0010
0000
0000
0000
0000
0000
1000
0000
0000
0100
0000
0000
0010
0000
0000
0001
0000
0000
0000
0000
0000
0011
0000
0000
0000
0000
0000
0010
0000
0000
0100
0000
0000
0000
0000
0000
,
1000
0000
0100
0000
1000
0000
0100
0000
0000
0000
0000
0000
1000
0000
0000
0000
0000
0000
0010
0000
0000
0100
0000
0000
0001
0000
0000
1000
0000
0000
0000
0000
0000
1001
0000
0000
0000
0000
0000
0001
0000
0000
0100
0000
0000
0000
0000
0000
,
0001
0000
1000
0000
0001
0000
1000
0000
0000
0000
0000
0000
0100
0000
0000
0000
0000
0000
1000
0000
0000
0010
0000
0000
0100
0000
0000
0001
0000
0000
0000
0000
0000
1001
0000
0000
0000
0000
0000
1000
0000
0000
0100
0000
0000
0000
0000
0000
,
0010
0000
0001
0000
0010
0000
0001
0000
0000
0000
0000
0000
0010
0000
0000
0000
0000
0000
0100
0000
0000
1000
0000
0000
0001
0000
0000
0100
0000
0000
0001
0000
0000
0000
0000
0000
1001
0000
0000
0000
0000
0000
0000
0000
0000
0000
0000
0000
,
0001
0100
0010
1000
0100
0010
0100
1000
0010
0100
0001
0010
0100
0010
0001
0100
,
0010
1000
0100
0010
0100
1000
0010
0100
0001
0010
0100
0010
0001
0010
0100
1000
,
0001
0100
0010
1000
0100
0010
0001
0100
0010
1000
0100
1000
0001
0010
0100
1000
,
0001
0100
0010
1000
0001
0010
0100
0010
0100
0000
1100
0000
1100
0000
1001
0000
,
0010
0010
1111
0000
,
0100
0000
0100
0000
2200
0011
3300
0000
,
1000
1000
1111
0000
,
0001
0000
0001
0000
0022
1100
0033
0000
,
0001
0000
0100
0100
0010
0000
1000
0000
0100
0000
0010
0010
0100
0000
1000
0000
,
0010
0000
0100
0100
0001
0000
0100
0000
0001
0000
1000
1000
0100
0000
0010
0000
,
0001
0000
0010
0010
0100
0000
1000
1000
0010
0000
0100
0100
0001
0000
0100
0100
,
0010
0000
1000
1000
0100
0000
0010
0010
0001
0010
0100
1000
0001
1000
0001
0000
,
1000
0001
0100
0000
0101
0000
0001
1000
0100
0010
0000
0110
0000
0100
1000
0010
,
0100
0001
0010
0000
0011
0000
0010
0100
1000
0001
0000
0101
0000
0001
1000
0000
,
0100
0010
0001
0000
0011
0000
0010
0100
1000
0001
0000
1001
0000
0001
0100
0000
,
0010
1000
0001
0000
1001
0000
1000
0100
0010
0100
0000
0110
0000
0100
1000
0000
,
0010
0000
1000
0000
0010
0000
1000
0000
0000
0000
0000
0000
0101
0000
0000
0000
0000
0000
0010
0000
0000
1000
0000
0000
0100
0000
0000
0010
0000
0000
0000
0000
0000
0011
0000
0000
0000
0000
0000
0010
0000
0000
0100
0000
0000
1000
0000
0000
,
0001
0000
0100
0000
0001
0000
0100
0000
0000
0000
0000
0000
0110
0000
0000
0000
0000
0000
0010
0000
0000
1000
0000
0000
0100
0000
0000
0010
0000
0000
0000
0000
0000
0110
0000
0000
0000
0000
0000
0100
0000
0000
1000
0000
0000
0010
0000
0000
,
0100
0000
0001
0000
0100
0000
0001
0000
0000
0000
0000
0000
0101
0000
0000
0000
0000
0000
0001
0000
0000
0010
0000
0000
0100
0000
0000
1000
0000
0000
0000
0000
0000
1001
0000
0000
0000
0000
0000
0001
0000
0000
0100
0000
0000
0000
0000
0000
,
0001
0000
1000
0000
0100
0000
1000
0000
0000
0000
0000
0000
1001
0000
0000
0000
0000
0000
0001
0000
0000
0100
0000
0000
0001
0000
0000
1000
0000
0000
0001
0000
0000
1000
0000
0000
0001
0000
0000
0000
0000
0000
1001
0000
0000
0000
0000
0000
,
0001
0001
0100
0100
0010
0000
0000
1000
0000
0100
0000
0010
0001
0000
0000
0000
,
1000
1000
0100
0100
0010
0000
0000
0001
0000
0010
0000
0100
1000
0000
0000
0000
,
0001
0001
0100
0100
0010
0000
0000
1000
0000
0010
0000
0100
0001
0000
0000
0000
,
1000
1000
0100
0100
0010
0000
0000
0001
0000
0010
0100
0000
1000
0000
0001
0000
,
1001
0000
0000
0000
;

//---------------dance-single - Renard----------------
#NOTES:
     dance-single:
     Renard:
     Hard:
     9:
     0.511,0.464,0.085,0.017,0.425:
0000
0000
0000
0000
,
0000
0000
0000
0000
,
1001
0001
0100
0001
1000
0100
1000
0001
,
1001
0000
0001
0000
0100
0000
0010
0000
1000
0000
0000
0001
1000
0000
0001
0000
,
1000
0000
0000
0100
1000
0000
0000
0100
1000
0000
0001
0000
0010
0000
0100
0000
,
1000
0000
0000
0001
0010
0000
0000
0001
0010
0000
0001
0000
1000
0001
1000
0000
,
0001
0000
0000
0100
0001
0000
0000
0100
0001
0000
0100
0000
0010
0000
1000
0000
,
0100
0000
0000
1000
0100
0000
0000
1000
0100
0000
1000
0000
0001
0010
0001
0000
,
1000
0000
0000
0010
1000
0000
0000
0001
0100
0000
0001
0000
1000
0000
0100
0000
,
1000
0000
0000
0001
0010
0000
0000
0001
1000
0000
0010
0000
1000
0100
1000
0000
,
0001
0000
0000
1000
0100
0000
0000
0010
0001
0000
0010
0000
0100
0000
1000
0000
,
0001
0000
0000
0100
0010
0000
0000
1000
0001
0000
0000
0001
0000
0000
0001
0000
,
0100
0000
0001
0000
0100
0000
0000
0001
0000
1000
0000
0100
1000
0000
0000
0000
,
0001
0000
0010
0000
0100
0000
0000
1000
0000
0100
0000
1000
0001
0000
0000
0000
,
0100
0000
0001
0000
1000
0000
0000
0001
0000
0010
0000
0001
1000
0000
0000
0000
,
0010
0000
1000
0000
0001
0000
0000
0100
0000
0001
1000
0000
0001
0000
0000
0000
,
1000
0000
0100
0000
0010
0000
0000
0000
0001
0000
0010
0000
0100
0000
0000
1000
,
0000
1000
0001
0000
0100
0000
0010
0000
1000
0000
0100
0000
0010
0000
0001
0000
,
1000
0000
0010
0000
0100
0000
0000
0000
0001
0000
0010
0000
0100
0000
0000
1000
,
0000
1000
0010
0000
0100
0000
0001
0000
1000
0000
0001
0000
1000
0000
0100
0000
,
0010
0000
0001
0000
1000
0000
0000
0010
0000
0000
1000
0000
0001
0000
0000
0010
,
0000
0001
1000
0010
0100
0001
1000
0100
,
0010
0000
0001
0000
1000
0000
0000
0010
0000
0000
1000
0000
0001
0000
0000
0100
,
0000
0001
1000
0100
1100
0000
1111
0000
,
1000
0000
0010
0000
0100
0000
0001
0100
0001
0100
0000
0001
0000
0100
0001
0000
,
0100
0000
0010
0000
1000
0000
0100
1000
0100
1000
0000
0100
0000
1000
0100
0000
,
1000
0000
0001
0000
0010
0000
0001
1000
0001
1000
0000
0001
0000
1000
0001
0000
,
0100
0000
0010
0000
1000
0000
0001
1000
0100
1000
0001
1000
0010
0000
0000
0000
,
1000
0000
0100
0000
0010
0000
0001
0010
0001
0000
0010
0000
0100
0000
1000
0000
,
0001
0000
0100
0000
0001
0000
0100
0010
0100
0000
0010
0000
1000
0000
0100
0000
,
0010
0000
0001
0000
1000
0000
0100
1000
0100
0000
1000
0000
0010
0000
0100
0000
,
0001
0000
1000
0001
1000
0000
0001
0000
2002
0000
0000
0000
0010
0000
3003
0000
,
0001
0000
0000
0001
0100
0000
0000
0100
0010
0000
0000
1000
0100
0000
0010
0000
,
0001
0000
0000
0001
0010
0000
0000
0010
0100
0000
1000
0000
0010
0000
0100
0000
,
0001
0000
0000
0001
0100
0000
0000
0100
0010
0000
1000
0000
0100
0000
0010
0000
,
0001
0000
0000
0001
1000
0000
0000
1000
0100
0000
1000
0000
0010
0000
0100
0000
,
0001
0000
0000
0001
0100
0000
0000
0100
0010
0000
1000
0000
0100
0000
0010
0000
,
0001
0000
0000
0001
1000
0000
0000
1000
0100
0000
1000
0000
0001
0000
0100
0000
,
0010
0000
0000
0010
1000
0000
0000
1000
0100
0000
1000
0000
0001
0000
0010
0000
,
0001
1000
0010
0100
0001
0100
0010
1000
,
0010
0000
1000
0000
0100
0000
1000
0000
0001
1000
0000
0001
0000
1000
0001
0000
,
0100
0000
0010
0000
1000
0000
0100
0000
0010
0001
0000
0010
0000
0001
0010
0000
,
0100
0000
1000
0000
0010
0000
0100
0000
0001
1000
0000
0001
0000
1000
0001
0000
,
0100
0000
0010
0000
1000
0000
0100
0000
0010
0001
0000
0010
0000
0100
1000
0000
,
0001
0100
0010
1000
0100
1000
0001
0010
,
0011
0000
0010
0000
0100
0000
1000
0000
0010
0000
1000
0001
1000
0000
0001
0000
,
0101
0000
0000
0001
0100
0000
0010
0000
1000
0000
0000
0100
0010
0000
0001
0000
,
0011
0000
0000
0010
0100
0000
1000
0000
0010
0000
0000
0100
0001
0000
1000
0000
,
1001
0000
0000
0001
0100
0000
0000
0100
0010
0000
1000
0000
0100
0000
0010
0000
,
0001
0000
0000
0001
1000
0000
0000
1000
0100
0000
1000
0000
0001
0010
0001
0000
,
1000
0000
0000
1000
0010
0000
0000
0010
0100
0000
0001
0000
0100
0000
0010
0000
,
1000
0000
0000
1000
0001
0000
0000
0001
1000
0000
0100
0000
1000
0000
0001
0000
,
1001
0000
0000
0000
;

//---------------dance-single - Renard----------------
#NOTES:
     dance-single:
     Renard:
     Medium:
     6:
     0.328,0.331,0.059,0.025,0.000:
0000
0000
0000
0000
,
0000
0000
0000
0000
,
1000
0000
0000
0000
0000
0000
0000
1000
,
0001
0001
0100
0010
,
1000
0000
0100
0000
1000
0100
1000
0100
,
0010
0000
0010
0000
0001
0010
0001
0010
,
0001
0000
1000
0000
0001
1000
0001
1000
,
0001
0000
0100
0000
0010
1000
0001
1000
,
0100
0000
1000
0000
0001
0010
0001
1000
,
0001
0000
1000
0000
0001
0100
0001
1000
,
0010
0000
1000
0000
0001
1000
0100
1000
,
0001
1000
0001
1001
,
0001
0100
1000
0000
1000
0100
0001
0000
,
0001
0100
1000
0000
1000
0100
0001
0000
,
0001
0010
1000
0000
1000
0010
0001
0000
,
0001
0010
1000
0000
0010
0000
0011
0000
,
0001
0010
0100
0000
0100
1000
0100
0000
,
1000
0100
1000
0100
,
1000
0010
0100
0000
0001
0100
0001
0000
,
1000
1001
0001
1001
,
0001
0100
0010
0000
1000
0010
0100
0000
,
0001
1000
0100
1000
0001
1000
0001
0000
,
1000
0001
0100
0000
0001
0010
0001
0000
,
1000
0001
0100
0000
0010
0000
0110
0000
,
0010
1000
0010
0000
1000
0100
0010
0001
,
0010
0001
0010
0000
0100
1000
0010
0100
,
0001
0100
0001
0000
1000
0001
0100
0010
,
1000
0100
0010
0000
0001
0010
0001
0000
,
1000
0001
1000
0000
0010
0100
0010
0000
,
1000
0001
1000
0000
0010
0100
0010
0000
,
1000
0001
1000
0000
0010
0100
0010
0000
,
1000
0001
2000
0000
0200
0000
3311
0000
,
1000
1000
1000
0000
,
0001
0001
0001
0000
,
0100
0100
0100
0000
,
0010
0010
0010
0000
,
1000
0000
0001
0000
1000
0000
0001
1000
,
0010
0000
0100
0000
0010
0000
0100
0010
,
1000
0000
0001
0100
0001
0000
1000
0100
,
1000
0001
0010
0001
1000
0000
1001
0000
,
0001
1000
0001
0000
1000
0000
0001
0000
,
0100
0010
0100
0000
0010
0000
0100
0000
,
0001
0100
0001
0000
0100
0000
0001
0000
,
1000
0010
1000
0000
0010
0000
1000
0000
,
0100
0010
0001
0010
,
0100
0000
1000
0000
0010
0000
0200
0300
,
0001
0100
0010
1000
,
0100
0010
0001
1000
,
0001
0000
0100
0000
0001
1000
0001
0000
,
1000
0000
0010
0000
1000
0000
0100
1000
,
0100
0000
1000
0000
0001
0000
0010
0001
,
1000
0000
0001
0000
0100
0000
0001
1000
,
0001
0000
0000
0000
;

//---------------dance-single - Renard----------------
#NOTES:
     dance-single:
     Renard:
     Easy:
     3:
     0.277,0.331,0.136,0.144,0.000: // measure 1
0000
0000
0000
0000
,  // measure 2
0000
0000
0000
0000
,  // measure 3
1001
0000
0000
0000
,  // measure 4
0110
0000
1001
0000
,  // measure 5
1000
0100
0010
0001
,  // measure 6
0010
0100
1000
0001
,  // measure 7
0100
0001
1000
0010
,  // measure 8
0100
0000
0001
0000
1000
0000
0001
1000
,  // measure 9
0001
0100
0010
1000
,  // measure 10
0100
1000
0001
0010
,  // measure 11
0001
1000
0010
0100
,  // measure 12
0001
1000
0001
0000
,  // measure 13
1000
1001
0001
1001
,  // measure 14
0010
0110
0100
0110
,  // measure 15
1000
1001
0001
1001
,  // measure 16
0010
0010
1000
0000
,  // measure 17
1000
1000
0001
0001
,  // measure 18
0100
0100
0100
0100
0100
0100
0100
0000
,  // measure 19
0010
0010
1000
1000
,  // measure 20
0100
0100
0100
0100
0100
0100
0100
0000
,  // measure 21
0010
0010
0001
0001
,  // measure 22
0100
0100
0100
0100
0100
0100
0100
0000
,  // measure 23
0010
0010
1000
1000
,  // measure 24
0100
1000
1001
0000
,  // measure 25
0001
0001
1000
0000
,  // measure 26
1000
1000
0001
0000
,  // measure 27
0100
0100
0010
0000
,  // measure 28
0010
0010
0100
0000
,  // measure 29
0010
0010
0010
0010
,  // measure 30
0100
0100
0100
0100
,  // measure 31
0001
0001
0001
0001
,  // measure 32
1000
1000
1001
0000
,  // measure 33
0002
0000
0000
0000
,  // measure 34
0203
0000
0320
2030
,  // measure 35
3200
0000
0000
0000
,  // measure 36
0320
0000
0032
2003
,  // measure 37
3020
0000
0000
0000
,  // measure 38
0230
0000
0302
2003
,  // measure 39
3200
0000
0000
0000
,  // measure 40
2300
3020
0230
0302
,  // measure 41
1003
0001
1000
0001
1000
0000
1001
0000
,  // measure 42
0010
0100
0010
0100
0010
0000
0110
0000
,  // measure 43
1000
0001
1000
0001
1000
0000
1001
0000
,  // measure 44
0010
0100
0010
0000
0110
0000
1001
0000
,  // measure 45
1000
1000
0100
0010
,  // measure 46
0001
0001
0010
0100
,  // measure 47
1000
1000
0010
0100
,  // measure 48
0001
0001
1000
0001
,  // measure 49
1000
0000
1000
0000
0001
0001
0001
0000
,  // measure 50
1000
0000
1000
0000
0001
0001
0001
0000
,  // measure 51
0100
0000
0100
0000
0010
0010
0010
0000
,  // measure 52
0100
0000
0100
0000
0010
0010
0010
0010
,  // measure 53
0010
0000
0000
0000
;
