#TITLE:Anubis (Black Land Mix);
#SUBTITLE:;
#ARTIST:Banzai remixed by DM Ashura;
#TITLETRANSLIT:;
#SUBTITLETRANSLIT:;
#ARTISTTRANSLIT:;
#CREDIT:;
#BANNER:anubis.png;
#BACKGROUND:anubis-bg.png;
#LYRICSPATH:;
#CDTITLE:;
#MUSIC:anubis.ogg;
#OFFSET:0.000;
#SAMPLESTART:17.455;
#SAMPLELENGTH:12.000;
#SELECTABLE:YES;
#BPMS:0.000=110.000;
#STOPS:;
#BGCHANGES:;

//---------------dance-single - Renard----------------
#NOTES:
     dance-single:
     Renard:
     Challenge:
     10:
     0.768,0.718,0.575,0.062,0.832:
0000
0000
0000
0000
,
0000
0000
0000
0000
,
0102
0000
0103
0001
1000
0100
0010
0001
0000
0001
0010
0100
1000
0010
0100
0000
,
0102
0000
1003
0100
0010
0001
0100
0010
0000
0010
1000
0100
1000
0001
0010
0000
,
0012
0000
0013
0100
1000
0010
0100
0001
0000
0001
1000
0100
1000
0010
0100
0000
,
0120
0000
1030
0100
1000
0001
0010
0001
0000
1000
0010
1000
0001
0000
1001
0000
,
0001
0000
0001
0100
0010
0000
0010
1000
0100
0000
0010
0000
0001
0000
0010
0000
,
0100
0000
0100
1000
0010
0000
0010
0001
0010
0100
1000
0000
1100
0000
0110
0000
,
0101
0000
0001
0010
0100
0000
0100
1000
0010
0000
0100
0000
0001
0000
0010
0000
,
1000
0000
1000
0010
0100
0000
0100
0001
0100
1000
0010
0000
1010
0000
1001
0000
,
1100
0000
0100
1000
0010
0000
0010
0100
0001
0000
0010
0000
0011
0000
0110
0000
,
1100
0000
0100
1000
0010
0000
0010
0100
0001
0000
0010
0000
0011
0000
0110
0000
,
1100
0000
1000
0001
0100
0000
0100
0001
0010
0000
0010
0000
0011
0000
0010
0000
,
0110
0000
0100
1000
0010
0000
0100
0001
1000
0001
1000
0000
1001
0000
0110
0000
,
0010
1000
0010
0000
0011
0000
0000
0000
0010
1000
0100
0000
0101
0000
0000
0100
,
0000
1000
0001
0000
0100
0000
0001
0000
1000
0000
0100
0000
0010
0001
0010
0000
,
1000
0010
1000
0000
1010
0000
0000
0010
0000
0001
0100
0000
0101
0000
0000
0001
,
0000
0100
1000
0000
0100
0000
0010
0000
1000
0000
0100
0000
0001
0100
1000
0000
,
1000
0100
0001
0000
0101
0000
0100
0010
0000
0001
0010
0000
1010
0000
0010
1000
,
0000
0010
0001
0000
0010
0000
0100
0000
1000
0000
0010
0000
0001
0010
0100
1000
,
0100
0001
0100
0000
0101
0000
0001
0100
0000
0010
1000
0000
1010
0000
1000
0100
,
0010
0001
0010
0000
0110
0000
0100
1000
0010
0100
0001
0000
1001
0000
1001
0000
,
0001
0000
0100
0000
0001
0000
0100
0000
0000
0000
0000
0000
0010
0000
0000
0000
0000
0000
1010
0000
0000
0000
0000
0000
1100
0000
0000
0000
0000
0000
0010
0000
0000
0001
0000
0000
0000
0000
0000
1000
0000
0000
0100
0000
0000
0000
0000
0000
,
0010
0000
0001
0000
0010
0000
0001
0000
0000
0000
0000
0000
0010
0000
0000
0000
0000
0000
1100
0000
0000
0000
0000
0000
1010
0000
0000
0000
0000
0000
0100
0000
0000
0001
0000
0000
0000
0000
0000
1000
0000
0000
0010
0000
0000
0000
0000
0000
,
1000
0000
0010
0000
1000
0000
0010
0000
0000
0000
0000
0000
0100
0000
0000
0000
0000
0000
0101
0000
0000
0000
0000
0000
0011
0000
0000
0000
0000
0000
0100
0000
0000
1000
0000
0000
0000
0000
0000
0001
0000
0000
0010
0000
0000
0000
0000
0000
,
0100
0000
1000
0000
0100
0000
1000
0000
0000
0000
0000
0000
0100
0000
0000
0000
0000
0000
0011
0000
0000
0000
0000
0000
0101
0000
0000
0000
0000
0000
0010
0000
0000
1000
0000
0000
0000
0000
0000
0001
0000
0000
0100
0000
0000
0000
0000
0000
,
0001
0000
0100
0000
0001
0000
0100
0000
0000
0000
0000
0000
0001
0000
0000
0000
0000
0000
0000
0000
0000
0000
0000
0000
1111
0000
0000
0000
0000
0000
0000
0000
0000
0000
0000
0000
0001
0000
0000
0000
0000
0000
1000
0000
0000
0100
0000
0000
,
1000
0100
1000
0100
0000
0000
0010
0000
0000
0001
0000
0000
2200
0000
0000
0011
0000
0000
3300
0000
0000
0000
0000
0000
,
1000
0000
0010
0000
1000
0000
0010
0000
0000
0000
0000
0000
1000
0000
0000
0000
0000
0000
0000
0000
0000
0000
0000
0000
1111
0000
0000
0000
0000
0000
0000
0000
0000
0000
0000
0000
1000
0000
0000
0000
0000
0000
0001
0000
0000
0010
0000
0000
,
0001
0010
0001
0010
0000
0000
0100
0000
0000
1000
0000
0000
0022
0000
0000
1100
0000
0000
0033
0000
0000
0000
0000
0000
,
0001
0000
0100
0000
0001
0000
0100
0000
0000
0010
0000
0000
1000
0000
0000
0100
0000
0000
0010
0000
0000
0001
0000
0000
0010
0000
0000
0100
0000
0000
1000
0000
0000
0010
0000
0000
0100
0000
0000
0001
0000
0000
0100
0000
0000
0000
0000
0000
,
0010
0000
1000
0000
0010
0000
1000
0000
0000
0100
0000
0000
0010
0000
0000
0001
0000
0000
0010
0000
0000
0100
0000
0000
1000
0000
0000
0010
0000
0000
0100
0000
0000
0001
0000
0000
0010
0000
0000
0100
0000
0000
1000
0000
0000
0000
0000
0000
,
0001
0100
0010
1000
1010
0000
0000
0000
1000
0100
0010
0001
0011
0000
0000
0010
,
0000
0100
1000
0010
0100
0001
0010
0100
1000
0001
1000
0001
0100
0001
1000
0001
,
1000
0100
0010
0001
0011
0000
0010
0100
1000
0001
0100
0000
0110
0000
0010
1000
,
0100
0010
0001
0000
0011
0000
0010
0000
0100
1000
0001
0100
0010
1000
0001
1000
,
0100
0010
0001
0010
0011
0000
0010
0100
1000
0001
0100
0001
0101
0000
0001
0100
,
0010
1000
0100
0000
1100
0000
1000
0010
0100
0001
0010
0000
0001
0010
0100
1000
,
0001
1000
0001
1000
1001
0000
0001
0100
0010
1000
0100
1000
1100
0000
1000
0010
,
0100
0001
0010
0000
0011
0000
0010
0100
1000
0001
0100
0000
1001
0000
1001
0000
,
1100
0000
0000
0100
0001
0000
0000
0001
0100
0000
0010
0000
0001
0000
0010
0000
,
1000
0000
0000
1000
0010
0000
0000
0010
0100
0000
1000
0000
0010
0001
0010
0000
,
0100
0000
0000
0100
1000
0000
0000
1000
0100
0000
0001
0000
0010
0000
0100
0000
,
1000
0000
0000
1000
0100
0000
0000
0100
0010
0000
0001
0000
0010
0100
1000
0010
,
0001
0000
0001
0010
0100
0000
0100
1000
0100
0000
0001
0000
0010
0000
0100
0000
,
1000
0000
1000
0100
0001
0000
0001
0100
0010
0000
0010
0001
0010
1000
0010
0100
,
1000
0000
1000
0010
0100
0000
0100
0001
0100
0000
0100
1000
0100
0010
0100
0001
,
0100
0000
0100
0001
0010
0000
0010
0100
1000
0100
0001
0000
0110
0000
1100
0000
,
1000
1000
0100
1000
0100
0100
1000
0100
0100
1000
0100
1000
0100
1000
1000
0000
,
0001
0010
0010
0001
0010
0010
0001
0001
0010
0001
0010
0001
0010
0010
0001
0000
,
0100
0100
0010
0100
0010
0010
0100
0010
0010
0100
0100
0010
0100
0100
0010
0000
,
1000
0001
1000
1000
0001
1000
1000
0001
1000
1000
0001
1000
0001
1000
0001
0000
,
1001
0000
0000
0001
0100
0000
0000
0100
0010
0000
1000
0000
1010
0000
1001
0000
,
1100
0000
0000
0100
1000
0000
0001
0000
0011
0000
0110
0000
1100
0000
0000
0000
,
1001
0000
0000
0001
0100
0000
0010
0000
1001
0000
1100
0000
1001
0000
0001
0100
,
0010
0000
1000
0100
0010
0000
0001
0010
0100
1000
0001
0000
1000
0000
0000
0000
,
1111
0000
0000
0000
;

//---------------dance-single - Renard----------------
#NOTES:
     dance-single:
     Renard:
     Hard:
     9:
     0.519,0.479,0.078,0.000,0.408:
0000
0000
0000
0000
,
0000
0000
0000
0000
,
1000
0000
0000
0000
0001
0000
0000
0100
0000
0001
0100
0000
0001
0000
0000
0000
,
1000
0000
0000
0000
0100
0000
0000
1000
0000
0010
1000
0000
0010
0000
1000
0000
,
0001
0000
0000
0000
0100
0000
0000
0001
0000
1000
0001
0000
0010
0000
0001
0000
,
1000
0000
0000
0000
0010
0000
0000
1000
0000
0001
0100
0000
0001
0000
1000
0000
,
0100
0000
0000
0100
1000
0000
0000
1000
0001
0000
0010
0000
0100
0000
1000
0000
,
0010
0000
0000
0010
0100
0000
0000
0100
0001
0000
1000
0000
0100
1000
0100
0000
,
1000
0000
0000
1000
0001
0000
0000
0001
0010
0000
0001
0000
1000
0000
0010
0000
,
1000
0000
0000
1000
0001
0000
0000
0001
0100
0000
0001
0000
1000
0100
1000
0000
,
0001
0000
0000
0001
0010
0000
0000
0010
0100
0000
1000
0000
0010
0000
0100
0000
,
0001
0000
0000
0001
0100
0000
0000
0100
0001
0000
1000
0000
0001
1000
0001
0000
,
1000
0000
0000
1000
0010
0000
0000
0010
1000
0000
0001
0000
0100
0000
0001
0000
,
1000
0000
0000
1000
0100
0000
0000
1000
0001
0000
1000
0000
0001
1000
0001
0000
,
1000
0000
0010
0000
1000
0000
0000
0000
0001
0000
0100
0000
0001
0000
0000
1000
,
0000
0100
1000
0000
0001
0000
0010
0000
0001
0000
1000
0000
0010
0000
0100
0000
,
0001
1000
0100
0000
1000
0001
0100
0000
,
0001
1000
0100
0010
0001
0010
0100
1000
,
0010
1000
0010
0000
1000
0001
0100
0001
,
1000
0100
0010
0001
1000
0001
0100
0001
,
1000
0000
0100
0000
1000
0000
0000
0001
0010
0001
0010
0000
0001
0000
0000
1000
,
0010
1000
0001
0000
0100
0000
0001
0000
1000
0100
0010
0001
1000
0000
0001
0000
,
1000
0000
1000
0000
0001
0000
0100
0000
0001
0000
1000
0001
0000
1000
0001
0000
,
0100
0000
0001
0000
1000
0000
0100
0000
1000
0000
0001
0010
0000
0001
1000
0000
,
0010
0000
1000
0000
0001
0000
0100
0000
0001
0000
1000
0100
0000
1000
0001
0000
,
0010
0000
0001
0000
1000
0000
0010
0000
0100
0000
0001
1000
0000
0001
1000
0000
,
0010
0000
0100
0000
0001
0000
1000
0100
1000
0001
0000
0010
0000
0001
1000
0000
,
0010
0000
1000
0000
0001
0000
0100
0010
1000
0001
0000
1000
0000
0100
1000
0000
,
0001
0000
0010
0000
0001
0000
1000
0010
1000
0001
0000
1000
0000
0100
1000
0000
,
0001
0000
0010
0000
0001
0000
1000
0010
1000
0000
0001
0000
1000
0000
0001
0000
,
1001
0000
0001
0100
0001
0000
1000
0100
1000
0000
0001
0000
0010
0000
0001
0000
,
1000
0010
1000
0001
1000
0001
0100
0001
,
1000
0100
1000
0000
0001
0000
0000
0000
0010
0001
0010
0000
0001
0000
0000
1000
,
0000
0010
1000
0000
0001
0000
0100
0000
0001
0000
1000
0000
0100
0000
0010
0000
,
0001
1000
0001
0000
1000
0000
0001
0000
0100
0010
0100
0000
0010
0000
1000
0000
,
0001
0000
1000
0000
0100
0000
0010
0000
0001
0000
1000
0000
0001
0100
0001
0000
,
0100
0001
0100
0000
0001
0000
1000
0000
0100
1000
0100
0000
1000
0000
0010
0000
,
0100
0000
0001
0000
1000
0000
0100
0000
0010
0000
0001
0000
1000
0001
1000
0000
,
0001
0100
0001
0000
0100
0000
0010
0000
1000
0010
1000
0000
0100
0000
0010
0000
,
0001
0000
0010
0000
0100
0000
1000
0000
0001
0000
0100
0001
0100
0000
0001
0000
,
1000
0000
0000
1000
0100
0000
0000
0100
0010
0000
0001
0000
0010
0000
0100
0000
,
1000
0000
0000
1000
0001
0000
0000
0001
0010
0000
0100
0000
1000
0000
0100
0000
,
0010
0000
0000
0010
0001
0000
0000
0001
1000
0000
0100
0000
0010
0000
0001
0000
,
0010
0000
0000
0010
0100
0000
0000
0100
0010
0000
0001
0000
1000
0100
1000
0000
,
0001
0000
0000
0001
0100
0000
0000
0100
0010
0000
1000
0000
0010
0000
0100
0000
,
0001
0000
0000
0001
0100
0000
0000
0100
0010
0000
1000
0000
0010
0000
0100
0000
,
0001
0000
0000
0001
0100
0000
0000
0100
0010
0000
0100
0000
0001
0000
1000
0000
,
0010
0000
0000
0010
1000
0000
0000
0001
1000
0100
0010
0000
0001
0000
1000
0000
,
1001
0000
0000
0001
0100
0000
0010
0000
1000
0000
0000
0100
0010
0000
0001
0000
,
1001
0000
0000
1000
0100
0000
0010
0000
0001
0000
0000
0010
0100
0000
1000
0000
,
0110
0000
0000
0010
1000
0000
0100
0000
0110
0000
0000
0010
0100
0000
1000
0000
,
0110
0000
0000
0010
0100
0000
0001
0000
0011
0000
0011
0000
0011
0000
0000
0000
,
0010
0000
0000
0010
0100
0000
1000
0000
0010
0000
0100
0000
0001
0000
0100
0000
,
0010
0000
0000
0010
1000
0000
0000
1000
0100
0000
0010
0000
0001
0000
0010
0000
,
0001
0000
0000
0001
1000
0000
0000
1000
0001
0000
0100
0000
0010
0000
1000
0000
,
0100
0000
0000
0100
1000
0000
0000
0001
0010
0001
0010
0000
0001
0000
1000
0000
,
1001
0000
0000
0000
;

//---------------dance-single - Renard----------------
#NOTES:
     dance-single:
     Renard:
     Medium:
     5:
     0.354,0.326,0.225,0.047,0.000:
0000
0000
0000
0000
,
0000
0000
0000
0000
,
1000
0000
1000
0000
1000
0000
1000
0001
,
0100
0000
0100
0000
0100
0000
0001
0010
,
0100
0000
0100
0000
0100
0000
0010
0001
,
0100
0000
0001
0000
1000
0000
0001
0100
,
0001
0000
0001
0000
1000
0100
0010
0001
,
1000
0000
1000
0000
1000
0000
0001
0010
,
0100
0000
0100
0000
0010
0001
1000
0100
,
0010
0000
0010
0000
0100
1000
0001
0010
,
0001
0000
0001
0000
1000
0010
0100
0001
,
1000
0000
1000
0000
0001
0100
0010
1000
,
0001
0000
0001
0000
1000
0100
0010
0001
,
1000
0001
1000
1001
,
0001
0101
0100
0110
,
0010
1000
0100
0010
0001
0000
0001
0000
,
1000
1100
0010
0011
,
0001
0010
0100
0000
0100
1000
0001
0000
,
0100
0101
1000
1010
,
1000
0100
0010
0001
1000
0100
1000
0000
,
0001
0010
0100
0000
0100
1000
0010
0000
,
0100
1001
0110
1001
,
1000
1100
0000
1100
,
0010
0000
0011
0000
0001
1000
0001
0000
,
2002
0000
3013
0000
,
0001
0000
1000
0000
0100
0100
1000
0000
,
0001
0011
1100
0000
,
2002
0000
0000
0000
0010
3013
0000
0000
,
0001
0101
1010
0000
,
1001
0000
0000
0000
0010
0100
0010
0000
,
1000
1010
0001
0101
,
2200
0000
0000
0000
0001
0001
3300
0000
,
0001
1001
0100
0110
,
0010
1000
0001
0100
0001
1000
0100
0010
,
0001
0001
0010
0010
,
0100
1000
0010
0100
0001
0100
0001
0000
,
1000
1100
0010
0011
,
0001
1000
0010
0100
0001
1000
0100
0000
,
1000
1001
0100
0110
,
0010
1000
0001
1000
0001
1000
0001
0100
,
0010
0000
0010
0000
0100
0001
0010
0100
,
1000
0000
1000
0000
0100
0010
0001
1000
,
0001
0000
0001
0000
0100
0010
1000
0100
,
0010
0000
0010
0000
0001
0010
0100
1000
,
0001
0000
0001
0000
0100
0010
1000
0010
,
0100
0000
0100
0000
0010
1000
0001
0010
,
0010
0000
0010
0000
0100
1000
0001
0100
,
0100
0000
0100
0000
0010
1000
0001
0100
,
0001
0000
0001
0000
1000
0100
0010
0001
,
1000
0000
1000
0000
0001
0010
0100
1000
,
0010
0000
0010
0000
0100
0001
1000
0010
,
0100
0000
0100
0000
0001
0010
0100
1000
,
0001
0000
0001
0000
1000
0100
0010
0001
,
1000
0000
1000
0000
0010
0100
0001
0100
,
0010
0000
0010
0000
1000
0100
0010
0001
,
0010
0000
0010
0000
0100
1000
0010
0100
,
0001
0000
0000
0000
;

//---------------dance-single - Renard----------------
#NOTES:
     dance-single:
     Renard:
     Easy:
     1:
     0.147,0.174,0.039,0.000,0.000: // measure 1
0000
0000
0000
0000
,  // measure 2
0000
0000
0000
0000
,  // measure 3
1000
0000
0001
0100
,  // measure 4
0001
0000
1000
0000
,  // measure 5
0100
0000
0010
0001
,  // measure 6
1000
0000
1000
0000
,  // measure 7
0001
0001
0001
0000
,  // measure 8
1000
1000
1000
0000
,  // measure 9
0001
1000
0001
0000
,  // measure 10
1000
0001
1000
0000
,  // measure 11
0010
0000
0010
0010
,  // measure 12
0100
0000
0100
0100
,  // measure 13
0001
0000
0001
0000
,  // measure 14
1000
0000
1000
0001
,  // measure 15
0100
0000
0100
0000
,  // measure 16
0001
0000
0000
0000
,  // measure 17
1000
0000
1000
0000
,  // measure 18
0100
0000
0000
0000
,  // measure 19
0010
0000
0010
0000
,  // measure 20
0001
0000
0000
0000
,  // measure 21
1000
0000
1000
0000
,  // measure 22
0010
0000
0000
0000
,  // measure 23
0100
0000
0110
0000
,  // measure 24
0000
0000
0110
0000
,  // measure 25
0000
0000
1001
0000
,  // measure 26
0000
0000
1001
0000
,  // measure 27
1000
1000
0001
0000
,  // measure 28
0001
0001
1000
0000
,  // measure 29
0010
0010
0100
0000
,  // measure 30
0100
0100
0010
0000
,  // measure 31
0010
0010
0010
0000
,  // measure 32
0100
0000
0001
0000
,  // measure 33
1000
1000
0100
0000
,  // measure 34
0010
0010
0001
0000
,  // measure 35
1000
1000
0001
0000
,  // measure 36
0100
0001
1000
0001
,  // measure 37
1000
0000
0001
0000
,  // measure 38
0100
0000
0010
0000
,  // measure 39
1000
0000
0001
0000
,  // measure 40
0010
0000
0100
0000
,  // measure 41
1000
0000
1000
0001
,  // measure 42
0100
0000
0100
0001
,  // measure 43
0010
0000
0010
0001
,  // measure 44
1000
0000
1000
0100
,  // measure 45
0010
0000
0100
0000
,  // measure 46
1000
0000
0001
0100
,  // measure 47
0010
0000
0010
0000
,  // measure 48
1000
0000
1000
0000
,  // measure 49
0001
0000
0001
0000
,  // measure 50
0100
0000
0100
0000
,  // measure 51
0010
0000
0010
0000
,  // measure 52
1000
0000
1000
0000
,  // measure 53
0001
0000
0001
0000
,  // measure 54
0010
0000
0010
0000
,  // measure 55
0100
0000
0100
0000
,  // measure 56
1000
0000
0001
1000
,  // measure 57
1001
0000
0000
0000
;
