#TITLE:Anthem;
#SUBTITLE:;
#ARTIST:Perdique Darron;
#TITLETRANSLIT:;
#SUBTITLETRANSLIT:;
#ARTISTTRANSLIT:;
#CREDIT:;
#BANNER:;
#BACKGROUND:;
#LYRICSPATH:;
#CDTITLE:;
#MUSIC:anthem.ogg;
#OFFSET:0.000;
#SAMPLESTART:45.140;
#SAMPLELENGTH:12.000;
#SELECTABLE:YES;
#BPMS:0.000=170.139;
#STOPS:;
#BGCHANGES:;
#GENRE:Melodic Trancecore;

//---------------dance-single - Renard----------------
#NOTES:
     dance-single:
     Renard:
     Hard:
     9:
     0.744,0.669,0.076,0.022,0.395:
0000
0000
0000
0000
,
0000
0000
0000
0000
,
0000
0000
0000
0000
,
0000
0000
0000
0000
,
1000
0000
0001
0000
0000
0000
0100
0000
0010
0000
1000
0000
0010
1000
0010
0000
,
1000
0000
0010
0000
0000
0000
0100
0000
0001
0000
0010
0000
0001
0010
0001
0000
,
0010
0000
0001
0000
0000
0000
1000
0000
0001
0000
1000
0000
0001
1000
0001
0000
,
1000
0000
0010
0000
0100
0000
0010
0000
0100
0000
0010
0000
1000
0001
1000
0000
,
0001
0000
0000
0001
0100
0000
0010
0000
1000
0000
0100
0000
0010
0000
0001
0000
,
1000
0000
0000
1000
0001
0000
0100
0000
0010
0000
0000
0000
1001
0000
0000
0000
,
1000
0000
0000
1000
0100
0000
0010
0000
0001
0000
0010
0000
0100
0000
1000
0000
,
0001
0000
0100
0001
0100
0000
0010
0000
1000
0000
0010
1000
0010
0000
1000
0000
,
0100
0000
0010
0000
0001
0000
1000
0000
0001
0100
0001
0100
0001
0000
0100
0000
,
0010
1000
0100
1000
0100
0000
1001
0000
,
1000
0000
0100
0000
0010
0000
0001
0000
1000
0001
1000
0001
1000
0000
0010
0000
,
0100
0001
1000
0100
0010
0000
1001
0000
,
1000
0100
0001
0100
1000
0010
0001
0010
,
0000
0010
0100
0001
0100
1000
0100
0001
,
0100
0010
1000
0100
0000
0100
0010
0001
,
0010
1000
0010
0100
0000
0100
1000
0100
,
0001
0100
1000
0010
0000
0010
0100
0001
,
0100
1000
0100
0001
0010
0100
0010
0001
,
1000
0001
1000
0010
0100
0001
0100
1000
,
0100
0001
0010
1000
0010
1000
0010
0100
,
1000
0100
0010
0001
0010
0001
0100
1000
,
0100
1000
0100
1000
0100
0010
0001
0010
,
1000
0100
0010
0100
0010
0001
0010
1000
,
0010
1000
0010
0100
1000
0010
0100
0001
,
0100
1000
0100
0001
0010
0100
0010
0100
,
0001
0100
1000
0010
0100
0001
0100
1000
,
0100
0001
0010
1000
0010
0001
0010
0100
,
1000
0100
1000
0001
1001
0000
0000
0000
,
1000
0000
0001
1000
0001
0000
1000
0000
0010
0000
0100
0000
0010
0000
0100
0000
,
0001
0000
1000
0001
1000
0000
0001
0000
0100
0000
0010
0000
0100
0000
0010
0000
,
1000
0000
0001
1000
0001
0000
1000
0000
0010
0000
0100
0000
0010
0000
0100
0000
,
0001
0000
1000
0001
1000
0000
0001
0000
0100
0000
0010
0000
0100
0000
0000
0000
,
0010
0000
0100
0010
0100
0000
0010
0000
1000
0000
0001
0000
1000
0000
0001
0000
,
0100
0000
0010
0100
0010
0000
1000
0000
0001
0000
1000
0000
0001
0000
1000
0000
,
0010
0000
0100
0010
0100
0000
0010
0000
1000
0000
0001
0000
1000
0000
0001
0000
,
0100
0000
0010
0100
0010
0000
1000
0000
0001
0000
1000
0000
0001
0000
0000
0000
,
1000
0000
1000
0001
0000
0001
0100
0000
0100
0010
1000
0010
,
1000
0000
1000
0001
0000
0001
0100
0000
0100
0001
0010
0001
,
0010
0000
0010
0100
0000
0100
1000
0000
1000
0100
0000
0100
,
0010
0000
0010
0001
0000
0001
1000
0000
1000
0001
0000
0001
,
0100
0000
0100
0010
0000
1000
0100
0000
0010
0001
0000
0010
,
0100
0000
1000
0001
0000
0010
0100
0000
1000
0010
0000
0100
,
0001
0000
0100
0001
0000
0100
0010
0000
0100
0010
0000
1000
,
0010
0000
1000
0001
0000
1000
0001
0000
0000
1001
0000
0000
,
0001
0000
0010
0001
0000
0010
0100
0000
0010
0100
0000
0010
,
0100
0000
1000
0100
0000
1000
0010
0000
1000
0010
0000
0100
,
0001
0100
0001
0100
0010
0100
0010
0100
,
0010
1000
0100
0010
0001
0010
0100
1000
,
0010
0010
0100
0001
0100
0010
1000
0100
,
0010
0010
0001
0010
0100
1000
0001
0001
,
0100
0000
0100
0010
0000
1000
0100
0000
0010
0001
0000
0010
,
0100
0000
0100
1000
0000
0010
0100
0000
0000
1001
0000
0000
,
0001
0000
0100
0000
0000
0000
0010
1000
0010
0000
0100
0000
0001
0000
0000
0000
,
0010
0000
0001
0000
0000
0000
1000
0100
1000
0000
0001
0000
0010
0000
0000
0000
,
0100
0000
1000
0010
0100
0000
0001
0100
,
0010
0000
0000
0000
0010
0000
1000
0000
0010
0000
1000
0001
1000
0000
0001
0000
,
1000
0000
0010
0000
0000
0000
0100
0001
0100
0000
0010
0000
1000
0000
0000
0000
,
0100
0000
0010
0000
0000
0000
0001
0010
0001
0000
0010
0000
0100
0000
1000
0000
,
0001
0000
0001
0100
0010
0000
0010
1000
,
0100
0000
1000
0001
1000
0000
0001
0000
0100
0000
0010
0000
1000
0000
0000
0000
,
2002
0000
0000
0000
,
3003
0000
0000
0000
;

//---------------dance-single - Renard----------------
#NOTES:
     dance-single:
     Renard:
     Medium:
     7:
     0.481,0.555,0.238,0.000,0.000:
0000
0000
0000
0000
,
0000
0000
0000
0000
,
0000
0000
0000
0000
,
0000
0000
0000
0000
,
1000
0001
0000
1000
0001
1000
0001
1000
,
0010
0100
0000
0010
0100
0010
0100
0010
,
1000
0010
1000
0010
1000
0000
0010
0000
,
0100
0001
0100
0001
0100
0000
1001
0000
,
1000
0000
0100
1000
0000
1000
0100
0000
,
0010
0001
0010
0001
,
0100
0000
0001
0100
0000
0100
0001
0000
,
0100
0010
1000
0010
,
1000
0000
0001
1000
0000
1000
0001
0000
,
0100
0010
0100
0010
,
1000
0000
0100
1000
0000
1000
0100
0000
,
0010
0001
0010
1001
,
1000
0000
1000
0100
0000
0100
0010
0000
,
0001
0100
0010
1000
,
0001
0000
0001
0100
0000
0100
0001
0000
,
1000
0100
0010
1001
,
0001
0000
0001
0100
0000
0100
0010
0000
,
1000
0100
0010
0001
,
1000
0000
1000
0001
0000
0001
0100
0000
,
0010
1000
0100
1001
,
1000
0001
0100
0010
,
1000
0001
1000
0001
1000
0001
1000
0001
,
1000
0010
0100
0001
,
0010
0100
0010
0100
0010
0100
0010
0100
,
1000
0001
0100
0010
,
1000
0001
1000
0001
1000
0001
1000
0001
,
0010
0100
1000
0010
,
0100
0010
0100
0010
0100
0000
0000
0000
,
0010
0010
1000
1000
,
0001
0001
0100
0100
,
0001
1000
0001
1000
0001
1000
0001
1000
,
0001
1000
0001
1000
0001
0000
1001
0000
,
0010
0010
0100
0001
,
1000
1000
0100
0100
,
0010
0100
0010
0100
0010
0100
0010
0100
,
0010
0100
0010
0100
0010
0000
0110
0000
,
0100
1000
0010
0100
,
0001
0010
0100
0010
,
1000
0001
0100
0010
,
0100
0100
0010
0010
,
0100
1010
0100
0011
,
1000
0011
0100
0011
,
0010
1001
0010
0100
,
0010
1001
0010
0100
,
0010
0010
1000
1000
,
0010
0100
0001
0010
,
0001
0000
1000
0001
1000
0000
0001
1000
,
0001
0000
1000
0001
1000
0000
0001
0000
,
0010
1100
0010
0101
,
0010
1100
0010
0101
,
0001
0001
1000
1000
,
0100
0011
0100
1010
,
1001
0000
0000
0100
0010
0000
1000
0010
,
0100
0000
0000
0001
0010
0000
0000
0000
,
1001
0000
0000
0100
0010
0000
1000
0010
,
0100
0000
0000
0001
0010
0000
0000
0000
,
1001
0000
0000
0001
0100
0000
0001
1000
,
0100
0000
0000
0010
0001
0000
1000
0000
,
0101
0000
0000
0010
1000
0000
0000
0001
,
0100
0000
0001
1000
0001
0000
0100
0000
,
0010
0000
0000
0000
;

//---------------dance-single - Renard----------------
#NOTES:
     dance-single:
     Renard:
     Easy:
     2:
     0.262,0.317,0.043,0.065,0.000:
0000
0000
0000
0000
,
0000
0000
0000
0000
,
0000
0000
0000
0000
,
0000
0000
0000
0000
,
1000
2000
0000
0000
,
3010
0020
0000
0000
,
0130
0200
0000
0000
,
0301
0002
0000
0000
,
1003
1000
1000
0000
,
0001
0000
0001
0000
,
0100
0100
0100
0000
,
0010
0000
0010
0000
,
1000
0001
1000
0000
,
0001
0000
1000
0000
,
0010
0100
0010
0000
,
0100
0010
0100
0000
,
0010
0010
0010
0000
,
0100
0000
0100
0000
,
0001
0001
0001
0000
,
1000
0000
1000
0000
,
0001
0100
1000
0000
,
0010
0001
0100
0000
,
0001
0010
1000
0000
,
0100
0001
1000
0010
,
1000
0000
1000
0000
,
0001
0000
0001
0000
,
0010
0000
0010
0000
,
0100
0000
0100
0000
,
1000
0000
1000
0000
,
0010
0000
0010
0000
,
0100
0000
0100
0001
,
0001
0000
1000
0000
,
0001
0001
0100
0000
,
0010
0010
1000
0000
,
0100
0010
0001
0000
,
1000
0000
0100
0000
,
0010
0001
0011
0000
,
1000
0100
1100
0000
,
1000
0000
0000
0000
,
0010
0000
0000
0000
,
0100
0100
0100
0000
,
0001
0001
0001
0000
,
1000
1000
1000
0000
,
0010
0010
0010
0000
,
0100
0100
0100
0000
,
0001
1000
0001
0000
,
0100
0000
0100
0000
,
0010
0000
0010
0000
,
1000
1000
1000
0000
,
0001
0001
0001
0000
,
0100
0000
0100
0000
0010
0000
0010
0010
,
1000
1000
1000
0000
,
0001
0000
0001
0000
,
0010
0000
0000
0010
0010
0000
0000
0000
,
0100
0000
0100
0000
,
1000
0010
0101
0000
,
0010
0010
0010
0000
,
1000
0100
0010
0000
,
0001
0001
0100
0100
,
0001
1000
0100
0000
,
0010
0000
0001
0000
,
1000
0010
0100
0000
,
0001
1000
0001
0000
,
0100
0010
0100
0000
,
2002
0000
0000
0000
,
3003
0000
0000
0000
;

//---------------dance-single - Renard----------------
#NOTES:
     dance-single:
     Renard:
     Challenge:
     10:
     0.836,0.880,0.249,0.076,0.547: // measure 1
0000
0000
0000
0000
,  // measure 2
0000
0000
0000
0000
,  // measure 3
0000
0000
0000
0000
,  // measure 4
0000
0000
0000
0000
,  // measure 5
1000
2000
0000
0001
0001
0010
0010
0100
,  // measure 6
3100
0200
0000
0010
0010
1000
1000
0001
,  // measure 7
0301
0000
0000
0100
1000
0100
1000
0000
0000
1000
0000
0000
0100
0000
0000
0100
0000
0000
0010
0000
0000
0010
0000
0000
,  // measure 8
0001
0002
0000
1000
1000
1003
0000
0000
,  // measure 9
0010
0100
0110
0010
1000
0100
0110
0010
,  // measure 10
0001
0100
0101
0100
0010
1000
1010
1000
,  // measure 11
0100
0000
0000
1000
0100
1000
0100
0000
0000
0010
0000
0000
0001
0000
0000
0100
0000
0000
0101
0000
0000
0100
0000
0000
,  // measure 12
0010
0010
0110
0100
0001
0010
0011
0010
,  // measure 13
1000
0010
0110
0100
1000
0010
0100
0001
,  // measure 14
0100
0010
0110
0010
1000
0100
0010
0001
,  // measure 15
0100
0000
0000
0001
0100
0001
0100
0000
0000
0010
0000
0000
1000
0000
0000
0010
0000
0000
0001
0000
0000
0010
0000
0000
,  // measure 16
0100
0010
0110
0100
0001
1000
1001
0000
,  // measure 17
1000
0000
0010
1000
0010
0000
1000
0000
0010
0000
0100
0000
0001
0000
0010
0000
,  // measure 18
0001
0000
0100
0001
0100
0000
0001
0000
0010
0000
0100
0010
0100
0000
0010
0000
,  // measure 19
0100
0000
1000
0010
1000
0000
0010
0000
0100
0000
0001
0000
0010
0000
0001
0000
,  // measure 20
1000
0000
0001
1000
0001
0000
1000
0000
0010
0000
0100
0010
0100
0000
0010
0000
,  // measure 21
1000
0000
0010
1000
0010
0000
1000
0000
0001
0000
0100
0000
0001
0000
0010
0000
,  // measure 22
0100
0000
0010
0100
0010
0000
0100
0000
1000
0000
0010
1000
0010
0000
1000
0000
,  // measure 23
0010
0000
0100
0001
0100
0000
0001
0000
0010
0000
0100
0000
1000
0000
0001
0000
,  // measure 24
0100
0000
0010
0100
0010
0000
1000
0000
0010
0000
1000
0000
0001
0000
1000
0001
,  // measure 25
1000
0000
1000
0010
0000
0010
0100
0000
0001
0000
0010
0000
0100
0000
1000
0000
,  // measure 26
0001
0000
0001
0100
0000
0100
0010
0000
1000
0000
0100
0000
0010
0000
0001
0000
,  // measure 27
0010
0000
0010
0100
0000
0100
1000
0000
0010
0000
0100
0000
0001
0000
0010
0000
,  // measure 28
0001
0000
1000
0001
1000
0000
0001
1000
0001
0000
1000
0001
1000
0000
0001
0000
,  // measure 29
1000
0000
0010
0000
0100
0000
0001
0010
0000
0010
0001
0000
0100
0000
0010
0000
,  // measure 30
1000
0000
0100
0010
0000
0010
0001
0000
0010
0000
0100
1000
0000
1000
0010
0000
,  // measure 31
0100
0000
0001
0000
0010
0000
0100
1000
0000
1000
0010
0000
0100
0000
0001
0000
,  // measure 32
0100
0000
0010
1000
0001
0000
1000
0000
1001
0000
0000
0000
0000
0000
0000
0000
,  // measure 33
1000
0010
0000
0100
0001
0010
0100
1000
,  // measure 34
0010
0100
0000
0001
0100
0010
1000
0001
,  // measure 35
0100
0000
0000
0001
0100
0001
0100
0000
0000
0010
0000
0000
1000
0000
0000
0100
0000
0000
0010
0000
0000
0001
0000
0000
,  // measure 36
0010
0100
0000
1000
0001
0100
0010
1000
,  // measure 37
0100
0010
0000
0001
0010
0100
1000
0010
,  // measure 38
0100
0001
0000
0100
0010
1000
0100
0010
,  // measure 39
0001
0000
0000
1000
0001
1000
0001
0000
0000
1000
0000
0000
0010
0000
0000
0100
0000
0000
0001
0000
0000
0010
0000
0000
,  // measure 40
0100
0010
0000
0010
0001
1000
1001
0000
,  // measure 41
1000
0100
0010
0001
0010
0100
1000
0000
0000
0110
0000
0000
,  // measure 42
0001
0010
0100
1000
0100
0010
0001
0000
0000
0110
0000
0000
,  // measure 43
1000
0010
0100
0001
0010
0100
0010
0000
0000
0110
0000
0000
,  // measure 44
0100
1000
0010
0100
0001
0010
0100
0000
0000
0110
0000
0000
,  // measure 45
1000
0100
0010
0001
0010
0100
1000
0000
0000
0110
0000
0000
,  // measure 46
0001
0010
0100
1000
0100
0010
0001
0000
0000
0110
0000
0000
,  // measure 47
1000
0010
0100
0001
0100
0010
1000
0000
0000
0110
0000
0000
,  // measure 48
0001
0100
0010
1000
0010
0100
0001
0000
0000
1001
0000
0000
,  // measure 49
1000
0000
1000
0100
0000
0100
0001
0000
0001
0010
0000
0010
,  // measure 50
1000
0000
1000
0100
0000
0100
1000
0000
1000
0001
0000
0001
,  // measure 51
0100
0100
0001
0001
0010
0010
1000
1000
,  // measure 52
0100
0100
0001
0001
0100
0100
0010
0010
,  // measure 53
1000
1000
0001
0001
0010
0010
0100
0100
,  // measure 54
1000
1000
0001
0001
0100
0100
0010
0010
,  // measure 55
1000
0000
1000
0100
0000
0100
0001
0000
0001
0010
0000
0010
,  // measure 56
1000
0000
1000
0100
0000
0100
1000
0001
1000
0001
0000
0000
,  // measure 57
1000
0000
0001
0000
0000
0000
1000
0010
1000
0000
0010
0000
0100
0000
0001
0000
,  // measure 58
0010
0000
0100
0000
0000
0000
0010
0001
0010
0000
0001
0000
1000
0000
0010
0000
,  // measure 59
0100
0000
0001
0100
0001
0000
0100
0010
0100
0000
0010
0000
1000
0000
0100
0000
,  // measure 60
0010
0000
0001
0010
0001
0000
0010
0100
0010
0000
0100
0000
1000
0000
0010
0000
,  // measure 61
0100
0000
0001
0000
0100
0000
0010
1000
0010
0000
1000
0000
0010
0000
0100
0000
,  // measure 62
0001
0000
0010
0000
0100
0000
1000
0001
1000
0000
0001
0000
1000
0000
0010
0000
,  // measure 63
0100
0000
0001
0100
0001
0000
0100
0010
0100
0000
0010
1000
0010
0000
1000
0000
,  // measure 64
0100
0000
0010
0001
0010
0000
0100
0010
0100
0000
1000
0000
0011
0000
0000
0000
,  // measure 65
2222
0000
0000
0000
,  // measure 66
3333
0000
0000
0000
;
