#TITLE:Animal Technics;
#SUBTITLE:;
#ARTIST:Kitsune²;
#TITLETRANSLIT:;
#SUBTITLETRANSLIT:;
#ARTISTTRANSLIT:;
#CREDIT:;
#BANNER:animal.png;
#BACKGROUND:animal-bg.png;
#LYRICSPATH:;
#CDTITLE:;
#MUSIC:animal.ogg;
#OFFSET:0.000;
#SAMPLESTART:42.895;
#SAMPLELENGTH:12.000;
#SELECTABLE:YES;
#BPMS:0.000=145.066;
#STOPS:;
#BGCHANGES:;

//---------------dance-single - Renard----------------
#NOTES:
     dance-single:
     Renard:
     Challenge:
     11:
     0.874,1.000,0.732,0.000,1.000:
0000
0000
0000
0000
,
0001
1000
0000
1100
0000
0000
1000
0000
0001
0000
0100
0000
1001
0000
0000
0000
,
0001
0100
0000
1010
0000
0000
1001
0000
0000
0000
0000
0000
1000
0100
0000
0000
,
1000
0001
0000
1001
0000
0000
0000
0000
0001
0000
0100
0000
0101
0000
0000
0000
,
0001
1000
0000
1100
0000
0000
0011
0000
0000
0000
0000
0000
1001
0000
0000
0000
,
0001
0100
0000
0110
0000
0000
0010
0000
1000
0000
0100
0000
1100
0000
0000
0000
,
1000
0001
0000
0101
0000
0000
1001
0000
0000
0000
0000
0000
1100
0000
0000
0000
,
0001
0010
0000
0011
0000
0000
0000
0000
0100
0000
1000
0000
1100
0000
0000
0000
,
1000
0010
0000
1010
0000
0000
1001
0000
0000
0000
0000
0000
1100
0000
0000
0000
,
1000
0001
0100
0010
,
1010
0000
0000
0000
1000
0000
0000
0000
0100
0010
0001
0010
0100
1000
0001
0100
,
0010
1000
0010
1000
0000
0000
0010
0000
1000
0000
0000
0100
1000
0000
0001
0000
,
0010
0000
0000
0100
1000
0000
0010
0000
1000
0010
0100
0001
0010
0100
1000
0001
,
0100
0010
1000
0100
0000
0000
0000
0000
0000
0000
0000
0000
0000
0000
0000
0000
,
1000
0100
0010
0001
0010
0000
0000
0000
0000
0000
0100
1000
0010
0100
0001
0100
,
0010
1000
0100
0010
0001
0010
0100
1000
0010
0100
0001
0010
0100
1000
0001
0100
,
0001
1000
0100
1000
0001
0010
0001
1000
0010
0100
0001
1000
0010
1000
0100
1000
,
0001
1001
1100
1001
,
0101
0000
0000
0000
0001
0000
0000
0000
1000
0100
0010
0001
0010
0100
1000
0010
,
0100
0000
0001
0100
0000
0000
0000
0000
0010
0000
0000
0000
1000
0000
0000
0000
,
0100
1000
0001
1000
,
0001
0100
0010
1000
0100
0010
0001
0100
0010
1000
0100
1000
0001
0010
0100
1000
,
0001
0100
0010
1000
0100
1000
0001
0010
0001
1000
0010
0100
0001
1000
0100
1000
,
0001
0010
0100
1000
0001
0100
0010
1000
0100
0010
0001
0010
0100
1000
0001
0100
,
0010
0000
0000
1000
0000
0000
0100
0000
0000
0010
0000
0000
0001
0000
0000
0010
0000
0000
0100
0000
0000
1000
0000
0000
0001
0000
0010
0000
0001
0000
1000
0000
0100
0000
1000
0000
0001
0000
0010
0000
0001
0000
1000
0000
0100
0000
1000
0000
,
0001
0100
0000
0001
1000
0000
0001
0000
1000
0000
0100
0000
1000
0000
0001
0000
,
1000
0001
0100
0000
0101
0000
1001
0000
,
1000
0000
0100
0000
0010
0000
0000
0010
0100
0000
1000
0000
0010
0000
1000
0000
,
0001
1000
0000
1001
0000
0000
1000
0000
0100
1000
0000
1001
0000
0000
1000
0000
,
0100
0000
0010
0000
0001
0010
0000
0100
0000
1000
0001
0100
0010
0000
1000
0000
,
0001
1000
0100
0000
1001
0000
1100
0000
,
1001
0000
0000
1000
0010
0000
0100
0000
0110
0000
0000
0010
1000
0000
0001
0000
,
0100
0001
0000
0101
0000
0000
0001
1000
0100
1000
0000
1100
0000
0000
1000
0000
,
0001
0000
0010
0000
0001
1000
0000
0010
0000
1000
0001
1000
0100
0000
0000
0000
,
1100
1001
1010
1100
,
0110
0000
0000
0010
0001
0000
0010
0000
0110
0000
0000
0100
1000
0000
0010
0000
,
1000
0001
0000
1001
0000
0000
0001
0000
0100
0001
0000
0101
0000
0000
0001
0000
,
1000
0000
0100
0000
1000
0001
0000
0010
0000
0100
1000
0001
0100
0010
1000
0100
,
1000
1100
1001
0101
,
1001
0000
0000
0001
0100
0000
0010
0000
0110
0000
0000
0010
1000
0000
0100
0000
,
1000
0001
0000
1001
0000
0000
1000
0000
0100
1000
0000
1100
0000
0000
1000
0000
,
0001
0000
0010
0000
0100
1000
0000
0010
0000
1000
0001
1000
0001
0000
0100
0000
,
0001
0000
0000
0000
0000
0000
1000
0000
0100
0000
1000
0000
0100
0000
0000
0000
0000
0000
0010
0000
0001
0000
0010
0000
0001
0000
0000
1000
0000
0000
1000
0000
0000
0001
0000
0000
0100
0000
0000
0100
0000
0000
0001
0000
0000
0010
0000
0000
,
0001
0000
0000
1000
0100
1000
0100
0000
0000
0010
0001
0010
0001
0000
0000
1000
0010
1000
0010
0000
0000
0100
0001
0100
,
0001
0000
0000
0001
0000
0000
1000
0000
0000
0000
0000
0000
1000
0000
0000
0000
0000
0000
0010
0000
1000
0000
0010
0000
0100
0000
0000
0100
0000
0000
0001
0000
0000
0010
0000
0000
0010
0000
0000
0001
0000
0000
1000
0000
0000
0100
0000
0000
,
0010
0000
0000
0010
0000
0000
0001
0000
0000
1000
0000
0000
1000
0000
0000
0100
0000
0000
0010
0000
0000
0001
0000
0000
1000
0000
0100
0000
1000
0000
0100
0000
1000
0000
0100
0000
1000
0000
0100
0000
1000
0000
0100
0000
0000
0000
0000
0000
,
1000
1000
0010
0100
0001
0010
0100
1000
0001
0001
0100
0010
1000
0100
0010
0001
,
0010
0010
0100
1000
0010
0100
0001
0100
0010
0010
1000
0100
0010
0001
0010
0100
,
1000
0010
1000
0001
1000
0010
1000
0001
1000
0100
1000
0001
0010
0100
1000
0001
,
0100
0100
0010
1000
0100
0010
0001
0010
0100
0100
1000
0010
0100
0001
1000
0100
,
0010
0001
0000
1100
0000
0000
0000
0000
0000
0000
0000
0000
1001
0000
0000
0000
,
0001
0100
0000
0110
0000
0000
1010
0000
0000
0000
0000
0000
1001
0000
0000
0000
,
1000
0100
0000
1100
0000
0000
0001
0000
0010
0000
0100
0000
0110
0000
0000
0000
,
0100
1000
0000
1010
0000
0000
1001
0000
0000
0000
0000
0000
1100
0000
0000
0000
,
1000
0001
0000
0101
0000
0000
0001
0000
1000
0000
0100
0000
1100
0000
0000
0000
,
1000
0001
0000
0011
0000
0000
1001
0000
0000
0000
0000
0000
1010
0000
0000
0000
,
1000
0100
0000
1100
0000
0000
1000
0000
0001
0000
0100
0000
0101
0000
0000
0000
,
0001
1000
0000
1100
0000
0000
0011
0000
0000
0000
0000
0000
1001
0000
0000
0000
,
1001
0110
0000
1001
0000
0000
0000
0000
0000
0000
0000
0000
0000
0000
0000
0000
;

//---------------dance-single - Renard----------------
#NOTES:
     dance-single:
     Renard:
     Hard:
     9:
     0.675,0.680,0.173,0.000,0.600:
0000
0000
0000
0000
,
1000
0001
0000
1000
0000
0000
0001
0000
0100
0000
0010
0000
1000
0000
0000
0000
,
0100
0010
0000
0001
0000
0000
1000
0000
0000
0000
0000
0000
0101
0000
0000
0000
,
0001
1000
0000
0100
0000
0000
1000
0000
0001
0000
0010
0000
0001
0000
0000
0000
,
1000
0010
0000
1000
0000
0000
0001
0000
0000
0000
1000
0000
0100
0000
0010
0000
,
0001
0010
0000
0001
0000
0000
0000
0000
1000
0000
0001
0000
0100
0000
0000
0000
,
0010
1000
0000
0001
0000
0000
1000
0000
0000
0000
0100
0000
0010
0000
0000
0000
,
0001
0010
0000
0100
0000
0000
1000
0000
0010
0000
0100
0000
0001
0000
0000
0000
,
0100
0010
0000
1000
0000
0000
0001
0000
0000
0000
1000
0000
0100
0000
0000
0000
,
1000
0010
0001
0010
,
1000
0010
0001
0010
,
0100
0000
1000
0100
0000
0000
1000
0000
0010
0000
0100
0010
0000
0000
0100
0000
,
0001
0000
0010
0001
0000
0000
0010
0000
0001
0000
1000
0000
0010
0000
1000
0000
,
0001
0000
1000
0100
0000
0000
1000
0000
0001
0000
0010
0000
0001
0000
1000
0000
,
0010
0000
0100
0001
0000
0000
0100
0000
0010
0000
1000
0000
0100
0000
0010
0000
,
0001
0010
0001
0000
0100
0000
0001
0000
1000
0001
1000
0000
0001
0000
1000
0000
,
0100
1000
0100
0000
1000
0000
0001
0000
0010
0001
0010
0000
0001
1000
0001
0000
,
1000
0000
0000
1000
0010
0000
0000
0010
0100
0000
0000
0100
0001
0000
0000
0001
,
0010
0000
0000
0010
0100
0000
1000
0000
0010
0000
0100
0000
0001
0000
0100
0000
,
0001
0000
1000
0001
0000
0000
1000
0000
0100
0000
0000
0000
0010
0000
0000
0000
,
0001
0000
0010
0000
0100
1000
0001
0100
,
0010
0000
1000
0000
0010
1000
0000
0001
0000
1000
0100
0000
1000
0000
0001
0000
,
0010
0000
0001
0000
1000
0010
0000
1000
0000
0001
0100
0000
0001
0000
1000
0000
,
0100
0000
0010
0000
0001
0010
0000
0001
0000
1000
0000
0001
0100
0000
0001
0000
,
0100
0000
0010
0000
1000
0000
0100
0000
0010
0000
0001
0000
0010
0000
0100
1000
,
0001
1000
0001
0100
0010
1000
0100
0010
,
0001
0000
0010
0000
0110
0000
0100
1000
,
0010
0000
0100
0001
0010
0000
0001
0000
,
1000
0001
0000
1001
0000
0000
0000
0000
0010
0100
0000
0110
0000
0000
0000
0010
,
0000
0000
1000
0000
0001
0100
0000
0001
0000
1000
0100
1000
0001
0000
0010
0000
,
0001
1010
1001
1100
,
1001
0000
0000
1000
0100
0000
0010
0000
0011
0000
0000
0010
0100
0000
1000
0000
,
0001
0010
0000
0100
0000
0000
1000
0000
0001
0010
0000
0100
0000
0000
1000
0000
,
0001
0000
0100
0000
0010
1000
0000
0010
0000
1000
0001
1000
0001
0000
1000
0000
,
0100
0110
0011
1100
,
1001
0000
0000
0001
0100
0000
0010
0000
0110
0000
0000
0010
1000
0000
0100
0000
,
1000
0001
0000
1000
0000
0000
0100
0000
0010
0001
0000
0010
0000
0000
0100
0000
,
1000
0000
0010
0000
0100
0001
0000
0100
0000
0010
1000
0010
1000
0000
0001
0000
,
1000
0100
1000
0000
0001
0010
0001
0000
,
1000
0010
1000
0001
0100
0001
1000
0100
,
1000
0100
0000
1000
0000
0000
0001
0000
0010
0001
0000
0010
0000
0000
0001
0000
,
1000
0000
0010
0000
0100
0001
0000
0010
0000
0100
1000
0001
1000
0000
0001
0000
,
0100
0000
0000
0100
0010
0000
0000
0010
1000
0000
0100
0010
0000
0001
0010
0000
,
0100
1000
0001
0010
0100
1000
0001
0010
,
0100
0000
1000
0100
1000
0000
0001
0000
1000
0001
1000
0000
0001
0000
0100
0000
,
0010
0100
0010
0000
0100
0000
0010
1000
0010
0000
1000
0000
0100
0000
0010
0000
,
0001
0000
0010
0001
0010
0000
0001
0000
0010
0000
0001
0010
0001
0000
0010
0000
,
0001
0000
0010
0001
0010
0000
0001
0010
0001
0000
0010
0000
0001
0000
0000
0000
,
1000
0000
0100
1000
0100
0000
1000
0000
0100
0000
1000
0100
1000
0000
0100
0000
,
1000
0100
1000
0000
0100
1000
0100
0000
1000
0001
1000
0001
1000
0001
0000
0000
,
1000
0001
0100
0010
1000
0010
1010
0000
,
1000
0100
0000
0010
0000
0001
0010
0000
0100
0000
1000
0000
0001
0000
0010
0000
,
0100
1000
0000
0100
0000
0000
1000
0000
0010
0000
0100
0000
0001
0000
0000
0000
,
0010
0001
0000
0010
0000
0000
0100
0000
1000
0000
0001
0000
0100
0000
0010
0000
,
1000
0010
0000
1000
0001
0000
1000
0000
0100
0000
0010
0000
0110
0000
0000
0000
,
0100
1000
0000
0010
0000
0100
0001
0000
0010
0000
0001
0000
1000
0000
0010
0000
,
0100
0001
0000
1000
0000
0000
0100
0000
0010
0000
0001
0000
0010
0000
0100
0000
,
1000
0001
0000
0100
0000
0010
1000
0000
0001
0000
1000
0000
0100
0000
0010
0000
,
0100
0010
0000
1001
0000
0000
0000
0000
0000
0000
0000
0000
0000
0000
0000
0000
;

//---------------dance-single - Renard----------------
#NOTES:
     dance-single:
     Renard:
     Medium:
     6:
     0.428,0.473,0.224,0.000,0.188:
0000
0000
0000
0000
,
1000
0000
0000
0001
0000
0000
0100
0000
0010
0000
0000
0000
1000
0000
0000
0000
,
0010
0000
0000
1000
0000
0000
0100
0000
0000
0000
0000
0000
0010
0000
0000
0000
,
0001
0000
0000
0010
0000
0000
0000
0000
0100
0000
0000
0000
1000
0000
0000
0000
,
0010
0000
0000
0100
0000
0000
0001
0000
0000
0000
0000
0000
1001
0000
0000
0000
,
1000
0000
0000
0100
0000
0000
0000
0000
0010
0000
0001
0000
0010
0000
0000
0000
,
0100
0000
0000
1000
0000
0000
0010
0000
0000
0000
0000
0000
0100
0000
0000
0000
,
0001
0000
0000
1000
0000
0000
0000
0000
0001
0000
0100
0000
0001
0000
0000
0000
,
1000
0000
0000
0100
0000
0000
1000
0000
0000
0000
0000
0000
0001
0000
0000
0000
,
0010
0100
1000
1000
,
1000
0000
0000
0000
0000
0001
0100
0001
,
1000
0000
0000
0001
1000
0000
0000
0000
0001
0000
0000
0000
0100
0000
0000
0000
,
0010
1000
0100
0010
,
0001
0010
0100
0000
0000
0000
0000
0000
,
0100
1000
0010
0000
0000
0000
0000
0000
,
0100
0001
0100
0010
1000
0010
0100
0001
,
0100
0010
1000
0010
0100
0001
0100
0000
,
0001
0100
0010
0010
,
0010
0000
0000
0000
0000
0010
1000
0100
,
0010
0000
0000
0001
0000
0000
0000
0000
0010
0000
0000
0000
0110
0000
0000
0000
,
1100
1001
1000
0001
,
0100
0001
0000
0000
0100
0000
0010
0000
,
1000
0010
0000
0000
1000
0000
0100
0000
,
1000
0100
0010
0001
1000
0100
0010
0001
,
0010
0100
1000
0001
0010
0100
1000
0001
,
1000
0000
0000
0001
0000
0000
0100
0000
0010
0000
0010
0000
0010
0000
0010
0000
,
1000
1010
1001
1100
,
1001
0100
0011
1000
,
0001
0100
0000
0001
0000
0000
0000
0000
1000
0100
0000
1000
0000
0000
0000
0000
,
0001
0010
0100
1000
,
0001
0101
0011
1001
,
1001
1000
1100
1000
,
0010
1000
0000
1010
0000
0000
0000
0000
1000
0001
0000
1001
0000
0000
0000
0000
,
0001
0100
0010
1000
,
0100
0010
0001
0000
0010
0000
0100
0000
,
1000
0000
0001
0000
,
0100
0001
0000
0100
0000
0000
0000
0000
0001
1000
0000
0001
0000
0000
0000
0000
,
1000
0100
0010
0001
,
1000
0010
0100
0000
0001
0000
0100
0000
,
0010
1000
0100
1000
,
0010
1000
0000
1010
0000
0000
0000
0000
1000
0100
0000
1100
0000
0000
0000
0000
,
1000
0001
1000
0001
1000
0010
1000
0000
,
0001
0100
0001
0000
0100
0000
0100
0000
,
0010
1000
0010
0000
1000
0000
1000
0000
,
0100
1000
0100
0000
1000
0001
1000
0000
,
0001
0100
0010
1000
0100
0010
0001
0000
,
1000
1000
0001
0001
,
1000
0001
1000
0001
,
0100
0100
0010
0010
,
0100
0010
0100
0010
0100
0010
0100
0000
,
0010
0000
0000
0100
0000
0000
0000
0000
0010
0000
0000
0000
0110
0000
0000
0000
,
0100
0000
0000
0010
0000
0000
0100
0000
0000
0000
0000
0000
0110
0000
0000
0000
,
1000
0000
0000
0001
0000
0000
0000
0000
1000
0000
0000
0000
1001
0000
0000
0000
,
0001
0000
0000
1000
0000
0000
0001
0000
0000
0000
0000
0000
1001
0000
0000
0000
,
0100
0000
0000
0001
0000
0000
0000
0000
1000
0000
0000
0000
0100
0000
0000
0000
,
0010
0000
0000
0001
0000
0000
1000
0000
0000
0000
0000
0000
0010
0000
0000
0000
,
0100
0000
0000
0001
0000
0000
0000
0000
1000
0000
0100
0000
0010
0000
0000
0000
,
0001
0000
0000
0010
0000
0000
0100
0000
0000
0000
0000
0000
1000
0000
0000
0000
,
0001
1000
0000
0001
0000
0000
0000
0000
0000
0000
0000
0000
0000
0000
0000
0000
;

//---------------dance-single - Renard----------------
#NOTES:
     dance-single:
     Renard:
     Easy:
     3:
     0.302,0.383,0.224,0.153,0.000: // measure 1
0000
0000
0000
0000
,  // measure 2
1000
1000
0001
0001
,  // measure 3
0100
0000
0100
0000
,  // measure 4
0001
0001
1000
1000
,  // measure 5
0010
0000
0010
0000
,  // measure 6
1000
0100
0010
0001
,  // measure 7
0010
0000
0000
0010
0000
0000
0010
0000
,  // measure 8
0100
1000
0010
0100
,  // measure 9
0001
0000
0000
0001
0000
0000
0001
0000
,  // measure 10
2000
0000
3002
0000
,  // measure 11
0103
0010
1000
0100
,  // measure 12
0020
0000
0032
0000
,  // measure 13
0013
0100
1000
0010
,  // measure 14
1000
1000
0000
0000
,  // measure 15
0001
0001
0000
0000
,  // measure 16
0100
0100
0001
0001
,  // measure 17
1000
0001
1000
0001
1000
0001
1000
0001
,  // measure 18
1000
0000
1000
0000
,  // measure 19
0001
0000
0000
0000
,  // measure 20
0200
0000
0320
2030
,  // measure 21
3200
0320
0000
0000
,  // measure 22
0031
0010
0100
1000
,  // measure 23
0001
0010
0100
1000
,  // measure 24
0010
0010
0100
0100
,  // measure 25
0001
1000
0001
1000
0001
1000
0001
1000
,  // measure 26
0001
0000
0000
0000
,  // measure 27
1001
0110
1001
0110
,  // measure 28
1001
0000
1001
0000
,  // measure 29
0001
0001
1000
1000
,  // measure 30
0001
0000
1000
0000
,  // measure 31
0000
0110
1001
0110
,  // measure 32
1001
0000
0110
0000
,  // measure 33
0010
0010
1000
1000
,  // measure 34
0000
0000
0000
0000
,  // measure 35
2000
0000
0200
0000
,  // measure 36
0020
0000
3331
0000
,  // measure 37
1000
1000
0001
0000
,  // measure 38
0100
0000
0001
0000
,  // measure 39
0002
0000
0200
0000
,  // measure 40
0020
0000
1333
0000
,  // measure 41
0001
0001
1000
1000
,  // measure 42
0000
0010
0100
0010
,  // measure 43
1000
1010
1000
1010
,  // measure 44
0100
0101
0100
0101
,  // measure 45
0001
0011
0001
0011
,  // measure 46
0100
1100
0100
1100
,  // measure 47
1000
1000
1000
0000
,  // measure 48
0001
0000
0001
0000
,  // measure 49
0001
0001
0001
0000
,  // measure 50
1000
0000
1000
0000
,  // measure 51
0010
0010
0000
0000
,  // measure 52
0100
0100
0100
0000
,  // measure 53
0001
0001
0000
0000
,  // measure 54
1000
1000
1000
0000
,  // measure 55
0010
0000
0000
0110
,  // measure 56
0001
0000
0000
1000
0000
0000
0001
0000
,  // measure 57
1000
0000
0000
1001
,  // measure 58
0010
0000
0000
0100
0000
0000
0010
0000
,  // measure 59
1001
0000
0000
0000
;
