#TITLE:Anima Mundi;
#SUBTITLE:;
#ARTIST:Sonitus Vir;
#TITLETRANSLIT:;
#SUBTITLETRANSLIT:;
#ARTISTTRANSLIT:;
#CREDIT:;
#BANNER:anima.png;
#BACKGROUND:anima-bg.png;
#LYRICSPATH:;
#CDTITLE:;
#MUSIC:anima.ogg;
#OFFSET:0.000;
#SAMPLESTART:49.758;
#SAMPLELENGTH:12.000;
#SELECTABLE:YES;
#BPMS:0.000=135.000;
#STOPS:;
#BGCHANGES:;

//---------------dance-single - Renard----------------
#NOTES:
     dance-single:
     Renard:
     Challenge:
     10:
     0.790,0.762,0.400,0.126,0.836:
0000
0000
0000
0000
,
0000
0000
0000
0000
,
0000
0000
0000
0000
,
1100
0000
0000
0000
0000
0000
0000
0000
0000
0011
0000
0000
0000
0000
0000
0000
0000
0000
0101
0000
0000
0000
0000
0000
1010
0000
0000
0000
0000
0000
0001
0000
0100
0000
0001
0000
1000
0000
0000
0000
0000
0000
0000
0000
0000
0000
0000
0000
,
0001
0000
0000
0000
0000
0000
0100
0000
0001
0000
0100
0000
0001
0000
0000
0000
0000
0000
1000
0000
0000
0100
0000
0000
0010
0000
0000
0000
0000
0000
0000
0000
0000
0000
0000
0000
0011
0000
0000
0000
0000
0000
0000
0000
0000
0000
0000
0000
,
0100
0000
0000
0000
0000
0000
1000
0000
0100
0000
1000
0000
0100
0000
0000
0000
0000
0000
1000
0000
0000
0010
0000
0000
1000
0000
0000
0000
0000
0000
0000
0000
0000
0000
0000
0000
0101
0000
0000
0000
0000
0000
0000
0000
0000
0000
0000
0000
,
0010
0000
0000
0000
0000
0000
1000
0000
0001
0000
1000
0000
0001
0000
0000
0000
0000
0000
0010
0000
0000
0100
0000
0000
1000
0000
0000
0000
0000
0000
0000
0000
0000
0000
0000
0000
1001
0000
0000
0000
0000
0000
0000
0000
0000
0000
0000
0000
,
0001
0000
0000
1000
0100
1000
0100
0000
0000
1000
0000
0000
0001
0010
0001
0010
0000
0000
0001
0000
0000
0001
0100
0001
,
1000
0000
0000
0000
0000
0000
0010
0000
1000
0000
0010
0000
1000
0000
0000
0000
0000
0000
0001
0000
0000
0010
0000
0000
0100
0000
0000
0000
0000
0000
0000
0000
0000
0000
0000
0000
1100
0000
0000
0000
0000
0000
0000
0000
0000
0000
0000
0000
,
0010
0000
0000
0000
0000
0000
0001
0000
0010
0000
0001
0000
0010
0000
0000
0000
0000
0000
0001
0000
0000
0100
0000
0000
0001
0000
0000
0000
0000
0000
0000
0000
0000
0000
0000
0000
1010
0000
0000
0000
0000
0000
0000
0000
0000
0000
0000
0000
,
0100
0000
0000
0000
0000
0000
0001
0000
1000
0000
0001
0000
1000
0000
0000
0000
0000
0000
0100
0000
0000
0010
0000
0000
0001
0000
0000
0000
0000
0000
0000
0000
0000
0000
0000
0000
1001
0000
0000
0000
0000
0000
0000
0000
0000
0000
0000
0000
,
1000
0000
0000
0001
0010
0001
0010
0000
0000
0001
0000
0000
1000
0100
1000
0100
0000
0000
1000
0000
0000
0001
1000
0001
,
1000
0000
0000
0002
0100
0000
0010
0000
1000
0000
0003
0000
1001
0000
0001
0100
,
0010
0000
0000
0000
0000
0000
1000
0000
0000
0001
0000
0000
0000
0000
0000
1000
0000
0000
0010
0000
0000
0000
0000
0000
1000
0000
0000
0000
0000
0000
0000
0000
0000
0002
0000
0000
0010
0000
0000
0000
0000
0000
0103
0000
0001
0000
0100
0000
,
0001
0000
0000
0000
0000
0000
0000
0000
0000
2000
0000
0000
0100
0000
0000
0000
0000
0000
0010
0000
0000
0000
0000
0000
0001
0000
0000
0000
0000
0000
3000
0000
0000
0000
0000
0000
1001
0000
0000
0000
0000
0000
0001
0000
0100
0000
0001
0000
,
1000
0000
0000
0110
0000
0000
0001
0000
0000
0110
0000
0000
1000
0000
0001
0000
,
1000
0000
0000
0002
0100
0000
0010
0000
1000
0000
0003
0000
1001
0000
0001
0100
,
0010
0000
0000
0000
0000
0000
1000
0000
0000
0001
0000
0000
0000
0000
0000
1000
0000
0000
0010
0000
0000
0000
0000
0000
1000
0000
0000
0000
0000
0000
0000
0000
0000
0002
0000
0000
0010
0000
0000
0000
0000
0000
0103
0000
0001
0000
0100
0000
,
0001
0000
0000
0000
0000
0000
0000
0000
0000
2000
0000
0000
0100
0000
0000
0000
0000
0000
0010
0000
0000
0000
0000
0000
0001
0000
0000
0000
0000
0000
3000
0000
0000
0000
0000
0000
1001
0000
0000
0000
0000
0000
0001
0000
0100
0000
0001
0000
,
1000
0000
0000
11MM
0000
0000
111M
0000
1111
0000
0000
0000
1001
0000
0000
0000
,
0100
0000
0000
0020
0001
0000
1000
0000
0100
0000
0030
0000
0110
0000
0010
0001
,
1000
0000
0000
0000
0000
0000
0100
0000
0000
0010
0000
0000
0000
0000
0000
0100
0000
0000
1000
0000
0000
0000
0000
0000
0100
0000
0000
0000
0000
0000
0000
0000
0000
0020
0000
0000
1000
0000
0000
0000
0000
0000
0031
0000
0010
0000
0001
0000
,
0010
0000
0000
0000
0000
0000
0000
0000
0000
0200
0000
0000
0001
0000
0000
0000
0000
0000
1000
0000
0000
0000
0000
0000
0010
0000
0000
0000
0000
0000
0300
0000
0000
0000
0000
0000
0110
0000
0000
0000
0000
0000
0010
0000
0001
0000
0010
0000
,
0100
0000
0000
1001
0000
0000
0010
0000
0000
1001
0000
0000
0100
0000
0010
0000
,
0100
0000
0000
0020
0001
0000
1000
0000
0100
0000
0030
0000
0110
0000
0010
0001
,
1000
0000
0000
0000
0000
0000
0100
0000
0000
0010
0000
0000
0000
0000
0000
0100
0000
0000
1000
0000
0000
0000
0000
0000
0100
0000
0000
0000
0000
0000
0000
0000
0000
0020
0000
0000
1000
0000
0000
0000
0000
0000
0031
0000
0010
0000
0001
0000
,
0010
0000
0000
0000
0000
0000
0000
0000
0000
0200
0000
0000
0001
0000
0000
0000
0000
0000
1000
0000
0000
0000
0000
0000
0010
0000
0000
0000
0000
0000
0300
0000
0000
0000
0000
0000
0101
0000
0000
0000
0000
0000
0100
0000
0001
0000
0100
0000
,
0001
0000
0000
M1M1
0000
0000
M111
0000
1111
0000
0000
0000
1001
0000
0000
0000
,
0001
0000
0000
0001
0000
0000
0001
0000
0000
1000
0100
1000
0100
0000
0000
1000
0000
0000
0010
0000
0000
0100
0000
0000
,
0001
0000
0000
0001
0000
0000
0001
0000
0000
0010
0100
0010
0100
0000
0000
0000
0000
0000
0110
0000
0000
0000
0000
0000
,
0100
0000
0000
0100
0000
0000
0100
0000
0000
1000
0010
1000
0010
0000
0000
0100
0000
0000
0001
0000
0000
0010
0000
0000
,
0100
0000
0000
1000
0000
0000
0001
0000
0000
0100
0001
0100
0001
0000
0000
0000
0000
0000
1011
0000
0000
0000
0000
0000
,
1000
0000
0000
1000
0000
0000
1000
0000
0000
0001
0010
0001
0010
0000
0000
0001
0000
0000
0100
0000
0000
0010
0000
0000
,
1000
0000
0000
1000
0000
0000
1000
0000
0000
0100
0010
0100
0010
0000
0000
0000
0000
0000
0110
0000
0000
0000
0000
0000
,
0010
0000
0000
0010
0000
0000
0010
0000
0000
0001
0100
0001
0100
0000
0000
0010
0000
0000
1000
0000
0000
0100
0000
0000
,
0010
0000
0000
0001
0000
0000
1000
0000
0000
0010
1000
0010
1000
0000
0000
0000
0000
0000
1011
0000
0000
0000
0000
0000
,
0001
0000
0100
0000
0010
0000
1000
0000
0000
0000
0100
0000
1000
0000
0000
0000
0001
0000
0010
0000
0100
0000
1000
0000
0000
0000
0001
0100
0001
0000
0000
0000
,
0100
0001
0010
0001
0000
1000
0100
0000
1000
0001
0100
0001
0000
0000
0001
0000
,
1000
0000
0010
0000
0100
0000
0001
0000
0000
0000
0010
0000
0001
0000
0000
0000
1000
0000
0100
0000
0010
0000
0001
0000
0000
0000
1000
0010
1000
0000
0000
0000
,
1000
0000
0000
0001
0100
0001
0100
0000
0000
0001
0000
0000
1000
0010
1000
0010
0000
0000
1000
0000
0000
0000
0000
0000
,
0010
0000
0001
0000
1000
0000
0100
0000
0000
0000
0001
0000
0100
0000
0000
0000
0010
0000
1000
0000
0001
0000
0100
0000
0000
0000
0010
0001
0010
0000
0000
0000
,
0001
0010
1000
0010
0000
0100
0001
0000
0100
0010
0001
0010
0000
0000
0010
0000
,
0100
0000
1000
0000
0001
0000
0010
0000
0000
0000
1000
0000
0010
0000
0000
0000
0100
0000
0001
0000
1000
0000
0010
0000
0000
0000
0100
1000
0100
0000
0000
0000
,
0100
0000
0000
0010
0001
0010
0001
0000
0000
0010
0000
0000
0100
1000
0100
1000
0000
0000
0100
0000
0000
0010
1000
0010
,
1000
0000
0000
0001
0000
0000
0100
0000
0000
0001
1000
0001
1000
0000
0000
0100
0000
0000
0010
0000
0000
0001
0000
0000
,
0010
0000
0000
0100
0000
0000
1000
0000
0000
0001
1000
0001
1000
0000
0000
0000
0000
0000
1001
0000
0000
0000
0000
0000
,
1000
0000
0000
0100
0000
0000
0010
0000
0000
0001
1000
0001
1000
0000
0000
0001
0000
0000
0010
0000
0000
0100
0000
0000
,
1000
0000
0000
0001
0000
0000
0100
0000
0000
0010
1000
0010
1000
0000
0000
0000
0000
0000
1001
0000
0000
0000
0000
0000
,
1000
0000
0000
0100
0000
0000
0010
0000
0000
0001
0010
0100
1000
0000
0000
0001
0000
0000
0100
0000
0000
0010
0000
0000
,
1000
0000
0000
0100
0000
0000
0010
0000
0000
0001
0010
0100
1000
0000
0000
0000
0000
0000
1001
0000
0000
0000
0000
0000
,
1000
0000
0000
0010
0000
0000
0100
0000
0000
0001
0100
0010
1000
0000
0000
0010
0000
0000
1000
0000
0000
0100
0000
0000
,
0010
0000
0000
0001
0000
0000
1000
0000
0000
0001
0100
0010
1000
0000
0000
0001
0000
0000
1001
0000
0000
0000
0000
0000
;

//---------------dance-single - Renard----------------
#NOTES:
     dance-single:
     Renard:
     Hard:
     8:
     0.548,0.517,0.473,0.000,0.200:
0000
0000
0000
0000
,
0000
0000
0000
0000
,
0000
0000
0000
0000
,
1001
0000
0000
1001
0000
0000
1001
0000
1001
0000
0000
0000
0110
0000
0000
0000
,
0010
0000
1000
0000
0001
0000
0100
0001
0100
0000
0000
0000
1001
0000
0000
0000
,
1000
0000
0100
0000
0010
0000
0001
0010
0001
0000
0000
0000
1001
0000
0000
0000
,
0001
0000
0100
0000
0010
0000
1000
0010
1000
0000
0000
0000
1001
0000
0000
0000
,
1000
0000
0001
1000
0001
0000
1000
0000
0001
1000
0001
0000
1000
0000
0000
0000
,
0001
0000
0100
0010
0100
0000
0010
1000
0010
0000
0000
0000
1001
0000
0000
0000
,
1000
0000
0100
0010
0100
0000
0010
0001
0010
0000
0000
0000
0011
0000
0000
0000
,
0010
0000
0100
0010
0100
0000
1000
0100
1000
0000
0000
0000
1010
0000
0000
0000
,
1000
0000
0000
0001
0000
0000
0101
0000
,
0001
0000
0000
0000
1000
0000
0000
0000
0100
0000
0000
0000
1000
0000
0001
1000
,
0001
0000
0000
0101
0000
0000
1001
0000
1001
0000
0000
0000
1000
0000
0100
0000
,
1000
0000
0000
0000
0001
0000
0000
0000
0010
0000
0000
0000
0100
0000
1000
0100
,
1000
0000
0000
0001
0000
0000
0010
0000
0000
0100
0000
0000
1000
0000
0010
0000
,
0100
0000
0000
0000
0001
0000
0000
0000
0100
0000
0000
0000
0001
0000
1000
0001
,
1000
0000
0000
0100
0000
0000
0010
0000
0001
0000
0000
0000
1000
0000
0010
0000
,
0100
0000
0001
0000
0100
0000
0010
1000
,
0100
0000
0000
1100
0000
0000
1001
0000
1001
0000
0000
0000
0101
0000
0000
0000
,
0001
0000
0100
0000
0010
0000
1000
0000
0100
0000
0010
0000
0001
0000
1000
0001
,
1000
0000
0000
0001
0000
0000
0100
0000
0010
0000
0000
0000
1000
0000
0100
1000
,
0100
0000
1000
0000
0001
0010
0100
1000
,
0001
0000
0000
0100
0000
0000
0010
0000
0000
1000
0000
0000
0100
0000
0010
0000
,
0001
0000
0000
0000
0010
0000
0000
0000
0100
0000
0000
0000
1000
0000
0100
1000
,
0100
0000
0000
1000
0000
0000
0001
0000
0010
0000
0000
0000
0001
0000
1000
0010
,
1000
0000
0000
0000
0010
0000
0000
0000
0100
0000
0000
0000
0001
0000
0010
0100
,
0010
0000
0000
0100
0000
0000
0010
0000
0100
0000
0000
0000
0110
0000
0000
0000
,
0100
1000
0001
0100
0010
1000
0010
1000
,
0001
0100
0010
1000
0100
0000
0110
0000
,
0100
1000
0001
0010
0100
1000
0010
0100
,
0001
0000
0010
0000
0001
0000
1000
0001
1000
0000
0000
0000
1001
0000
0000
0000
,
0001
0100
0010
1000
0100
1000
0001
0010
,
0001
1000
0010
0100
0001
0000
0101
0000
,
0001
0100
0010
1000
0100
0010
0001
1000
,
0001
0000
0100
0000
0010
0000
0100
0010
0100
0000
0000
0000
1001
0000
0000
0000
,
1000
0100
1000
0001
0010
0000
0011
0000
,
0010
0001
1000
0100
1000
0000
1100
0000
,
1000
0100
0010
0001
0010
0000
0011
0000
,
0001
0000
0010
0001
0010
0000
0100
0000
1000
0100
1000
0000
0010
0000
0000
0000
,
1000
0010
0100
0001
0100
0000
0101
0000
,
0001
0100
0010
1000
0010
0000
1010
0000
,
1000
0100
0010
0001
0010
0000
0011
0000
,
0001
0000
1000
0001
1000
0000
0001
0000
1000
0001
1000
0000
0001
0000
0000
0000
,
0110
0000
1001
0000
1000
0100
0010
0001
,
0011
0000
0110
0000
0100
1000
1100
0000
,
1000
0010
0110
0000
0100
0001
0101
0000
,
0001
0000
1000
0000
0100
0000
1000
0001
1000
0000
0000
0000
0101
0000
0000
0000
,
0101
0000
0110
0000
0010
1000
0100
0000
,
1100
0000
1001
0000
1000
0001
0101
0000
,
0001
1000
1100
0000
0001
0010
0001
1000
,
0010
0000
0100
0000
0001
0000
0010
0100
0010
0000
0000
0000
0110
0000
0000
0000
;

//---------------dance-single - Renard----------------
#NOTES:
     dance-single:
     Renard:
     Medium:
     5:
     0.351,0.326,0.179,0.000,0.000:
0000
0000
0000
0000
,
0000
0000
0000
0000
,
0000
0000
0000
0000
,
1000
0000
0001
1001
,
0001
0000
0100
0000
0010
0100
0010
0000
,
1000
0000
0100
0000
0010
0100
0010
0000
,
0001
1000
0010
0100
,
0001
0000
0000
1000
0000
0000
1001
0000
,
0001
0000
0100
0000
0010
1000
0010
0000
,
1000
0000
0100
0000
0010
0001
0010
0000
,
0001
0000
1000
0000
0010
0100
0010
0000
,
1000
0000
0000
0001
0000
0000
1001
0000
,
0001
0000
0100
0000
0001
0000
1000
0100
,
1000
0001
0010
0001
,
1000
0010
0100
0001
,
1000
0000
1000
0000
0100
1000
0100
0000
,
0010
0000
0010
0000
0001
0010
0001
0000
,
1000
0000
1000
0000
0001
0100
0001
0000
,
1000
0100
0010
0001
,
1000
0010
1000
0010
1000
0000
1010
0000
,
1000
0000
0001
0000
0010
0001
0010
0000
,
0001
0000
0010
0000
0100
0010
0100
0000
,
1000
0000
0010
0000
0100
0001
0100
0000
,
0010
0010
1000
1000
,
0001
0000
1000
0000
0100
1000
0100
0000
,
0010
0000
0001
0000
1000
0001
1000
0000
,
0001
0000
0100
0000
0010
1000
0010
0000
,
1000
0010
0100
1001
,
0001
0000
0100
0000
0001
0100
0001
0000
,
1000
0100
1000
0100
,
1000
0000
0010
0000
1000
0010
1000
0000
,
0001
0100
0001
0101
,
1000
0000
0100
0000
1000
0100
1000
0000
,
0001
0000
0010
0000
0001
0010
0001
0000
,
1000
0000
0010
0000
1000
0010
1000
0000
,
0001
0100
0001
1001
,
1000
1000
0100
1100
,
0001
0001
0010
0011
,
1000
1000
0010
1010
,
1001
0000
0000
0110
0000
0000
1001
0000
,
0001
0100
0001
1000
,
0100
1000
0100
0010
,
0100
1000
0010
0100
,
0001
0000
0000
1000
0000
0000
0001
0000
,
1000
0000
1000
0000
0001
0000
0100
0001
,
0100
0001
1000
1100
,
1000
0000
1000
0000
0001
0000
0010
0001
,
0010
0001
1000
1001
,
1000
0000
1000
0000
0010
0000
0100
0010
,
0100
0001
0010
0110
,
0100
1000
0010
0100
,
0001
0000
1000
0001
1000
0000
1001
0000
;

//---------------dance-single - Renard----------------
#NOTES:
     dance-single:
     Renard:
     Easy:
     1:
     0.174,0.272,0.210,0.074,0.000: // measure 1
0000
0000
0000
0000
,  // measure 2
0000
0000
0000
0000
,  // measure 3
0000
0000
0000
0000
,  // measure 4
0000
0000
0000
1001
,  // measure 5
1000
0000
1000
0000
,  // measure 6
0001
0000
0001
0000
,  // measure 7
1000
0000
1000
0000
,  // measure 8
2002
0000
0000
3003
,  // measure 9
0001
0000
0001
0000
,  // measure 10
1000
0000
1000
0000
,  // measure 11
0001
0000
0001
0000
,  // measure 12
2002
0000
0000
3003
,  // measure 13
0010
0000
0000
0000
,  // measure 14
0100
0000
0001
0000
,  // measure 15
2000
0000
0000
0000
,  // measure 16
3100
0000
0010
0000
,  // measure 17
0001
0000
0000
0000
,  // measure 18
0100
0000
0010
0000
,  // measure 19
2000
0000
0000
0000
,  // measure 20
3100
0000
0000
1100
,  // measure 21
1001
0000
0001
0000
,  // measure 22
0100
0100
0100
0000
,  // measure 23
0010
0000
0010
0000
,  // measure 24
1000
1000
1000
0000
,  // measure 25
0001
0000
1000
0000
,  // measure 26
0001
1000
0001
0000
,  // measure 27
0100
0000
0001
0000
,  // measure 28
1000
0000
0000
0110
,  // measure 29
1001
0000
0001
0000
,  // measure 30
1000
0000
0000
0000
,  // measure 31
0010
0000
0010
0000
,  // measure 32
0100
0000
0000
0000
,  // measure 33
0001
0000
0001
0000
,  // measure 34
1000
0000
0000
0000
,  // measure 35
0100
0000
0100
0000
,  // measure 36
0010
0000
0000
0000
,  // measure 37
0001
0000
0001
0000
,  // measure 38
1000
0000
1000
0000
,  // measure 39
0010
0000
0010
0000
,  // measure 40
0100
0000
0000
0000
,  // measure 41
0010
0000
0010
0000
,  // measure 42
1000
0000
1000
0000
,  // measure 43
0001
0000
0001
0000
,  // measure 44
0200
0000
0000
0301
,  // measure 45
0101
0000
0000
0001
,  // measure 46
1001
0000
0000
1000
,  // measure 47
1100
0000
0000
0010
,  // measure 48
0011
0000
0000
0000
,  // measure 49
1001
0000
0000
1001
,  // measure 50
0110
0000
0000
0110
,  // measure 51
1001
0000
0000
1001
,  // measure 52
0110
0000
1001
0110
;
