#TITLE:Angel of Theft;
#SUBTITLE:;
#ARTIST:Player;
#TITLETRANSLIT:;
#SUBTITLETRANSLIT:;
#ARTISTTRANSLIT:;
#CREDIT:;
#BANNER:theft.png;
#BACKGROUND:theft-bg.png;
#LYRICSPATH:;
#CDTITLE:;
#MUSIC:theft.ogg;
#OFFSET:0.000;
#SAMPLESTART:30.751;
#SAMPLELENGTH:12.000;
#SELECTABLE:YES;
#BPMS:0.000=186.430;
#STOPS:;
#BGCHANGES:;

//---------------dance-single - Renard----------------
#NOTES:
     dance-single:
     Renard:
     Challenge:
     15:
     1.000,1.000,1.000,0.000,0.853: // measure 1
0000
0000
0000
0000
,  // measure 2
0000
0000
0000
0000
,  // measure 3
0000
0000
0000
0000
,  // measure 4
0000
0000
0000
0000
,  // measure 5
1M11
1M11
1M11
0000
0000
0000
0000
0000
,  // measure 6
0000
0000
0000
0000
,  // measure 7
11M1
11M1
11M1
0000
0000
0000
0000
0000
,  // measure 8
0000
0000
0000
0000
,  // measure 9
111M
111M
111M
0000
0000
0000
0000
0000
,  // measure 10
0000
0000
0000
0000
,  // measure 11
M111
M111
M111
0000
0000
0000
0000
0000
,  // measure 12
0000
0000
0000
0000
,  // measure 13
1000
0010
0100
0000
0001
0010
0100
0000
1000
0010
0100
0000
0001
0010
0100
0000
,  // measure 14
0010
0001
1000
0000
0010
0100
0001
0000
1000
0100
0010
0001
0100
0010
1000
0000
,  // measure 15
0001
0100
0010
0000
1000
0100
0010
0000
0100
1000
0010
0000
0100
0001
0010
0000
,  // measure 16
0001
0010
0100
0000
1000
0010
0100
0000
0001
0010
0100
1000
0010
0100
0001
0000
,  // measure 17
1000
0100
1000
0100
1000
0000
0001
0000
0010
0001
0010
0001
0010
0000
0001
0000
,  // measure 18
1000
0010
1000
0010
0100
0001
0100
0001
1000
0100
1000
0001
0010
0000
0001
0000
,  // measure 19
1000
0010
1000
0010
1000
0000
0010
0000
0100
0001
0100
0001
0100
0000
0001
0000
,  // measure 20
1000
0100
1000
0100
0010
0001
0010
0001
1000
0010
1000
0001
0100
0001
1000
0000
,  // measure 21
1011
1011
1011
1000
0010
0001
0010
0000
,  // measure 22
1000
0100
0001
0000
0100
1000
0010
0000
,  // measure 23
1011
1011
1011
1000
0010
0001
0010
0000
,  // measure 24
0010
0100
0001
0000
0100
1000
0100
0000
,  // measure 25
1101
1101
1101
0100
0001
0100
1000
0000
,  // measure 26
0110
0000
1010
0000
1001
0000
1000
0100
0010
0001
0100
0010
1000
0000
0010
1000
,  // measure 27
1101
1101
1101
0100
1001
0100
1011
0000
,  // measure 28
0000
0000
0000
0000
,  // measure 29
1000
0100
0010
0000
1001
0000
0000
0000
0001
0100
0010
1000
0010
0000
1000
0000
,  // measure 30
0100
1000
0100
0000
0011
0000
0100
1000
0010
0000
0101
0000
0010
1000
0100
0000
,  // measure 31
1100
0000
0010
0000
0011
0000
0010
0100
1000
0000
0001
0100
0101
0000
0001
0000
,  // measure 32
1000
0100
1000
0000
0001
0000
1000
0000
0101
0000
0010
0000
1001
0000
0100
0000
,  // measure 33
0001
0010
0100
0000
1001
0000
0000
0000
1000
0010
0100
0001
0100
0000
0001
0000
,  // measure 34
0010
0001
0010
0000
1100
0000
0010
0001
0100
0000
1010
0000
0100
0001
0010
0000
,  // measure 35
0011
0000
0100
0000
1100
0000
0100
0010
0001
0000
1000
0010
1010
0000
1000
0000
,  // measure 36
0001
0010
0001
0000
1000
0000
0001
0000
1010
0000
0100
0000
1001
0000
0010
0000
,  // measure 37
0001
0010
1000
0000
0010
0001
0100
0000
1000
0100
0001
0000
0100
0010
1000
0000
,  // measure 38
0010
0001
0010
0000
0100
0001
0100
0000
1000
0100
0010
0100
1000
0000
0001
0000
,  // measure 39
1000
0100
0001
0000
0100
0010
0001
0000
0010
1000
0100
0000
0001
0100
0010
0000
,  // measure 40
0001
0010
1000
0000
0010
0100
1000
0000
0010
0100
0001
0000
0100
0010
1000
0000
,  // measure 41
0010
0001
0010
0000
0100
0001
0100
0000
0010
1000
0100
0000
0001
0100
0010
0000
,  // measure 42
0100
1000
0010
0000
0100
0001
0100
0000
0010
1000
0010
1000
0100
1000
0100
0000
,  // measure 43
1000
0100
0001
0000
0100
0010
0001
0000
0010
1000
0010
0000
0100
1000
0010
0000
,  // measure 44
0100
0001
0100
0001
0100
0000
0001
0000
1000
0000
1000
0000
1000
0000
1000
0000
,  // measure 45
11M1
11M1
MMMM
0000
1M11
1M11
MMMM
0000
,  // measure 46
M111
M111
MMMM
0000
111M
111M
MMMM
0000
,  // measure 47
1100
1100
1100
0011
0011
0011
1100
1100
1100
0011
0011
0011
,  // measure 48
0101
0000
0000
0000
0101
0000
0000
0000
0101
0000
0000
0000
1010
0000
0000
0000
1010
0000
0000
0000
1010
0000
0000
0000
0001
0000
0000
0100
0000
0000
0010
0000
0000
1000
0000
0000
0100
0000
0000
0010
0000
0000
0001
0000
0000
0100
0000
0000
,  // measure 49
0010
1000
0001
0010
0100
1000
0010
0100
0001
0010
0100
0010
0001
1000
0100
0010
,  // measure 50
0100
1000
0010
0100
0001
0100
1000
0100
0010
0001
0010
0100
0001
1000
0100
0010
,  // measure 51
0001
0010
0100
0000
1100
0000
1100
0000
1100
0000
1100
0000
1100
0000
1100
0000
,  // measure 52
0001
0010
0100
0000
1100
0000
0001
0010
0100
0000
1100
0000
0001
0010
0100
0000
,  // measure 53
1000
0010
0100
0000
0101
0000
0101
0000
0101
0000
0101
0000
0101
0000
0101
0000
,  // measure 54
1000
0010
0100
0000
0101
0000
1000
0001
0100
0010
1000
0100
1000
0000
1001
0000
,  // measure 55
1000
0100
0010
0000
0011
0000
0011
0000
0011
0000
0011
0000
0011
0000
0011
0000
,  // measure 56
1000
0100
0010
0000
0011
0000
1000
0100
0010
0000
0011
0000
1000
0100
0010
0000
,  // measure 57
0001
0100
0010
0000
1010
0000
1010
0000
1010
0000
1010
0000
1010
0000
1010
0000
,  // measure 58
0001
0100
0010
0000
1010
0000
0001
1000
0010
0100
0001
0010
0001
0000
1001
0000
,  // measure 59
1000
0100
0010
0001
1000
0000
1000
0000
1000
0000
1000
0000
1000
0000
1000
0000
,  // measure 60
0101
0000
0010
1000
0100
0000
0011
0000
0100
1000
0010
0100
0001
1000
0100
0010
,  // measure 61
0001
0010
0100
0000
1000
0000
1000
0000
1000
0000
1000
0000
1000
0000
1000
0000
,  // measure 62
0001
0100
0001
0000
1000
0000
0100
0010
0001
0000
1000
0000
0010
0100
0001
0000
,  // measure 63
1100
0000
0011
0000
1000
0100
0010
0000
0010
0000
0010
0000
0010
0000
0010
0000
,  // measure 64
0011
0000
0011
0000
0010
0100
1000
0000
1100
0000
1000
0010
1000
0000
1010
0000
,  // measure 65
0101
0000
1010
0000
0101
0000
0001
1000
0100
0000
0010
0000
0001
0000
1000
0000
,  // measure 66
0011
0110
1100
1010
0110
0101
1001
0000
,  // measure 67
0101
0000
1001
0000
1100
0000
1000
0100
0010
0001
1000
0000
0001
0000
0100
0001
,  // measure 68
1000
0000
0100
0000
1100
0000
1000
0001
0100
0001
1000
0000
1001
0000
0100
0000
,  // measure 69
0001
0100
0001
0000
1100
0000
0100
0000
0001
0000
0100
0000
0010
0000
1000
0000
,  // measure 70
0100
0001
0100
0100
1000
0010
0100
0100
,  // measure 71
1M11
0000
1M11
0000
1M11
0000
0001
0010
0001
0010
0001
0010
0100
0000
1000
0010
,  // measure 72
1000
1001
0101
0010
1100
0010
0101
0000
,  // measure 73
1001
0000
1001
0000
1001
0000
0110
0000
1000
0010
1000
0001
0100
0000
0001
0010
,  // measure 74
0001
0000
0010
0000
1100
0000
0000
0000
0010
0001
1000
0000
1001
0000
0000
0000
,  // measure 75
0101
0000
1010
0000
1100
0000
0001
0010
0100
1000
0001
0010
0100
1000
0001
0000
,  // measure 76
1001
0110
0000
0110
1001
0000
1001
0110
,  // measure 77
1010
0000
0110
0000
0101
0000
0001
1000
0001
0000
1000
0000
0100
0000
0010
0000
,  // measure 78
0011
0011
0110
0110
1100
1100
1001
0000
,  // measure 79
0101
0000
1010
0000
1000
0000
0100
1000
0001
0000
0100
1000
0010
0000
0010
0000
,  // measure 80
0101
0000
0010
1000
0010
0000
1100
0000
0010
0000
0001
0000
0100
0001
0100
0001
,  // measure 81
0100
0000
0010
0000
1100
0000
0010
0001
0100
0000
0001
0000
1000
0000
0100
0000
,  // measure 82
0010
0000
0001
1000
0001
0100
0001
0000
1000
0100
1000
0001
1000
0000
0100
0000
,  // measure 83
111M
111M
MMMM
MMMM
11M1
11M1
MMMM
MMMM
,  // measure 84
M111
M111
MMMM
MMMM
1M11
1M11
MMMM
MMMM
,  // measure 85
11MM
11MM
11MM
MM11
MM11
MM11
M1M1
M1M1
M1M1
1M1M
1M1M
1M1M
,  // measure 86
11MM
11MM
11MM
MM11
MM11
MM11
M1M1
M1M1
M1M1
1M1M
1M1M
1M1M
,  // measure 87
1111
1111
MMMM
0000
0000
0000
0000
0000
;
