#TITLE:And Then I Knew;
#SUBTITLE:;
#ARTIST:Pat Metheny Group;
#TITLETRANSLIT:;
#SUBTITLETRANSLIT:;
#ARTISTTRANSLIT:;
#CREDIT:;
#BANNER:;
#BACKGROUND:;
#LYRICSPATH:;
#CDTITLE:;
#MUSIC:then.ogg;
#OFFSET:0.000;
#SAMPLESTART:8.463;
#SAMPLELENGTH:12.000;
#SELECTABLE:YES;
#BPMS:0.000=113.435;
#STOPS:;
#BGCHANGES:;

//---------------dance-single - Renard----------------
#NOTES:
     dance-single:
     Renard:
     Challenge:
     9:
     0.527,0.523,0.273,0.000,0.341:
0000
0000
0000
0000
,
0000
0000
0000
0000
,
0000
0000
0000
0000
,
0000
0000
0000
0000
,
0001
0000
0100
0010
0100
0010
0000
1000
0000
0010
0000
1000
0000
0100
0010
0000
,
0001
0010
0100
1000
0010
0100
0110
0000
,
0010
0000
1000
0100
1000
0000
0001
0010
0001
1000
0000
0010
0000
1000
0000
0100
,
0000
0000
1000
0000
0010
0000
0100
0000
0001
0000
1000
0001
1000
0000
0100
0000
,
1100
0000
1000
0000
0010
0000
0000
0101
0000
0000
1010
0000
0000
0000
1000
0000
,
0100
0000
1000
0000
0001
0000
0010
0001
0000
1000
0010
0000
1010
0000
0000
0000
,
1000
0000
1010
0000
0000
0000
0100
0000
0101
0000
0001
0000
0010
0000
0100
1000
,
0100
0000
1000
0000
0010
0000
1010
0000
0000
0000
0100
0000
0001
0100
0000
0010
,
1000
0000
0100
0000
1000
0000
0001
0010
0000
0001
0010
0000
0011
0000
0010
0000
,
0100
0000
1000
0000
1010
0000
1000
0010
0000
1000
0010
0000
1010
0000
1000
0000
,
0001
0000
0100
0000
0001
0000
1000
0100
0000
0000
1100
0000
1000
0000
0010
0000
,
0100
0000
0001
0000
0010
0001
0000
0000
0010
0000
0100
0000
1000
0000
0010
0000
,
0110
0000
0000
0000
0010
0000
0000
1000
0100
0000
0010
0000
0001
0000
0010
0000
,
0100
0000
1000
0000
0010
0000
0100
0000
0001
0000
0100
0000
0010
1000
0100
0000
,
1000
0001
0010
0100
1000
0010
0100
0001
,
0100
0000
0010
0000
1000
0100
0000
1000
0000
0001
0000
0010
0000
0001
1000
0000
,
0010
0110
0010
0010
1010
1000
1000
1000
,
1100
0000
0100
0000
0110
0000
0011
0000
0010
0000
0100
0000
1000
0010
0000
0100
,
0001
0100
0010
1000
1100
1000
0010
0100
,
0101
0000
0000
0000
0110
0000
1010
0000
0000
0000
1000
0000
0100
1000
0000
0001
,
0010
0001
0010
0100
1000
0010
0100
0000
,
0110
0000
0101
0110
0000
0110
1010
0000
,
1000
0100
1000
0001
1000
0010
1000
0100
,
1000
0000
0001
0010
0001
0000
1000
0000
0010
0000
0100
0000
0001
0000
0100
0010
,
0000
1000
0010
1000
0100
0010
0001
0010
,
0100
0000
0000
0100
1000
0000
0010
0000
0100
0000
0000
0100
0001
0000
0010
0000
,
0100
1000
0100
1000
0010
1000
0010
1000
,
0001
0000
1000
0000
0100
0000
1000
0000
0010
0000
0100
0000
,
0001
0000
0100
0001
0100
0000
0010
0000
1000
0000
0100
0000
1000
0000
0001
0010
,
0100
1000
0010
0100
0001
0100
0010
1000
,
0100
0000
0000
0100
1000
0000
0010
0000
0100
0000
0000
0100
0000
0000
0100
0000
,
0010
0000
0000
0010
0000
0000
0010
0000
1000
0000
0001
1000
0001
0000
1000
0000
,
0010
1000
0100
0010
0001
0010
0100
1000
,
0010
0000
0000
0010
1000
0000
0100
0000
0010
0000
0000
0010
0001
0000
0010
0000
,
0100
0000
1000
0000
0010
0000
0100
0001
0100
0000
0010
0000
1000
0000
0100
0000
,
1000
0000
0000
1000
0001
0000
0100
0000
0010
0000
0000
0010
1000
0000
0100
0000
,
1000
0000
0001
0010
0001
0000
0010
0000
0100
0000
1000
0100
1000
0000
0010
0000
,
1000
0001
0100
0001
1000
0100
1000
0001
,
0010
0000
0000
0010
0001
0000
0010
0000
0100
0000
0000
0100
1000
0010
0000
0000
,
0100
0000
0100
0000
0001
0100
0010
0000
1000
0000
1000
0000
0100
0000
1000
0000
,
0001
0000
0000
0001
0010
0000
0100
0000
1000
0000
0000
1000
0010
0000
0100
0000
,
0001
0000
0000
0001
0100
0000
0010
0000
1000
0000
0000
1000
0100
0000
0010
0000
,
0011
0000
0000
0000
0010
0000
0100
1000
0000
0010
0100
0000
0110
0000
0000
0000
,
0010
1000
0001
0000
0100
0010
0000
1000
0000
0010
0000
1000
0000
0001
0100
0000
,
0001
0100
0010
1000
0100
1000
0001
0010
,
0100
0000
0010
0100
0010
0000
0100
0000
1000
0000
0010
0000
1000
0001
0000
0000
,
0101
0000
0000
0000
;

//---------------dance-single - Renard----------------
#NOTES:
     dance-single:
     Renard:
     Hard:
     8:
     0.469,0.455,0.145,0.000,0.291:
0000
0000
0000
0000
,
0000
0000
0000
0000
,
0000
0000
0000
0000
,
0000
0000
0000
0000
,
1000
0000
1000
0000
0001
0000
0000
0100
0000
0001
1000
0000
0100
0000
0010
0000
,
0001
0000
1000
0000
0010
0100
0101
0000
,
0001
0100
0000
0100
0010
1000
0100
0010
,
0001
0000
0010
0000
0100
0000
1000
0001
0000
1000
0001
0000
1000
0000
0001
0000
,
0100
0000
0010
0000
1000
0000
0001
1000
0000
0000
1100
0000
1000
0000
0001
0000
,
0010
0000
0001
0000
1000
0000
0010
1000
0000
0000
1001
0000
0110
0000
0000
0000
,
0010
0110
0000
0010
1001
0000
1000
0100
,
0010
0000
0001
0010
0001
0000
0010
0000
0000
0000
0100
0000
1000
0100
0000
1000
,
0100
0000
1000
0000
0010
0000
1000
0001
0000
1000
0100
0000
1100
0000
0000
0000
,
1000
0000
0001
0000
0010
0000
0001
1000
0000
0001
0100
0000
1001
0000
0000
0000
,
0001
0000
0100
0000
0010
0000
1000
0100
0000
0000
1000
0000
0001
0000
0010
0000
,
0001
1000
0010
0000
1000
0001
0100
0001
,
1001
0000
0000
0000
0110
0000
0000
0010
1000
0000
0100
0000
0010
0000
0001
0010
,
0000
0000
0100
0000
1000
0000
0010
0000
0100
0000
0001
0000
0100
0001
0100
0000
,
0001
1000
0100
0010
0001
0010
0100
1000
,
0001
0000
1000
0000
0100
1000
0000
0010
0000
0100
0000
0001
0000
0000
0010
0000
,
0001
1000
0000
0001
0100
0000
0010
1000
,
0100
0000
0010
0000
0001
0000
0010
0000
0000
0000
0100
0000
1000
0000
0000
0010
,
0000
0100
0000
0001
0010
0001
1000
0010
,
0100
0000
0001
0000
1000
0000
0100
0000
0000
0000
1000
0000
0010
0000
0000
0100
,
0000
0001
0100
0010
0000
1000
0100
1000
,
0001
0000
0010
0000
0001
0000
1000
0000
0000
0000
0001
0000
0100
0001
0000
0100
,
0000
0001
1000
0100
1000
0010
0100
0001
,
1000
0000
0100
0000
1000
0000
0001
0000
0000
0000
0010
0000
0001
0000
1000
0001
,
0100
0000
0100
0000
0100
0010
1000
0100
,
0010
0000
0000
0010
0001
0000
0010
0000
0100
0000
1000
0000
0010
0100
0000
0000
,
0001
0000
0000
0100
0010
0000
1000
0000
0100
0000
0000
0010
0001
0010
0000
0000
,
0100
0000
1000
0010
0100
0000
0001
0000
0010
0001
0100
0000
,
0001
0000
0000
0000
1000
0000
0000
1000
0100
0000
1000
0000
0010
0000
0100
0000
,
0001
0000
0000
0000
0010
0000
0000
0010
0100
0000
1000
0000
0010
0000
0100
0000
,
0001
0000
0000
0001
1000
0000
0100
0000
0010
0000
0010
0001
0000
0001
0010
0000
,
0100
0000
0100
1000
0000
1000
0010
0000
0100
0000
0001
0000
1000
0000
0001
1000
,
0001
0000
0100
0000
0010
1000
0100
0010
,
0001
0000
0000
0010
0100
0000
1000
0000
0010
0000
0000
0100
0001
0000
0100
0000
,
0010
0000
0000
0000
1000
0000
0000
0000
0100
0000
0000
0010
0001
0000
0010
0000
,
0100
0000
0000
1000
0010
0000
1000
0000
0001
0000
0000
0100
0001
0000
1000
0000
,
0001
0000
0000
0100
0010
0000
1000
0000
0100
0000
0000
0010
0001
0000
0010
0000
,
0100
0000
0000
1000
0010
0000
0000
0000
0100
0000
0000
0001
0100
0000
0001
0000
,
1000
0000
0000
1000
0100
0000
0010
0000
0001
0010
0001
0000
0010
0000
0000
0000
,
0100
0000
0000
1000
0001
0000
1000
0000
0001
0100
0001
0000
1000
0000
0100
0000
,
1000
0000
0000
1000
0001
0000
0100
0000
0001
0000
0000
0001
1000
0000
0010
0000
,
0100
0000
0000
0100
0001
0000
0010
0000
0100
0000
0000
0100
1000
0000
0010
0000
,
0110
0000
0000
0000
1001
0000
0000
0001
0000
0100
0001
0000
1000
0000
0100
0000
,
1100
0000
1000
0000
0010
0110
1001
0000
,
1000
0000
0001
0000
0100
0000
0001
0000
1000
0000
0100
0000
1000
0000
0001
0010
,
0001
0000
1000
0000
0010
0000
0100
0000
0000
0000
0001
0000
1000
0100
0000
0000
,
1001
0000
0000
0000
;

//---------------dance-single - ----------------
#NOTES:
     dance-single:
     Renard:
     Medium:
     5:
     0.349,0.386,0.273,0.045,0.000:
0000
0000
0000
0000
,
0000
0000
0000
0000
,
0000
0000
0000
0000
,
0000
0000
0000
0000
,
1000
0000
1001
0000
0001
0100
0101
0000
,
0001
0000
1001
0000
1000
0100
1100
0000
,
2000
3002
0203
0320
,
1030
0010
1000
0010
1000
0001
1000
0001
,
1000
0000
0101
0000
0001
0010
0011
0000
,
1000
0000
1100
0000
0000
1010
1010
0000
,
0000
1001
0000
0000
0110
0000
0000
0000
,
0010
1000
0100
0010
0000
0001
0010
0000
,
0100
0110
0100
1000
,
0001
0101
0001
1000
,
0001
0100
0010
1000
0010
0000
1000
0000
,
0001
1000
0100
0000
1000
0000
0001
0010
,
0001
1000
0001
0100
,
0010
1000
0010
1000
0001
0100
0001
0100
,
0001
0000
1000
0000
0100
0010
0001
0010
,
0000
0100
0000
1000
0010
0100
0001
0010
,
0001
1000
0000
0001
0100
0000
0001
0000
,
1001
0000
0000
0110
0000
0010
1000
0001
,
0100
0001
0000
0000
1001
0000
0000
1000
,
0100
0010
0001
0010
0000
0100
1000
0001
,
0100
0001
0000
0001
1000
0000
0100
0000
,
0010
0001
0010
0001
0000
1000
0100
0000
,
1000
0001
0000
0000
1001
0000
0000
0000
,
0001
1000
0010
1000
0000
0001
0100
0000
,
0001
0000
0001
0000
0100
0000
0010
1000
,
0100
0000
0100
0000
0010
0001
1000
0001
,
2000
0001
0010
3100
,
0100
0000
1000
0001
0010
0000
0001
1000
,
0001
0100
0010
1000
,
0001
0000
0001
0001
1000
0000
1000
1000
,
0010
0000
0010
0100
0001
0000
0001
1000
,
0100
0000
0100
0010
0001
0000
0001
1000
,
0001
1001
1000
1010
,
0001
1000
0100
0000
1000
0000
0000
0000
,
0001
0101
0001
1001
,
0001
0010
0001
0000
1000
0010
1000
0000
,
0001
0101
1000
1100
,
0001
0011
1000
1010
,
1000
0000
0001
0000
0100
0001
0100
0001
,
1000
0000
0100
0000
1000
0100
1000
0000
,
0001
0011
1000
1010
,
0100
0101
1000
1100
,
0010
0000
0001
0000
1000
0001
1000
0000
,
0001
0000
0100
0000
0010
0100
0010
0000
,
1000
0000
0010
0000
1000
0001
1000
0000
,
0001
0100
0010
1000
0000
0100
1000
0000
,
1001
0000
0000
0000
;

//---------------dance-single - Renard----------------
#NOTES:
     dance-single:
     Renard:
     Easy:
     2:
     0.179,0.205,0.064,0.064,0.000: // measure 1
0000
0000
0000
0000
,  // measure 2
0000
0000
0000
0000
,  // measure 3
0000
0000
0000
0000
,  // measure 4
0000
0000
0000
0000
,  // measure 5
1000
0001
0000
0001
,  // measure 6
0100
0010
0000
0010
,  // measure 7
1000
0001
1000
0001
,  // measure 8
0200
0000
0020
0330
,  // measure 9
0010
0000
0010
1000
,  // measure 10
0100
0000
0010
0001
,  // measure 11
1000
0001
0000
0001
,  // measure 12
0100
0100
0100
0000
,  // measure 13
0010
0010
0000
0010
,  // measure 14
0000
0110
0000
0110
,  // measure 15
0000
0010
1000
0010
,  // measure 16
0000
1000
0000
0001
,  // measure 17
0100
0100
0001
0001
,  // measure 18
0010
0000
0010
0000
,  // measure 19
0100
1000
0000
0001
,  // measure 20
0000
0100
0001
1000
,  // measure 21
0100
0010
0000
0010
,  // measure 22
0100
0100
0100
0000
,  // measure 23
0000
1000
0000
1000
,  // measure 24
0010
0010
0100
0001
,  // measure 25
1000
0000
1001
0000
,  // measure 26
0110
0000
1001
0000
,  // measure 27
1000
0000
1001
0000
,  // measure 28
0001
0100
0001
1000
,  // measure 29
0200
0000
0010
0000
,  // measure 30
0320
0000
0001
0000
,  // measure 31
0032
0000
1000
0000
,  // measure 32
1003
0000
0001
0000
,  // measure 33
2000
0000
0001
0000
,  // measure 34
3200
0000
0010
0000
,  // measure 35
0310
0010
0010
0000
,  // measure 36
0100
0100
0100
0000
,  // measure 37
1000
0000
0001
0000
,  // measure 38
0100
0000
0100
0000
,  // measure 39
0010
0000
1000
0000
,  // measure 40
0100
0000
0100
0000
,  // measure 41
0010
0001
0010
0000
,  // measure 42
0001
1000
0001
0000
,  // measure 43
1000
0000
1000
0100
,  // measure 44
0010
0000
0010
0100
,  // measure 45
1000
0001
0010
0100
,  // measure 46
1000
1000
0001
0001
,  // measure 47
1000
0000
0001
0000
,  // measure 48
0100
0000
0000
0000
,  // measure 49
0001
0000
1000
0000
,  // measure 50
0010
0100
0001
1000
,  // measure 51
1001
0000
0000
0000
;
