#TITLE:Always On My Mind;
#SUBTITLE:;
#ARTIST:Future Collective & DMO;
#TITLETRANSLIT:;
#SUBTITLETRANSLIT:;
#ARTISTTRANSLIT:;
#CREDIT:;
#BANNER:;
#BACKGROUND:;
#LYRICSPATH:;
#CDTITLE:;
#MUSIC:mind.ogg;
#OFFSET:0.000;
#SAMPLESTART:70.105;
#SAMPLELENGTH:12.000;
#SELECTABLE:YES;
#BPMS:0.000=190.000;
#STOPS:;
#BGCHANGES:;

//---------------dance-single - Renard----------------
#NOTES:
     dance-single:
     Renard:
     Hard:
     8:
     0.552,0.536,0.257,0.020,0.000:
0000
0000
0000
0000
,
0000
0000
0000
0000
,
0000
0000
0000
0000
,
0000
0000
0000
0000
,
0000
0000
0000
0000
,
0000
0000
0000
0000
,
0000
0000
0000
0000
,
0000
0000
0000
0000
,
1000
0000
1000
0001
0100
0000
0100
0001
,
0010
0000
0010
0100
0010
0000
0010
0001
,
0100
0000
0100
0001
1000
0000
1000
0100
,
0010
0000
0010
0100
1000
0000
1000
0010
,
0100
0000
0100
0001
0010
0000
0010
0001
,
0100
0000
0100
0001
1000
0000
1000
0100
,
0010
0000
0010
0001
0010
0000
0010
0100
,
0010
0000
0010
0100
1000
0000
1000
0001
,
0100
0000
0100
0010
1000
0000
1000
0010
,
0100
0000
0100
0001
0010
0000
0010
0000
,
0100
0000
0100
1000
0010
0000
0010
0100
,
0001
0000
0001
0010
0100
0000
0100
0000
,
0010
0000
0010
0001
1000
0000
1000
0001
,
0100
0000
0100
0010
1000
0000
1000
0000
,
0010
0000
0010
0100
0001
0000
0001
0010
,
0100
0000
0100
1000
0001
0100
0010
1000
,
0100
0000
0100
0010
0000
0010
0001
0000
,
1000
0000
0001
0000
0100
0000
0010
1000
,
0100
0000
0100
0010
0000
0010
0001
0000
,
1000
0000
0001
0000
0100
0000
0010
1000
,
0001
0000
0001
0100
0000
0100
0001
0000
,
1000
0000
0100
0000
0010
0000
0001
0010
,
0100
0000
0100
1000
0000
1000
0001
0000
,
0100
0000
0100
0000
0100
0000
0010
1000
,
0010
0000
0010
0100
0000
0100
0001
0000
,
0010
0001
0010
0001
0010
0100
0010
0100
,
1000
0000
1000
0001
0000
0001
0100
0000
,
0001
0010
0001
0010
0100
0010
0100
0010
,
0001
0000
0001
1000
0000
1000
0010
0000
,
0100
0010
0100
0010
1000
0010
1000
0010
,
1000
0000
1000
0001
0000
0001
0100
0000
,
0001
0000
0000
1001
,
0110
0000
0010
1000
0000
1000
0100
0000
,
0010
0001
0010
0100
0010
0000
0110
0000
,
0101
0000
0100
0010
0000
0100
1000
0000
,
1010
0000
0110
0000
0011
0000
0001
0010
,
0100
0010
0100
0001
0000
0001
0100
0000
,
1100
0000
0110
0000
0101
0000
0001
0010
,
0100
0010
1000
0010
0000
0010
0100
0000
,
0110
0000
1010
0000
0110
0000
0010
0001
,
0010
0100
1000
0001
0000
0001
0100
0000
,
1100
0000
0110
0000
0101
0000
0001
1000
,
0100
0010
0001
0010
0000
0010
1000
0000
,
1010
0000
0110
0000
0011
0000
0001
0100
,
1000
0100
0010
0100
0000
0100
0001
0000
,
0101
0000
0110
0000
1100
0000
1000
0100
,
0010
1000
0100
0010
0000
0010
0100
0000
,
1000
0000
1000
0000
1000
0001
0100
0010
,
0000
0010
1000
0100
0000
0100
0010
0001
,
0000
0001
0010
0100
1000
0010
0100
0001
,
0000
0001
0010
0100
0000
0100
1000
0010
,
0000
0010
0100
0000
0001
0010
0100
1000
,
0000
1000
0001
0100
0000
0100
0010
1000
,
0000
1000
0100
0010
0001
0010
0100
1000
,
0000
1000
0001
0100
0000
0100
0010
1000
,
0100
0000
0010
0000
0001
0010
0100
1000
,
0000
1000
0010
0100
0000
0100
0001
0010
,
0000
0010
0000
0000
0001
0010
0100
1000
,
0000
1000
0001
0010
0000
0010
0001
0100
,
0000
0100
0010
1000
0100
0010
0001
0010
,
0000
0010
0100
1000
0000
1000
0001
0100
,
0000
0100
0000
0010
1000
0100
0010
0001
,
0000
0011
0000
0110
0000
1100
0000
1001
,
0000
0000
0100
0010
0000
1000
0000
0002
,
0200
0303
0000
0000
;

//---------------dance-single - Renard----------------
#NOTES:
     dance-single:
     Renard:
     Medium:
     5:
     0.316,0.392,0.020,0.000,0.000:
0000
0000
0000
0000
,
0000
0000
0000
0000
,
0000
0000
0000
0000
,
0000
0000
0000
0000
,
0000
0000
0000
0000
,
0000
0000
0000
0000
,
0000
0000
0000
0000
,
0000
0000
0000
0000
,
1000
0000
1000
0001
,
0100
0000
0100
0001
,
0010
0000
0100
0010
,
0001
0000
0001
0010
,
0001
0000
0001
0100
,
0010
0000
0010
1000
,
0100
0000
0010
0100
,
1000
0000
1000
0100
,
1000
0000
1000
0100
,
0010
0000
0010
0001
,
0100
0000
0100
0001
,
0010
0000
0010
0001
,
0100
0000
0100
0001
,
1000
0000
1000
0100
,
0010
0000
0100
0010
,
0001
0000
0001
0000
,
1000
0000
0000
0001
0000
0000
0100
0000
,
0010
0010
0010
0010
,
1000
0000
0000
0100
0000
0000
1000
0000
,
0001
0001
0001
0010
,
0001
0000
0000
0010
0000
0000
0010
0000
,
0100
0100
0100
0010
,
0100
0000
0000
0010
0000
0000
0100
0000
,
1000
1000
1000
0010
,
0100
0000
0000
0100
0000
0000
0100
0000
,
0001
0001
0001
0100
,
0100
0000
0000
0100
0000
0000
0100
0000
,
0010
0010
0010
0010
,
1000
0000
0000
1000
0000
0000
1000
0000
,
0100
0100
0100
0100
,
0001
0000
0000
0001
0000
0000
0001
0000
,
1001
0000
0000
0000
,
1000
0000
0000
1000
0000
0000
0001
0000
,
0100
0001
1000
0100
,
0010
0000
0000
0001
0000
0000
1000
0000
,
0001
0100
0010
1000
,
0100
0000
0000
1000
0000
0000
0001
0000
,
0010
0001
0010
0001
,
1000
0000
0000
0100
0000
0000
0010
0000
,
0100
1000
0100
1000
,
0010
0000
0000
1000
0000
0000
0010
0000
,
0100
0001
0100
0001
,
0010
0000
0000
0001
0000
0000
0010
0000
,
0001
0000
1000
0000
0000
0001
1000
0000
,
0100
0000
0000
1000
0000
0000
0100
0000
,
0010
0010
0010
0001
,
0100
0000
0000
0010
0000
0000
1000
0000
,
0010
0010
0010
0100
,
1000
0000
1000
0001
0000
0001
1000
0000
,
0001
0100
0001
0100
,
0001
0000
0001
1000
0000
1000
0001
0000
,
0100
0010
0100
0000
,
0010
0000
0010
1000
0000
1000
0010
0000
,
0100
0100
0100
0000
,
0001
0000
0001
0010
0000
0010
0001
0000
,
0100
0000
0100
0000
,
0001
0000
0001
1000
0000
1000
0001
0000
,
0100
0100
0100
0000
,
0010
0000
0010
1000
0000
1000
0010
0000
,
0100
0100
0100
0000
,
0001
0000
0001
1000
0000
1000
0001
0000
,
0010
0010
0010
0000
,
0100
0000
0100
1000
0000
1000
0100
0000
,
1000
1000
0001
0100
,
0110
0000
0000
0000
;

//---------------dance-single - Renard----------------
#NOTES:
     dance-single:
     Renard:
     Easy:
     2:
     0.247,0.285,0.010,0.188,0.000: // measure 1
0000
0000
0000
0000
,  // measure 2
0000
0000
0000
0000
,  // measure 3
0000
0000
0000
0000
,  // measure 4
0000
0000
0000
0000
,  // measure 5
0000
0000
0000
0000
,  // measure 6
0000
0000
0000
0000
,  // measure 7
0000
0000
0000
0000
,  // measure 8
0000
0000
0000
0000
,  // measure 9
1000
0000
2000
3000
,  // measure 10
0001
0000
0002
0003
,  // measure 11
0100
0000
0200
0300
,  // measure 12
0010
0000
0020
0030
,  // measure 13
1000
0000
2000
3000
,  // measure 14
0100
0000
0200
0300
,  // measure 15
0010
0000
0020
0030
,  // measure 16
0001
0000
0002
0003
,  // measure 17
1000
0000
2000
3000
,  // measure 18
0001
0000
0002
0003
,  // measure 19
0100
0000
0200
0300
,  // measure 20
0010
0000
0020
0030
,  // measure 21
0100
0000
0200
0300
,  // measure 22
0001
0000
0002
0003
,  // measure 23
1000
0000
2000
3000
,  // measure 24
0100
0000
0200
0300
,  // measure 25
1000
0000
1000
0001
,  // measure 26
1000
0000
1000
0000
,  // measure 27
0001
0000
0001
1000
,  // measure 28
0001
0000
0001
0000
,  // measure 29
0100
0000
0100
0010
,  // measure 30
0100
0000
0100
0000
,  // measure 31
0010
0000
0010
0100
,  // measure 32
0010
0000
0010
0000
,  // measure 33
1000
0000
0010
1000
,  // measure 34
0010
0000
0010
0000
,  // measure 35
0100
0000
0001
0100
,  // measure 36
0001
0000
0001
0000
,  // measure 37
1000
0000
0100
1000
,  // measure 38
0100
0000
0100
0000
,  // measure 39
2000
0000
0002
0000
,  // measure 40
0010
0000
3003
0000
,  // measure 41
1000
0000
1000
0001
,  // measure 42
0100
0000
0100
0000
,  // measure 43
0001
0000
0010
0100
,  // measure 44
0010
0000
0010
0000
,  // measure 45
0001
0000
1000
0001
,  // measure 46
0010
0000
0010
0000
,  // measure 47
0001
0000
0100
0010
,  // measure 48
0100
0000
0010
0000
,  // measure 49
0100
0000
0010
1000
,  // measure 50
0100
0000
0100
0000
,  // measure 51
0010
0000
0001
0100
,  // measure 52
0001
0000
0001
0000
,  // measure 53
1000
0000
0100
1000
,  // measure 54
0001
0000
0010
0000
,  // measure 55
0100
0000
1000
0001
,  // measure 56
0200
0000
0000
0000
,  // measure 57
0310
0000
0010
0000
,  // measure 58
0100
0001
1000
0001
,  // measure 59
0100
0000
0100
0000
,  // measure 60
0010
1000
0001
0100
,  // measure 61
0001
0000
0001
0000
,  // measure 62
1000
0000
1000
0000
,  // measure 63
0001
0010
0100
0010
,  // measure 64
0001
0000
0001
0000
,  // measure 65
0010
0000
0010
0000
,  // measure 66
0100
1000
0100
1000
,  // measure 67
0001
0000
0001
0000
,  // measure 68
0100
0001
0100
0000
,  // measure 69
0001
0000
0001
0000
,  // measure 70
1000
0100
0010
0001
,  // measure 71
1000
0001
0010
0100
,  // measure 72
1000
0000
0001
0000
,  // measure 73
0110
0000
0000
0000
;
