#TITLE:A Few Moments;
#SUBTITLE:;
#ARTIST:Scott Brown;
#TITLETRANSLIT:;
#SUBTITLETRANSLIT:;
#ARTISTTRANSLIT:;
#CREDIT:;
#BANNER:few.png;
#BACKGROUND:few-bg.png;
#LYRICSPATH:;
#CDTITLE:;
#MUSIC:few.ogg;
#OFFSET:0.000;
#SAMPLESTART:64.000;
#SAMPLELENGTH:12.000;
#SELECTABLE:YES;
#BPMS:0.000=270.000;
#STOPS:216.000=10.333
;
#BGCHANGES:;

//---------------dance-single - Renard----------------
#NOTES:
     dance-single:
     Renard:
     Challenge:
     14:
     1.000,1.000,1.000,0.269,0.303: // measure 1
0000
0000
0000
0000
,  // measure 2
0000
0000
0000
0000
,  // measure 3
0000
0000
0000
0000
,  // measure 4
0000
0000
0000
0000
,  // measure 5
0000
0000
0000
0000
,  // measure 6
0000
0000
0000
0000
0000
2MM2
0MM0
3MM3
,  // measure 7
0101
0000
0100
1100
0000
0100
0010
1000
,  // measure 8
0100
1100
0000
0010
0011
0000
0001
0101
,  // measure 9
0000
0110
1010
0000
1010
1001
0000
0101
,  // measure 10
0011
0000
0001
0011
0000
0000
1010
0000
,  // measure 11
1001
0101
0000
0001
0101
0000
0100
0110
,  // measure 12
0000
0010
2010
0001
0100
0002
0000
3003
,  // measure 13
1010
0000
0010
0011
0000
0010
0100
0001
,  // measure 14
0010
0011
0000
0100
1100
0000
1000
1010
,  // measure 15
0000
0110
0101
0000
0101
1001
0000
1010
,  // measure 16
1100
0000
1000
1100
0000
0000
0101
0000
,  // measure 17
1001
1010
0000
1000
2002
0000
0000
0020
,  // measure 18
0003
3002
2000
0000
0030
3113
0000
0000
,  // measure 19
1111
0000
0000
MMMM
0000
0000
111M
0000
,  // measure 20
0000
MMMM
0000
0000
M111
0000
0000
MMMM
,  // measure 21
0000
0000
1M11
0000
0000
MMMM
0000
0000
,  // measure 22
11M1
0000
0000
MMMM
0000
0000
111M
0000
,  // measure 23
0000
MMMM
0000
0000
M111
0000
0000
MMMM
,  // measure 24
0000
0000
1111
0000
0100
1011
0000
0000
,  // measure 25
111M
0000
0000
MMMM
0000
0000
M111
0000
,  // measure 26
0000
MMMM
0000
0000
1111
0000
0000
MMMM
,  // measure 27
0000
0000
1111
0000
0000
MMMM
0000
0000
,  // measure 28
111M
0000
0000
MMMM
0000
0000
M111
0000
,  // measure 29
0000
0000
MMMM
0000
0000
0000
0000
0000
2M22
0M00
0M00
0M00
0M00
0M00
0M00
0M00
,  // measure 30
0M00
0M00
0M00
0M00
0M00
0M00
0M00
0M00
0M00
0M00
0M00
0M00
0M00
0M00
3M33
0000
,  // measure 31
0001
0000
0000
0000
0001
0010
0001
0000
0000
0000
0000
0000
1010
0000
0100
0000
,  // measure 32
0000
0000
1010
0000
0000
0000
0001
0000
0100
0000
0010
0000
1000
0010
1000
0000
,  // measure 33
0000
0001
0010
0100
0000
1001
0000
0100
,  // measure 34
1010
0000
0000
0000
0001
0100
0001
0000
0000
0000
0000
0000
0011
0000
1001
0000
,  // measure 35
0000
0000
1010
0000
0000
0000
0001
0000
0100
0000
0001
0000
1000
0100
1000
0000
,  // measure 36
0001
0010
1000
0001
0000
0100
1000
0010
,  // measure 37
0100
0000
0000
0000
0001
0100
1000
0000
0000
0000
0000
0000
1100
0000
0101
0000
,  // measure 38
0000
0000
0011
0000
0000
0000
0010
0000
1000
0000
0010
0000
0001
0010
0001
0000
,  // measure 39
0000
0010
0100
1000
0000
1001
0000
0101
,  // measure 40
0110
0000
0000
0000
1000
0010
1000
0000
0000
0000
0000
0000
0100
0000
0011
0000
,  // measure 41
0000
0000
1010
0000
0000
0000
0101
0000
0010
0000
1000
0000
0100
1000
0100
0000
,  // measure 42
1000
0001
1010
0100
0000
0011
1100
0011
,  // measure 43
1100
0000
0000
MM00
0000
0000
1100
0000
0000
MM00
0000
0000
1100
0000
0000
MM00
,  // measure 44
1100
0000
1100
0000
0000
MM00
0000
0000
0011
0000
0000
00MM
0000
0000
0011
0000
,  // measure 45
0000
00MM
0000
0000
0011
0000
0000
00MM
0011
0000
0011
0000
0000
00MM
0000
0000
,  // measure 46
0101
0000
0000
0M0M
0000
0000
0101
0000
0000
0M0M
0000
0000
0101
0000
0000
0M0M
,  // measure 47
0101
0000
0101
0000
0000
0M0M
0000
0000
0110
0000
0000
0MM0
0000
0000
0110
0000
,  // measure 48
0000
0MM0
0110
0000
1001
0000
0000
M00M
0000
0000
0110
0000
0000
0MM0
0000
0000
,  // measure 49
1010
0000
0000
M0M0
0000
0000
1010
0000
0000
M0M0
0000
0000
1010
0000
0000
M0M0
,  // measure 50
1010
0000
1010
0000
0000
M0M0
0000
0000
1100
0000
0000
MM00
0000
0000
1100
0000
,  // measure 51
0000
MM00
0000
0000
1100
0000
0000
MM00
1100
0000
1100
0000
0000
MM00
0000
0000
,  // measure 52
0011
0000
0000
00MM
0000
0000
0011
0000
0000
00MM
0000
0000
0011
0000
0000
00MM
,  // measure 53
0011
0000
0011
0000
0000
00MM
0000
0000
0101
0000
0000
0M0M
0000
0000
0101
0000
,  // measure 54
0000
0M0M
0202
0000
1010
0000
M0M0
0000
0303
0000
1111
0000
0000
0M0M
0000
0000
,  // measure 55
1212
0000
0000
M3M3
0000
0000
1001
0000
0100
0000
0010
0000
1000
0000
0100
0000
,  // measure 56
0010
0001
0010
1000
0010
0100
1000
0100
,  // measure 57
0001
0100
0010
1000
0010
0001
0010
0100
,  // measure 58
1000
0100
0010
0011
0100
1000
0010
0100
,  // measure 59
0001
0100
1000
0100
0010
0001
0010
0100
,  // measure 60
1000
0100
0001
0100
0010
1000
0010
0100
,  // measure 61
0002
1000
0103
1001
0100
0010
1000
0100
,  // measure 62
0010
1001
0010
0100
1000
0010
0100
1001
,  // measure 63
0100
0001
0010
0100
1000
0110
1000
0100
,  // measure 64
0010
0001
1000
0110
0001
1000
0100
0010
,  // measure 65
1001
0110
1000
0001
0110
1000
0010
2002
,  // measure 66
0000
0000
0020
3000
2003
0002
0000
0000
,  // measure 67
0100
0000
0000
0M00
3033
0000
0001
0000
0000
0000
1000
0100
1100
0000
0000
0000
,  // measure 68
0000
0011
1100
0000
0011
0000
0101
1010
,  // measure 69
0100
0001
0011
0000
1000
0101
0010
0000
,  // measure 70
1010
0000
0000
0000
1000
0000
1100
0000
0000
0000
0001
0010
0011
0000
0000
0000
,  // measure 71
0000
1100
0011
0000
1001
0000
0100
1010
,  // measure 72
0100
0010
1100
0010
0001
1010
0100
1000
,  // measure 73
0022
0000
0000
0000
0033
00MM
0100
0000
0000
0000
0010
1000
1010
0000
0000
0000
,  // measure 74
0000
0101
1010
0000
0101
0000
1100
0011
,  // measure 75
1000
0100
0101
0000
0010
1100
0001
0000
,  // measure 76
0011
0000
0000
0000
0010
0000
1010
0000
0000
0000
0100
0001
0101
0000
0000
0000
,  // measure 77
0000
1010
0101
0000
0110
0000
1000
0011
,  // measure 78
1000
0001
1010
0001
0100
0011
1000
0010
,  // measure 79
0202
0000
0000
0000
0303
0M0M
0010
0000
0000
0000
0100
0001
0101
0000
0000
0000
,  // measure 80
0000
1010
0101
0000
1010
0000
0011
1100
,  // measure 81
0001
0010
1010
0000
0100
0011
1000
0000
,  // measure 82
1100
0000
0000
0000
0100
0000
0101
0000
0000
0000
0010
1000
1010
0000
0000
0000
,  // measure 83
0000
0101
1010
0000
0110
0000
0001
1100
,  // measure 84
0001
1000
0101
1000
0010
1100
0001
0100
,  // measure 85
2020
0000
0000
0000
3030
M0M0
0001
0000
0000
0000
1000
0100
1100
0000
0000
0000
,  // measure 86
0000
0011
1100
0000
0011
0000
0101
1010
,  // measure 87
0100
0001
0011
0000
1000
0101
0010
0000
,  // measure 88
1010
0000
0000
0000
1000
0000
1100
0000
0000
0000
0001
0010
0011
0000
0000
0000
,  // measure 89
0000
1100
0011
0000
1001
0000
0100
1010
,  // measure 90
0100
0010
1100
0010
0001
1010
0100
1000
,  // measure 91
1001
0000
0000
1111
0000
0000
1100
0000
,  // measure 92
0000
1100
0000
1100
1100
0000
0000
1111
,  // measure 93
0000
0000
1010
0000
0000
1010
0000
1010
,  // measure 94
1010
0000
0000
1111
0000
0000
1001
0000
,  // measure 95
0000
1001
0000
1001
1001
0000
0000
1111
,  // measure 96
0000
0000
0101
0000
0101
0011
0000
0000
,  // measure 97
0011
0000
0000
1111
0000
0000
1001
0000
,  // measure 98
0000
1100
0000
1100
1100
0000
0000
1111
,  // measure 99
0000
0000
1010
0000
0000
0110
0000
0110
,  // measure 100
0110
0000
0000
1111
0000
0000
0101
0000
,  // measure 101
0000
0101
0000
0101
0101
0000
0000
1111
,  // measure 102
0000
0000
0011
0000
0110
1100
0000
0000
,  // measure 103
1111
0000
0000
0000
;
