#TITLE:A Feast for the Vain;
#SUBTITLE:;
#ARTIST:Kamelot;
#TITLETRANSLIT:;
#SUBTITLETRANSLIT:;
#ARTISTTRANSLIT:;
#CREDIT:;
#BANNER:;
#BACKGROUND:;
#LYRICSPATH:;
#CDTITLE:;
#MUSIC:feast.ogg;
#OFFSET:0.000;
#SAMPLESTART:45.176;
#SAMPLELENGTH:12.000;
#SELECTABLE:YES;
#BPMS:0.000=170.000,32.000=85.000,48.000=170.000;
#STOPS:;
#BGCHANGES:;

//---------------dance-single - Renard----------------
#NOTES:
     dance-single:
     Renard:
     Hard:
     9:
     0.670,0.765,0.336,0.319,0.113:
0000
0000
0000
0000
,
0000
0000
0000
0000
,
0000
0000
0000
0000
,
0000
1001
0110
0000
,
1001
0000
0000
0000
0000
0000
1000
0100
,
0010
0000
0010
0100
,
1000
0000
0000
0000
0010
0100
0001
0100
,
0010
0010
1000
0100
0010
0001
1000
0001
,
2000
0000
3020
0000
0230
0000
0302
0023
,
0230
0000
2300
0000
3020
0000
0130
1001
,
2002
0000
0000
0003
3020
0000
0230
0000
,
0302
0000
0000
0000
2003
0000
0000
0000
3002
0023
0230
0000
1300
0100
0010
0001
,
1000
0000
0010
0000
0100
0000
0001
0000
0100
0000
0010
0000
1000
0000
0010
1000
,
0010
0000
1000
0000
0100
0000
0010
0000
0001
0000
1000
0000
0001
0000
0100
0001
,
0100
0000
0001
0000
0100
0000
0010
0000
1000
0000
0100
0000
0010
0000
0001
1000
,
0001
0000
1000
0000
0010
0000
0100
0000
0001
0000
0010
0000
0100
0000
1000
0100
,
1000
0000
0100
0000
0010
0000
0001
0000
1000
0000
0010
0000
0100
0000
0001
1000
,
0001
0000
1000
0000
0010
0000
0100
0000
0001
0000
0010
0000
0100
0000
1000
0100
,
1000
0010
0100
0001
0010
0001
1000
0001
,
0100
0000
0010
0000
1000
0000
0010
0000
1000
0001
1000
0000
0001
1000
0001
0000
,
1000
0000
0010
0100
0110
0000
0010
0100
,
0001
1000
0001
1000
0100
0010
0001
1000
,
1001
0000
1000
0000
0010
0000
0100
0001
,
0100
0010
1001
1100
,
0011
0001
0010
0100
,
1000
0100
0010
0001
0010
0100
1000
0010
,
1010
0000
0010
0100
0101
0000
0001
0010
,
0100
0000
1000
0000
0001
0000
1000
0000
0001
1000
0001
0000
1000
0000
0001
0000
,
1000
0100
0010
0100
1000
0010
0100
0001
,
0010
0100
0010
0001
0100
0010
1000
0100
,
0010
0100
1000
0010
0100
0001
0010
0100
,
0010
0001
0100
0010
1000
0001
1000
0000
,
0101
0000
0100
0010
1000
0000
0100
0010
,
0110
0000
0100
1000
0010
0100
0001
0100
,
0010
1000
0100
0010
0001
0000
0010
0000
,
0100
0000
1000
0100
0010
0001
0010
0100
,
2000
0000
0000
0000
3010
0100
0001
0100
,
0010
1000
0100
0010
0001
0000
0001
0010
,
0100
0000
0100
1000
0010
0100
0001
0100
,
0010
0000
1000
0100
0010
0000
0100
1000
,
0010
0000
0010
0100
0001
0100
0010
1000
,
0100
0010
0001
1000
0001
0100
0010
0100
,
0010
0100
0001
0100
0001
1000
0001
1000
,
0100
0000
1000
0001
1000
0000
0001
0000
0100
0000
0001
1000
0001
0000
1000
0000
,
2002
0000
0000
0000
,
3003
0000
0101
0000
0000
0110
0000
0000
,
1010
0000
1001
0000
1100
0000
0100
0010
,
0000
0010
0001
0010
0100
1000
0001
0100
,
0101
0000
0100
0010
1000
0000
1100
0000
,
0100
0010
0001
0000
1001
0000
0001
0100
,
0010
1000
1001
0000
1100
0000
0011
0000
,
1001
0000
0001
0100
0010
0000
0110
0000
,
0010
1000
0100
0000
1100
0000
0100
0010
,
0001
1001
0101
1010
,
2002
0000
0000
0000
0000
0000
0000
3003
,
0220
0000
0000
0000
0000
0000
0000
0330
,
2002
0000
0000
0000
0000
0000
0000
3003
,
1000
0000
0100
0000
0010
0000
0001
0000
0010
0000
0100
0000
1000
0001
1000
0000
,
0001
0000
0100
0000
0010
0000
1000
0000
0010
0000
0100
0000
0001
0000
1000
0100
,
1000
0000
0100
0000
0010
0000
0001
0000
0010
0000
0100
0000
1000
0000
0001
0100
,
0001
0000
0100
0000
0010
0000
1000
0000
0100
0000
0010
0000
0001
0000
0010
0001
,
0010
0000
0001
0000
0010
0000
0100
0000
1000
0000
0010
0000
1000
0000
0010
1000
,
0010
0000
1000
0000
0010
0000
0100
0000
0001
0000
0010
0000
0100
0000
1000
0001
,
1000
0000
0001
0000
1000
0000
0010
0000
0100
0000
0001
0000
0010
0000
0100
0010
,
0100
0010
0100
1000
0010
0100
0001
1000
,
0010
1000
0100
0010
0001
0010
0100
1000
,
0002
0000
0000
0000
0000
0000
0000
0000
1003
0000
0000
0000
0010
0000
0100
0001
,
0100
0000
0010
0000
1000
0000
0100
0000
0010
0000
0000
0000
0001
0000
0010
0100
,
0010
0000
0100
0000
1000
0000
0010
0000
0100
0000
0001
0000
0100
0000
0001
0100
,
0001
0100
0010
1000
0100
0010
0001
0000
,
0010
0000
0100
0000
1000
0000
0000
0000
0010
0000
0100
0000
0001
0000
0100
0001
,
0100
0000
0010
0000
1000
0000
0000
0000
0010
0000
1000
0000
0100
0000
0010
0001
,
0010
0000
0100
0010
0001
0000
0010
0100
,
1000
0000
0010
0000
0100
0000
0001
0000
0100
0000
0010
0000
1000
0001
1000
0000
,
1002
0000
2000
0000
0000
3000
1000
1003
,
0220
0000
0000
0300
0100
0130
2002
0000
,
0000
0003
0001
3001
0220
0000
0330
2020
,
0000
0002
0000
0000
,
0000
0000
0000
0000
,
0000
3033
0000
0000
;

//---------------dance-single - Renard----------------
#NOTES:
     dance-single:
     Renard:
     Challenge:
     12:
     0.919,1.000,0.311,0.176,0.798:
0000
0000
0000
0000
,
0000
0000
0000
0000
,
0000
0000
0000
0000
,
0000
1001
1001
0000
,
1011
0000
0000
0000
,
0000
0000
0000
0000
,
0000
0001
0100
0010
1000
0100
1000
0001
,
1000
1000
0100
1000
1000
0010
1000
0001
,
2000
3200
0320
0032
0023
0230
2300
3020
,
0032
0023
0230
2300
3200
0001
0301
0000
,
0201
0010
1000
0010
0302
0010
1000
0010
,
2003
0000
0100
0000
0010
0000
0001
0000
3200
0000
1300
0000
0001
1000
1001
0000
,
0001
0000
0100
0001
0100
0000
0010
1000
0010
0000
1000
0100
1000
0000
0100
0010
,
0100
0000
0010
0001
0010
0000
0001
0010
0001
0000
0010
0100
0010
0000
0100
1000
,
0100
0000
1000
0001
1000
0000
0001
0100
0001
0000
0100
0001
0100
0000
0010
0100
,
0010
0000
1000
0010
1000
0000
0010
1000
0010
0000
1000
0001
1000
0001
1000
0001
,
1000
0000
0100
1000
0100
0000
0010
0100
0010
0000
0100
0010
0100
0000
0010
0001
,
0010
0000
0001
0010
0001
0000
0010
0100
0010
0000
0100
0010
0100
0000
1000
0100
,
1000
0000
0001
0000
0010
0000
0100
1000
0001
0000
0100
0000
0010
0000
1000
0001
,
0100
0001
1000
0010
1000
0100
0010
0001
,
0010
0001
0010
0000
0011
0000
0010
0100
,
1000
0000
0100
0000
1000
0000
0100
1000
0100
0000
1000
0000
0001
0000
0010
0000
,
0011
0000
0001
0100
0101
0000
0100
0010
,
0110
0000
0000
0000
0010
0000
1000
0010
1000
0000
0010
0000
1000
0000
0100
0000
,
1000
0100
0010
0001
0011
0000
0010
0100
,
1000
0100
1000
0001
1001
0000
0001
0100
,
0010
1000
0010
0100
0001
0100
0010
1000
,
0000
0000
0001
0000
0100
0000
0010
0000
1000
0001
0100
0000
0100
0001
1000
0000
,
0001
0000
1000
0100
0010
0000
0001
0010
0100
0000
1000
0001
0010
0000
0100
1000
,
0001
0000
0100
0010
1000
0000
0100
0010
0001
0000
0010
0100
1000
0000
0001
0010
,
0100
0000
1000
0010
0100
0000
0001
0100
0010
0000
1000
0100
0010
0000
0001
0010
,
0100
0000
1000
0001
0100
0000
0010
1000
0100
0000
1000
0001
0010
0001
0010
0000
,
0001
0000
0010
0100
1000
0000
0001
0100
0010
0000
1000
0100
0010
0000
0001
0010
,
0100
0000
1000
0001
0100
0000
0010
1000
0100
0000
0010
0001
0010
0000
0100
1000
,
0001
0000
0100
0010
1000
0000
0100
0010
0001
0000
0010
0100
1000
0000
0001
0100
,
0010
1000
0100
0010
0001
0010
0100
1000
,
0001
0000
0000
0001
1000
0000
0010
0000
0100
0000
0000
0100
0001
0000
0010
0000
,
0100
0000
0000
0100
1000
0000
0010
0000
0100
0000
0000
0100
0001
0000
0010
0000
,
0100
0000
0000
0100
1000
0000
0010
0000
0100
0000
0000
0100
0001
0000
0100
0000
,
0010
0000
0000
0010
1000
0000
0100
0000
0010
0001
0010
0100
1000
0001
0010
0100
,
1000
0000
0000
0001
1000
0000
0010
0000
0100
0000
0000
0001
0000
0100
0010
0000
,
1000
0000
0000
0100
0010
0000
0001
0000
0010
0000
0000
0100
1000
0000
0001
0000
,
0010
0000
0000
0100
1000
0000
0001
0000
0100
0000
0000
0010
1000
0000
0001
0000
,
0100
0010
0100
0010
0100
0010
1000
0010
1000
0001
1000
0100
0010
0001
0010
0100
,
2200
0000
0000
0000
,
0000
3300
0000
0000
,
0011
0000
0101
0000
0110
0000
0010
1010
,
0000
1000
1100
0100
0110
0010
0011
0000
,
0011
0000
0010
0000
0100
1000
0100
0000
1000
0000
0010
0000
1010
0000
0010
0000
,
0100
0001
0100
0000
0001
0000
0010
0000
0011
0000
0010
0000
0100
1000
0100
0000
,
1000
0000
0010
0000
0101
0000
0100
0000
0010
1000
0010
0000
1000
0000
0010
0000
,
1100
0000
0100
0000
0010
0001
0010
0000
0001
0000
0100
0000
0101
0000
0100
0000
,
0010
1000
0010
0000
1000
0000
0100
0000
1100
0000
0100
0000
0010
0001
0010
0000
,
0001
0000
0100
0000
1010
0000
0010
0000
0100
0001
0100
0000
0001
0000
0100
0000
,
0001
0100
0010
1000
0010
0100
0001
1000
0100
0010
0001
0010
0100
1000
0001
0010
,
0001
1000
0100
1000
0001
0010
0001
0100
0010
1000
0010
0100
0001
1000
0001
0100
,
0010
1000
0010
0100
0001
0100
0010
1000
0100
0010
0001
0010
0100
1000
0001
0100
,
0001
0101
0001
1000
1100
1000
1001
0001
,
1000
0000
0001
0100
0001
0000
0100
0010
0100
0000
0010
1000
0010
0000
1000
0100
,
1000
0000
0001
0010
0100
0000
1000
0001
0010
0000
0100
1000
0001
0000
0100
0010
,
1000
0000
0010
0100
0001
0000
1000
0010
1000
0000
0100
0010
0001
0000
0010
0100
,
1000
0000
0001
0010
0100
0000
1000
0001
0100
0000
0010
1000
0100
0000
1000
0001
,
0010
0000
0001
0100
0001
0000
0100
0010
0100
0000
0010
1000
0010
0000
1000
0100
,
1000
0000
0100
0010
0100
0000
0010
0001
0010
0000
0001
0010
0001
0000
0010
0100
,
0010
0000
0100
1000
0100
0000
0010
0001
0010
0000
0100
1000
0100
0000
0010
0001
,
0010
0001
0010
0001
0100
0001
0100
0001
1000
0010
1000
0010
1000
0100
1000
0000
,
0001
0000
1000
0010
1000
0000
0010
0100
0010
0000
0100
0001
0100
0000
0001
0010
,
0001
0000
1000
0100
0010
0000
0001
1000
0100
0000
0010
0001
1000
0000
0010
0100
,
0001
0000
0100
0010
1000
0000
0001
0100
0001
0000
0010
0100
1000
0000
0100
0010
,
0001
0000
1000
0100
0010
0000
0001
1000
0010
0000
0100
0001
0010
0000
0001
1000
,
0100
0000
1000
0010
1000
0000
0010
0100
0010
0000
0100
0001
0100
0000
0001
0010
,
0001
0000
0010
0100
0010
0000
0100
1000
0100
0000
1000
0100
1000
0000
0100
0010
,
0100
0000
0010
0001
0010
0000
0100
1000
0100
0000
0010
0001
0010
0000
0100
1000
,
0100
1000
0100
1000
0010
1000
0010
1000
0001
0100
0001
0100
0001
0010
0001
0010
,
0011
0000
0110
0000
0000
0000
0100
1000
,
1100
0000
0000
0000
1000
0010
1010
0000
,
0000
0000
0010
0100
0101
0000
0000
0110
,
0000
0000
0001
1000
2002
0000
0000
0000
0000
0000
0000
0000
0000
0000
0000
0000
,
0000
0000
0000
0000
,
0000
3003
0000
0000
;

//---------------dance-single - Renard----------------
#NOTES:
     dance-single:
     Renard:
     Medium:
     6:
     0.444,0.531,0.084,0.034,0.000:
0000
0000
0000
0000
,
0000
0000
0000
0000
,
0000
0000
0000
0000
,
0000
0000
0000
0000
,
1000
0001
0000
0100
,
0001
0000
1000
0100
,
0010
0000
0000
0000
0001
1000
0001
0000
,
0100
0001
0100
0001
1000
0001
1000
0001
,
1000
0000
0100
0000
0010
0001
0100
0000
,
0001
0000
0010
0000
0100
1000
0010
1001
,
2002
0000
0000
0000
3003
0000
0001
0100
,
0110
0000
0010
1000
1100
1000
0001
0100
,
0001
1000
0001
0000
1000
0000
0100
0000
,
0010
0000
0001
0000
1000
0010
1000
0000
,
0001
0100
0001
0000
1000
0000
0100
0000
,
0010
0000
0001
1000
0000
0001
1000
0000
,
0001
0100
0010
1000
,
0100
1000
0100
0000
1000
0000
0001
0000
,
0010
0100
0010
0100
1000
0100
1000
0100
,
1000
0001
1000
0001
0100
0001
0100
0000
,
0001
0100
0001
0100
,
0010
0000
1000
0100
1000
0100
1000
0100
,
1000
0000
0001
0000
0010
0000
0001
1000
,
0001
0000
0100
0000
0001
1000
0001
0000
,
1000
0100
0010
0001
,
1000
0000
0001
1000
0001
1000
0001
1000
,
0010
1000
0100
0010
,
0001
0010
0100
1000
0001
0000
1000
0000
,
0001
0100
0010
1000
,
0100
0000
0010
0000
0001
0000
1000
0001
,
0000
1000
0001
0100
,
0010
0000
1000
0010
0000
0000
1000
0000
,
0001
0010
0100
1000
,
0001
0010
0100
1000
,
0010
0000
1000
0001
0000
0100
0001
0000
,
1000
0000
0100
0010
0001
1000
0100
0010
,
0001
0000
1000
0001
,
0100
0000
0010
0000
1000
0010
1000
0000
,
0001
0100
0001
0010
,
0100
1000
0001
1000
0000
0001
1000
0000
,
0001
0100
0010
1000
,
0001
1000
0100
1000
,
0001
0010
0000
0001
1000
0000
0001
0000
,
0100
0010
0000
1000
0001
0000
1000
0000
,
0100
0000
0100
0000
,
0100
0100
0100
1000
,
0010
0010
0100
0100
,
0001
0001
0010
0100
,
1000
0000
0010
0100
0001
0000
0100
0000
,
0001
1000
0100
0000
1000
0000
0001
0010
,
0100
0000
1000
0100
1000
0100
1000
0000
,
1000
0000
0010
0100
0001
0000
0001
0000
,
0100
0010
1000
0000
1000
0000
0010
0100
,
0001
0000
1000
0001
1000
0100
0010
0001
,
1000
1000
1000
1000
,
0001
0001
0001
0001
,
0100
0100
0100
0100
,
0010
0100
0010
0100
0010
0100
0010
0000
,
1000
0010
0100
0001
,
1000
0000
0100
0000
0010
0000
0001
1000
,
0000
0001
1000
0000
0001
0000
0100
0000
,
0010
0000
1000
0001
0000
1000
0001
0000
,
1000
0100
0010
0001
,
1000
0000
0001
1000
0000
0001
1000
0000
,
0001
0100
0010
1000
,
0001
0000
1000
0001
0000
1000
0001
0000
,
1000
0000
0100
0000
0010
0001
0010
0000
,
0100
0000
1000
0000
0001
1000
0001
0000
,
0100
0000
0010
0000
1000
0100
1000
0000
,
0001
0000
0010
0000
0100
1000
0100
0000
,
1000
0000
0001
0010
0001
0000
1000
0001
,
1000
0000
0001
0100
0001
0000
0100
0000
,
0010
1000
0000
0010
1000
0000
0010
1000
,
0000
0010
1000
0001
1000
0100
1000
0000
,
1001
0000
0000
0000
0000
0000
0010
0100
,
0110
0000
0000
0000
0010
1000
1010
0000
,
0000
0000
0001
0100
0101
0000
0000
0101
,
0000
2002
0000
0000
,
0000
0000
0000
0000
,
3003
0000
0000
0000
;

//---------------dance-single - Renard----------------
#NOTES:
     dance-single:
     Renard:
     Easy:
     3:
     0.272,0.324,0.034,0.000,0.000: // measure 1
0000
0000
0000
0000
,  // measure 2
0000
0000
0000
0000
,  // measure 3
0000
0000
0000
0000
,  // measure 4
0000
0000
0000
0000
,  // measure 5
1001
0000
0000
0001
,  // measure 6
1000
0000
0100
0010
,  // measure 7
0001
0000
1000
0001
,  // measure 8
0100
0100
0100
0000
,  // measure 9
0001
1000
0100
0010
,  // measure 10
0001
1000
0001
1000
,  // measure 11
1001
0001
0100
0010
,  // measure 12
1000
0100
0010
0001
,  // measure 13
1000
0001
0100
0001
,  // measure 14
1000
0000
0100
0000
,  // measure 15
1000
0001
1000
0100
,  // measure 16
1000
0000
0000
0000
,  // measure 17
0001
0010
0001
1000
,  // measure 18
0001
0000
0100
0000
,  // measure 19
0010
0000
1000
0000
,  // measure 20
0100
0000
0010
0000
,  // measure 21
0001
0000
0010
0000
,  // measure 22
0100
1000
0100
1000
,  // measure 23
0010
0000
0100
0000
,  // measure 24
0001
0000
0010
0000
,  // measure 25
0001
0000
0010
0000
,  // measure 26
0100
1000
0001
0100
,  // measure 27
0010
0000
1000
0000
,  // measure 28
0010
0100
0001
0100
,  // measure 29
0010
0100
0010
0100
,  // measure 30
0010
1000
0010
1000
,  // measure 31
0001
1000
0001
1000
,  // measure 32
0100
0010
0001
0000
,  // measure 33
1000
0001
1000
0001
,  // measure 34
0100
0001
0100
0001
,  // measure 35
0010
0000
0001
0000
,  // measure 36
1000
0000
0100
0010
,  // measure 37
0001
0000
0001
0000
,  // measure 38
0010
0000
0010
0000
,  // measure 39
0100
0000
0100
1000
,  // measure 40
0010
0000
0010
0100
,  // measure 41
0001
0000
0001
1000
,  // measure 42
0100
1000
0001
0010
,  // measure 43
0001
1000
0010
0000
,  // measure 44
1000
0001
1000
0000
,  // measure 45
0001
0000
0001
0000
,  // measure 46
0100
0000
0100
0000
,  // measure 47
0010
1000
0100
0000
,  // measure 48
0010
0000
0001
0010
,  // measure 49
0010
0100
1000
0010
,  // measure 50
0100
0001
0010
0100
,  // measure 51
1000
0010
0000
0010
,  // measure 52
1000
0010
0100
0001
,  // measure 53
0010
0100
1000
0001
,  // measure 54
0100
0010
0000
0010
,  // measure 55
1000
1000
1000
1000
,  // measure 56
0001
0001
0001
0001
,  // measure 57
0100
0100
0100
0100
,  // measure 58
0010
0000
0010
0000
,  // measure 59
1000
0010
1000
0000
,  // measure 60
0001
0100
0001
0000
,  // measure 61
1000
0100
1000
0000
,  // measure 62
0001
0010
0001
0000
,  // measure 63
1000
0010
1000
0000
,  // measure 64
0001
0100
0001
0000
,  // measure 65
1000
0100
0010
0001
,  // measure 66
1000
0000
0001
0000
,  // measure 67
0100
0001
0100
0000
,  // measure 68
0010
1000
0010
0000
,  // measure 69
1000
0100
1000
0000
,  // measure 70
0001
0010
0001
0000
,  // measure 71
1000
0000
0100
0010
,  // measure 72
0001
1000
0010
0100
,  // measure 73
0001
0000
0100
0000
,  // measure 74
0010
0000
1000
0000
,  // measure 75
0100
0000
1000
0000
,  // measure 76
0001
0000
0010
0100
,  // measure 77
0000
0000
1000
0000
0010
0000
0000
0110
,  // measure 78
0000
1001
0000
0000
;
