#TITLE:8th Street;
#SUBTITLE:;
#ARTIST:Jaql;
#TITLETRANSLIT:;
#SUBTITLETRANSLIT:;
#ARTISTTRANSLIT:;
#CREDIT:;
#BANNER:8.img;
#BACKGROUND:8-bg.img;
#LYRICSPATH:;
#CDTITLE:;
#MUSIC:8.ogg;
#OFFSET:0.000;
#SAMPLESTART:17.346;
#SAMPLELENGTH:12.000;
#SELECTABLE:YES;
#BPMS:0.000=166.034;
#STOPS:;
#BGCHANGES:;
#GENRE:IDM;

//---------------dance-single - Renard----------------
#NOTES:
     dance-single:
     Renard:
     Challenge:
     9:
     0.667,0.653,0.113,0.000,0.353:
0000
0000
0000
0000
,
0000
0000
0000
0000
,
0000
0000
0000
0000
,
1000
0000
0001
0100
0001
0000
1000
0000
0001
0100
0001
0000
1000
0000
0001
0000
,
1000
0000
0001
0000
0100
0000
0000
0000
0010
0000
1000
0010
1000
0000
0010
0000
,
0100
0001
0010
0100
1000
0001
1000
0001
,
0100
0000
0010
1000
0000
0100
0010
0001
,
0010
0000
0000
0100
0000
0000
1000
0000
0010
0000
0000
0100
0000
0000
0001
0100
,
0001
0000
0000
0100
0000
0000
0010
0000
1000
0000
0000
0000
0000
0000
0100
0000
,
0010
0000
0000
0001
0000
0000
0010
0000
0100
0000
1000
0000
0001
0000
0100
0000
,
0010
0000
1000
0010
0000
1000
0010
0000
0100
0000
0001
0000
0010
0000
0100
0000
,
1000
0000
0001
0000
0100
0000
0010
0000
1000
0000
0001
1000
0000
0001
1000
0000
,
0001
0100
0001
0100
0001
0000
0100
0010
0100
0010
0100
0000
0010
1000
0010
0000
,
1000
0010
0000
0100
0001
0010
0100
0000
,
1000
0100
1000
0100
1000
0000
0100
0010
0100
0010
0100
0000
0010
0001
0010
0000
,
0001
0010
0000
0100
1000
0010
0100
0000
,
0001
0100
0001
0100
0000
0000
0010
1000
0010
1000
0000
0000
0100
1000
0100
1000
,
0000
0001
0010
0100
1000
0000
0001
0000
,
0100
0001
0100
0000
0000
0000
0010
1000
0010
0000
0000
0000
1000
0100
1000
0000
,
0000
0000
0001
0010
0001
0000
1000
0000
0100
0000
1000
0000
0001
0000
0000
1000
,
0001
0000
0100
0000
0010
0000
1000
0000
0100
0000
0010
0000
0001
0010
0001
0000
,
0010
0000
0100
0000
1000
0000
0001
0000
1000
0000
0010
0000
1000
0010
1000
0000
,
0010
0100
0001
0010
0100
1000
0001
0010
,
0100
0000
0000
1000
0001
0000
0010
0000
0000
0100
1000
0000
0001
0000
0100
0000
,
0010
0000
1000
0000
0010
0000
0100
0001
0100
0000
0010
0000
1000
0000
0100
0000
,
0010
0001
0010
0100
1000
0001
0100
0010
,
1000
0100
0010
0001
0010
0100
1000
0001
,
0010
0000
0000
0100
1000
0000
0001
0000
0000
0010
0100
0000
1000
0000
0001
0000
,
0100
0010
1000
0010
1000
0000
1010
0000
,
0000
0000
0000
0000
,
0001
0100
0001
0010
0100
1000
1100
0000
,
0000
0000
0000
0000
,
1010
0000
0100
0001
0011
0000
0110
0000
,
0000
0000
0000
0000
,
1100
1000
0000
1010
0000
0010
0100
0000
,
0000
0101
0000
1001
0000
0000
0000
0000
,
0001
0000
1000
0100
0010
0000
0001
0000
0010
0000
0100
0000
1000
0000
0001
0000
,
0000
0000
0010
0100
1000
0000
0001
0000
0010
0000
0100
0000
0010
0000
0001
0000
,
0000
0000
1000
0100
0010
0000
0001
0000
0010
0000
0100
0000
1000
0000
0001
0000
,
0000
0000
1000
0100
0010
0000
0001
0000
0010
0000
0100
0000
1000
0000
0001
0000
,
0000
0000
1000
0100
0010
0000
0001
0000
0010
0000
0100
0000
1000
0000
0100
0000
,
0000
0000
1000
0100
0010
0000
0100
0000
1000
0000
0001
0000
0010
0000
0100
0000
,
0000
0000
0010
0001
1000
0000
0100
0000
0010
0000
0001
0000
0010
0000
0100
0000
,
0000
0000
0100
0010
0001
0000
1000
0000
0100
0000
0010
0000
0001
0000
0010
0000
,
0000
0000
0100
1000
0001
0000
0010
0000
0100
0000
1000
0000
0100
0000
0010
0000
,
0000
0000
0010
0100
1000
0000
0001
0000
0010
0000
0001
0000
0010
0000
0100
0000
,
0000
0000
0100
1000
0010
0000
0100
0000
0001
0000
0100
0000
0010
0000
1000
0000
,
0000
0000
1000
0010
0100
0000
0001
0000
1000
0000
0001
0000
1000
0000
0100
0000
,
0000
0000
1000
0001
0010
0000
0001
0000
1000
0000
0010
0000
0100
0000
0001
0000
,
0000
0000
0001
1000
0010
0000
1000
0000
0001
0000
1000
0000
0001
0000
0100
0000
,
0000
0000
0100
0001
0100
0000
0010
0000
1000
0000
0010
0000
1000
0000
0001
0000
,
0000
0000
1000
0010
0100
0000
0001
0000
0100
0000
0010
0000
1000
0000
0001
0000
;

//---------------dance-single - Renard----------------
#NOTES:
     dance-single:
     Renard:
     Hard:
     7:
     0.498,0.589,0.088,0.025,0.063:
0000
0000
0000
0000
,
0000
0000
0000
0000
,
0000
0000
0000
0000
,
0101
0000
0000
1001
0000
0000
1100
0000
,
1000
0001
0100
0000
0000
0010
1000
0100
,
0000
0000
0000
0000
,
0010
0001
0100
0010
0000
0010
1000
0100
,
0000
0100
1000
0010
0100
0000
0001
0100
,
0001
1000
0100
0010
0000
0001
0010
0100
,
1000
0010
0100
0001
,
1000
0010
0100
0001
0000
0001
0100
0010
,
1000
0100
0000
0100
0010
0001
0010
0000
,
0100
0000
1000
0000
0001
0000
0100
0000
0010
0000
1000
0000
0010
1000
0010
0000
,
1000
0000
0000
0000
,
0010
0000
0100
0000
0001
0000
1000
0000
0100
0000
1000
0000
0001
1000
0001
0000
,
1000
0000
0000
0000
,
0001
0000
0100
0000
0001
0000
0010
0000
0100
0000
1000
0000
0001
1000
0001
0000
,
1000
0000
0000
0001
,
0100
0010
1000
0000
0010
0100
0001
0000
,
1000
0000
0010
0000
0100
0000
0000
0000
0001
0000
0100
0000
0010
0000
1000
0010
,
1000
0000
0010
0100
0000
0001
0010
0000
,
0100
1000
0000
0001
1000
0001
1000
0000
,
0001
0000
0100
0001
0000
1000
0100
1000
,
0001
1000
0000
0001
0100
0001
1000
0000
,
0100
0000
1000
0001
1000
0000
0001
0000
0100
0000
0001
0000
1000
0000
0001
0000
,
0000
1000
0001
0000
0000
0000
0000
0000
,
0001
0000
0100
0001
0100
0000
0001
0000
1000
0000
0100
0000
0010
0000
0001
0000
,
1000
0001
0000
1000
0001
0000
0100
0001
,
1000
0000
1000
0100
0010
0000
0001
0000
,
0000
0000
0000
0000
,
0010
0000
0100
1000
0100
1000
0001
0000
,
0000
0000
0000
0000
,
0101
0000
1010
1001
,
0000
0000
0000
0000
,
1100
0000
0000
0010
0000
0001
0100
0000
,
0000
0000
0000
0000
,
0001
1000
0100
0010
0001
0000
0010
0100
,
1000
0000
0001
0100
0010
0000
0010
1000
,
0010
0000
1000
0000
0001
0000
1000
0100
1000
0000
0001
0000
0010
0000
0100
0000
,
1000
0001
0010
0100
1000
0001
1000
0010
,
0100
0000
0100
0001
0010
0000
0010
0100
,
1000
0000
1000
0010
0100
0001
1000
0000
,
0100
0000
0100
1000
0001
0000
0001
0010
,
0100
0000
0000
0000
0100
0000
1000
0000
0010
0000
0100
0000
0001
0000
1000
0001
,
1000
0000
0001
0100
0010
0000
1000
0010
,
0100
0000
0001
1000
0100
0010
0100
1000
,
0001
0000
0001
0010
0100
0000
0100
1000
,
0010
0000
0000
0000
0010
0000
0100
0000
0001
0000
0100
0000
0010
0000
1000
0010
,
1000
0000
0010
0100
0001
0000
0001
1000
,
0100
0000
0100
0010
0001
0010
0100
0000
,
1000
0000
1000
0001
0100
0001
1000
0100
,
0000
0000
1000
0001
1000
0000
0001
0000
0100
0000
0010
0000
2000
0000
0200
0000
,
3300
0000
0000
0000
;

//---------------dance-single - Renard----------------
#NOTES:
     dance-single:
     Renard:
     Medium:
     5:
     0.345,0.425,0.302,0.000,0.000:
0000
0000
0000
0000
,
0000
0000
0000
0000
,
0000
0000
0000
0000
,
0001
0000
0000
1000
0000
0000
0001
1000
,
0001
0000
0100
0000
0000
0010
1000
0010
,
0000
1000
0100
0000
,
0010
0000
0000
0001
0000
0010
0100
0000
,
0000
1000
0001
0000
,
0100
0001
0100
0000
0000
0001
1000
0001
,
0000
1000
0100
0000
,
1000
0000
0000
0010
0000
1000
0001
0000
,
0000
0100
0000
0001
0000
0000
0000
0000
,
1000
0000
0001
0000
0100
0000
0010
1000
,
0010
1000
0000
0000
0000
0000
0000
0000
,
0001
0000
1000
0000
0100
0000
0010
0001
,
0010
0001
0000
0000
0000
0000
0000
0000
,
1000
0000
0001
0000
0100
0000
0010
0100
,
0010
0100
0000
0000
0000
0000
0000
0000
,
1000
0000
0100
0000
0001
0000
0100
0001
,
0100
0001
0000
0000
0000
0000
0000
0000
,
1001
0000
0000
1100
,
0000
1000
0001
0100
,
0101
0000
0000
1001
,
0000
0000
0001
0100
0010
0000
1000
0000
,
1001
0000
0000
1100
,
0000
0000
0100
1000
0010
0000
0100
0000
,
0101
0000
0000
0011
,
0000
0000
0010
0100
1000
0000
0010
0000
,
1000
0000
0000
0001
,
0000
0100
0000
0010
0000
0000
0000
0000
,
1000
0000
0000
0001
,
0000
0100
0000
0010
0000
0000
0000
0000
,
1000
0000
0000
0100
,
0000
0010
0000
0001
0000
0000
0000
0000
,
0010
0000
0000
0100
,
0000
1000
0000
0001
0000
0000
0000
0000
,
0100
0101
0100
0110
,
0010
1010
1000
1100
,
1000
0001
0100
0001
,
1000
0000
0100
0000
0010
0001
0010
0000
,
0100
0110
0100
1100
,
0100
0110
0100
1100
,
1000
0010
0100
0001
,
0010
0001
0010
0000
0100
0010
0100
0000
,
1000
0001
0100
0101
,
1000
0010
1000
1100
,
1000
0001
0010
0110
,
0100
1000
0010
0110
,
0010
1010
0010
0011
,
0010
0110
0010
1010
,
1000
0000
0001
0000
0100
0001
0100
0001
,
0000
0000
1000
0000
0100
0010
0001
1000
;

//---------------dance-single - Renard----------------
#NOTES:
     dance-single:
     Renard:
     Easy:
     1:
     0.210,0.327,0.201,0.101,0.000: // measure 1
0000
0000
0000
0000
,  // measure 2
0000
0000
0000
0000
,  // measure 3
0000
0000
0000
0000
,  // measure 4
0001
0000
0000
1000
0000
0000
0001
0000
,  // measure 5
1000
0000
0000
0000
0000
0001
0000
0000
,  // measure 6
0000
0000
0000
0000
,  // measure 7
0100
0000
0000
0010
0000
0000
1000
0000
,  // measure 8
0000
0000
0000
0000
,  // measure 9
0001
0000
0000
0000
0000
1000
0000
0000
,  // measure 10
0000
0000
0000
0000
,  // measure 11
0001
0000
0000
1000
0000
0000
0100
0000
,  // measure 12
0000
0000
1000
0001
,  // measure 13
0100
0000
0001
1000
,  // measure 14
0000
0000
0000
0000
,  // measure 15
0100
0000
1000
0001
,  // measure 16
0000
0000
0000
0000
,  // measure 17
0100
0000
0001
0010
,  // measure 18
0000
0000
0000
0000
,  // measure 19
1000
0000
0100
0001
,  // measure 20
0000
0000
0000
0000
,  // measure 21
0200
0000
0000
2000
,  // measure 22
0000
0000
0300
0000
,  // measure 23
0020
0000
3000
0200
,  // measure 24
0000
0000
0000
0030
,  // measure 25
0002
0000
0300
0020
,  // measure 26
0000
0000
0000
0003
,  // measure 27
0200
0000
0000
0000
0000
0030
2000
0000
,  // measure 28
0000
0000
0000
3300
,  // measure 29
1000
0000
0000
0000
,  // measure 30
0000
0010
0000
0100
0000
0000
0000
0000
,  // measure 31
0001
0000
0000
0000
,  // measure 32
0000
0010
0000
0100
0000
0000
0000
0000
,  // measure 33
1000
0000
0000
0000
,  // measure 34
0000
0010
0000
0100
0000
0000
0000
0000
,  // measure 35
0001
0000
0000
0000
,  // measure 36
0000
1000
0000
0001
0000
0000
0000
0000
,  // measure 37
0100
0101
0000
0101
,  // measure 38
0000
0101
0000
0101
,  // measure 39
1000
1100
0000
1100
,  // measure 40
0000
1100
0000
1100
,  // measure 41
0010
0011
0000
0011
,  // measure 42
0000
0011
0000
0011
,  // measure 43
1000
1010
0000
1010
,  // measure 44
0000
1010
0000
1001
,  // measure 45
1000
0001
1000
0001
,  // measure 46
0100
0000
0001
0000
,  // measure 47
1000
0001
1000
0001
,  // measure 48
0100
0000
0001
0000
,  // measure 49
1000
0010
0100
0000
,  // measure 50
0100
0010
1000
0000
,  // measure 51
0001
0010
0100
0000
,  // measure 52
0100
0000
1000
0000
0001
0000
1000
0001
;
