#TITLE:777 (Lucky Strike Remix);
#SUBTITLE:;
#ARTIST:Aquasky vs Masterblaster;
#TITLETRANSLIT:;
#SUBTITLETRANSLIT:;
#ARTISTTRANSLIT:;
#CREDIT:;
#BANNER:777.png;
#BACKGROUND:777-bg.png;
#LYRICSPATH:;
#CDTITLE:;
#MUSIC:777.ogg;
#OFFSET:0.000;
#SAMPLESTART:27.872;
#SAMPLELENGTH:12.000;
#SELECTABLE:YES;
#BPMS:0.000=137.775;
#STOPS:;
#BGCHANGES:;

//---------------dance-single - Renard----------------
#NOTES:
     dance-single:
     Renard:
     Challenge:
     10:
     0.831,0.784,0.775,0.019,0.895:
0000
0000
0000
0000
,
0000
0000
0000
0000
,
0000
0000
0000
0000
,
0000
0000
0000
0000
,
0001
0010
0100
1000
0010
0100
0001
0100
0010
0000
1000
0000
0100
0000
0010
0000
,
0001
0000
1001
0000
1001
0000
0000
0000
1000
0010
0100
0001
0010
0000
0110
0000
,
1001
0000
0000
0000
1010
0000
0000
0001
0100
0000
0010
0000
1001
0000
1000
0100
,
0010
0000
0011
0000
0011
0000
0000
0100
0010
0001
1000
0000
0110
0000
0000
0000
,
1000
0000
1000
0000
1000
0000
0000
0001
0000
0100
0000
0010
1000
0000
0100
0000
,
0000
0000
0110
0000
0011
0000
0000
1001
0000
1010
0000
0001
1000
0000
0010
0000
,
0101
0000
1010
0000
1001
0000
0000
1000
0000
0100
0000
0010
0001
0000
1000
0000
,
0000
0000
0101
0000
1010
0000
0000
1001
0000
1100
0000
1000
0001
0000
0010
0000
,
0001
0000
1000
0000
0010
0000
0000
0100
0000
0001
0000
0100
0010
0000
1000
0000
,
0000
0000
0101
0000
1010
0000
0000
1001
0000
1000
0000
0100
0010
0000
1001
0000
,
1001
0000
1010
0000
1001
0000
0000
0101
0000
1001
0000
1000
0100
0000
0010
0000
,
0001
1000
0001
1000
0001
1000
0001
1000
0010
0100
0010
0100
0010
0100
0010
0000
,
0010
1000
0000
0001
0100
0000
0010
1000
0000
0100
0010
0001
0010
0100
1000
0000
,
0010
0100
0000
0001
0100
0000
0010
1000
0000
0001
0010
0100
1000
0001
0100
0000
,
0010
0000
1000
0000
1001
0000
1000
0010
0000
0100
0001
0000
0011
0000
0010
0100
,
1000
0000
0001
0000
0101
0000
0010
1000
0000
0001
0010
0000
0110
0000
0100
1000
,
0010
0100
0000
0001
0100
0000
0010
1000
0000
0001
0010
0100
1000
0001
0010
0000
,
0100
1000
0000
0010
0100
0000
0001
1000
0000
0010
0100
0001
1000
0010
0100
0000
,
0010
0000
0100
0000
0110
0000
0010
1000
0100
0010
0001
0000
0011
0000
0001
0010
,
0100
0000
0010
0000
0110
0000
0100
1000
0000
1000
0010
0000
1010
0000
0010
0100
,
0001
0100
0010
1000
0001
0100
0010
1000
0100
0010
0001
0010
0100
1000
0001
0010
,
0100
0000
1000
0000
0010
0000
0100
0001
0000
0001
0100
0010
1000
0000
0001
0000
,
0100
0000
0010
0000
0110
0000
0010
1000
0000
0100
0010
0000
0110
0000
0010
0001
,
1000
0000
0010
0000
0110
0000
0000
0001
0000
1000
0001
0000
1001
0000
0000
0000
,
1000
0100
0010
0001
0010
0100
1000
0001
0010
0100
0010
0001
1000
0100
0010
0001
,
0010
0000
0100
0000
1000
0000
0010
0100
0001
0100
0010
0000
1010
0000
0001
0100
,
0010
0000
1000
0000
0110
0000
0010
1000
0000
0100
0010
0000
0110
0000
0010
0000
,
0001
0000
1000
0000
0101
0000
0000
0010
0000
1000
0001
0000
0001
1000
0001
0000
,
0000
0000
0001
0000
1001
0000
0001
0100
0010
1000
0100
0000
0110
0000
0100
0010
,
0001
0000
1000
0000
1001
0000
0001
0100
0010
1000
0100
0000
1100
0000
0100
0010
,
0001
0000
1000
0000
0101
0000
0001
0010
0100
1000
0001
0000
0011
0000
0001
0010
,
0100
0000
1000
0000
1010
0000
0001
0100
0010
1000
0001
0000
0101
0000
0001
1000
,
0100
0000
0010
0000
0110
0000
0100
1000
0010
0100
0001
0000
0101
0000
0001
0100
,
0010
0000
1000
0000
1100
0000
0100
0010
0001
0010
0100
0000
0110
0000
0100
1000
,
0010
0000
1000
0000
1001
0000
0001
0100
0010
1000
0001
0000
1001
0000
0001
0010
,
0100
0000
0010
0000
0011
0000
0001
1000
0010
0100
0010
0000
1010
0000
0001
1000
,
0001
0000
0100
0000
0110
0000
0000
0010
0000
1000
0100
0010
0001
0010
0100
0000
,
1000
0000
0001
0000
0101
0000
0000
0010
0000
1000
0100
0010
0100
1000
0010
0000
,
0100
0000
0001
0000
0101
0000
0000
0001
0000
1000
0100
1000
0001
0010
0001
0000
,
1000
0000
0001
0000
0101
0000
0000
0010
0000
1000
0100
0010
0001
1000
0100
0000
,
0010
0000
0001
0000
0101
0000
0000
0010
0000
1000
0001
0100
0010
1000
0100
0000
,
0010
0000
0001
0000
1001
0000
0000
0001
0000
0100
0010
1000
0001
0010
0100
0000
,
1000
0000
0001
0000
0101
0000
0000
0010
0000
1000
0001
1000
0100
0010
0001
0000
,
0010
0000
0001
0000
1001
0000
0000
0001
0000
0100
0001
1000
0001
0000
1000
0000
,
0001
0000
0100
0000
0110
0000
0000
0010
0000
1000
0100
0000
1100
0000
0100
0010
,
0001
0000
0010
0000
0011
0000
0000
0001
1000
0001
1000
0000
1001
0000
1000
0010
,
0100
0000
0010
0000
0110
0000
0000
0100
0000
0001
0010
0000
0011
0000
0010
0100
,
1000
0000
0001
0000
1001
0000
0000
0001
0100
0010
1000
0000
1001
0000
1000
0100
,
0010
0000
0100
0000
0110
0000
0000
0100
0000
1000
0010
0000
0110
0000
0100
0001
,
0010
0000
0001
0000
0011
0000
0000
0001
0000
0010
0100
1000
0100
0000
0100
0000
,
1000
0000
0010
0000
0110
0000
0000
0001
0000
0100
0010
1000
0001
0000
1000
0000
,
0010
0100
0001
0000
1000
0010
0100
0000
0001
1000
0000
0010
0100
0002
2000
0000
,
0000
0000
3003
0000
;

//---------------dance-single - Renard----------------
#NOTES:
     dance-single:
     Renard:
     Hard:
     9:
     0.584,0.605,0.077,0.048,0.450:
0000
0000
0000
0000
,
0000
0000
0000
0000
,
0000
0000
0000
0000
,
0000
0000
0000
0000
,
0001
0100
0000
0001
0100
0000
0001
0100
0000
0000
0001
0000
1000
0000
0000
0000
,
0100
1000
0100
0000
1000
0000
0010
0000
,
0100
0001
0000
1000
0001
0000
0010
0001
0000
0000
1000
0000
0001
0000
0100
0000
,
0010
1000
1000
0000
0010
1000
0100
1000
,
0001
1000
0000
0001
1000
0000
0001
1000
0000
0001
1000
0000
0000
0000
0000
0000
,
0010
0100
0000
0010
0100
0000
0010
0100
0000
0010
0100
0000
0000
0000
0000
0000
,
0001
1000
0000
0001
1000
0000
0001
1000
0000
0001
1000
0000
0000
0000
0000
0000
,
0010
0100
0000
0010
0100
0000
0010
0100
0000
0010
0100
0000
0010
0000
1000
0000
,
0010
1000
0100
1000
0001
0010
0000
0000
,
0001
1000
0010
0100
0001
0010
0000
0000
,
0100
1000
0001
0100
0010
1000
0000
0000
,
0001
0100
0001
0100
0001
0100
0001
0100
0001
0100
0001
0100
0001
0100
0001
0000
,
0100
0000
0001
0000
1000
0000
0100
1000
0000
0001
0010
0000
0001
0000
1000
0000
,
0010
0000
0100
0000
0001
0000
1000
0100
0000
1000
0001
0000
1000
0000
0001
0000
,
0100
0010
1000
0100
0010
0002
0000
0000
,
0013
0000
0100
0000
1000
0000
0010
0000
0100
0000
0002
0000
0000
0000
0000
0003
,
0100
0001
0000
0100
0010
0000
1000
0001
0000
1000
0100
0000
1000
0000
0001
0000
,
0010
0001
0000
1000
0001
0000
0100
0001
0000
1000
0001
0000
1000
0000
0100
0000
,
1000
0001
0100
0010
1000
0200
0000
0000
,
1300
0000
0010
0000
0100
0000
0001
0000
0010
0000
0002
0000
0000
0000
0000
0003
,
1000
0001
0000
0100
0010
0000
1000
0001
0000
0000
1000
0000
0100
0000
0010
0000
,
0001
0010
0100
1000
0010
0100
0001
0000
,
1000
0001
0000
0100
0001
0000
0010
0001
0000
0000
1000
0000
0010
0000
0100
0000
,
0001
0010
0100
1000
0010
0100
0001
0000
,
1000
0100
0000
1000
0010
0000
1000
0001
0000
0000
1000
0000
0100
0000
0010
0000
,
0001
0010
0100
1000
0010
0100
0001
0010
,
0001
0010
0000
0001
0100
0000
0001
1000
0000
0000
0001
0000
0100
0000
0010
0000
,
1000
0000
0100
0000
1000
0000
0010
0000
1000
0000
0001
0000
1000
0001
1000
0001
,
0100
0000
0001
0000
1000
0000
0100
1000
0000
0001
0010
0000
0011
0000
0000
0000
,
0010
0000
0100
0000
1000
0000
0010
0100
0000
0001
0100
0000
0101
0000
0000
0000
,
0100
0000
0010
0000
1000
0000
0100
1000
0000
0001
1000
0000
1001
0000
0000
0000
,
0001
0100
0010
1000
0001
1000
1100
0000
,
1000
0000
0001
0000
0010
0000
0001
1000
0000
0010
1000
0000
1001
0000
0000
0000
,
1000
0000
0100
0000
0010
0000
0001
0010
0000
0001
1000
0000
1001
0000
0000
0000
,
0001
0000
0100
0000
0010
0000
0100
0001
0000
1000
0001
0000
1001
0000
0000
0000
,
1000
0000
0100
0000
1000
0000
0001
0010
0000
0001
1000
0000
0001
0000
1001
0000
,
0100
0001
0100
0010
1000
0100
0000
0100
,
1000
0000
0010
0000
0100
0000
0001
0000
0010
0000
0001
0000
0000
0000
0001
1000
,
0001
1000
0001
0100
0010
1000
0000
1000
,
0010
0000
1000
0000
0100
0000
0010
0001
0000
0010
0001
0000
0010
0001
0000
0010
,
0100
1000
0010
0100
0001
0100
0000
0100
,
0010
1000
0100
0010
0001
0010
0000
0010
,
0100
1000
0010
0100
0001
0100
0000
0100
,
0010
1000
0010
1000
0001
0000
1000
0100
1000
0100
1000
0000
0001
0000
1000
0000
,
0100
0000
1000
0000
0001
0000
0000
0010
0000
0001
0010
0000
0001
0000
0000
0000
,
0010
0000
0100
0000
1000
0000
0000
0010
0000
1000
0001
0000
1000
0000
0000
0000
,
0100
0000
1000
0000
0001
0000
0000
0010
0000
0001
1000
0000
0001
0000
0000
0000
,
0100
0000
0010
0000
1000
0000
0000
0001
0000
1000
0100
0000
1000
0000
0000
0000
,
0001
0000
0010
0000
0001
0000
0000
1000
0000
0010
1000
0000
0001
0000
0000
0000
,
1000
0000
0001
0000
0100
0000
0000
0001
0000
1000
0100
0000
1000
0000
0000
0000
,
0001
0000
0010
0000
0100
0000
0000
1000
0000
0010
1000
0000
0001
0000
0100
0000
,
0001
0000
1000
0000
0010
0000
0100
0001
0000
0010
0100
0000
1000
0000
0020
0000
,
0000
0000
0000
0000
,
0000
0000
0030
0000
;

//---------------dance-single - Renard----------------
#NOTES:
     dance-single:
     Renard:
     Medium:
     5:
     0.323,0.358,0.029,0.230,0.033:
0000
0000
0000
0000
,
0000
0000
0000
0000
,
0000
0000
0000
0000
,
0000
0000
0000
0000
,
0001
0000
0000
0001
0000
0000
1000
0000
0000
0000
0000
0000
0000
0000
0000
0000
,
1000
0010
0100
0000
,
0001
0000
0000
0001
0000
0000
1000
0000
0000
0000
0000
0000
0001
0000
0000
0000
,
0000
1000
1000
0000
0000
0000
0000
0000
,
0010
0010
0010
0010
,
0000
1000
1000
0000
0000
0000
0000
0000
,
0001
0000
0000
0000
0001
0000
0000
0000
0001
0000
0000
0000
0000
0001
0000
0000
,
0000
0100
0100
0000
0000
0000
0000
0000
,
0010
0000
0000
0000
1000
0000
0000
0000
0002
0000
2000
0000
0000
0003
3000
0000
,
0010
0000
0000
0000
0100
0000
0000
0000
0002
0000
0020
0000
0000
0003
0030
0000
,
0100
0000
1000
0000
0020
0200
0000
0330
,
0220
0000
0000
0330
,
0010
0000
0000
0000
0010
0000
0000
1000
0000
0000
1000
0000
0000
0000
0000
0000
,
0100
0000
0000
0000
0010
0000
0000
0001
0000
0000
0001
0000
0000
0000
0000
0000
,
1000
0000
0001
0000
0200
0020
0000
0330
,
0010
0000
1000
0000
0200
0020
0000
0330
,
0100
0000
0000
0000
1000
0000
0000
0010
0000
0000
0100
0000
0000
0000
0000
0000
,
0001
0000
0000
0000
0010
0000
0000
0001
0000
0000
1000
0000
0000
0000
0000
0000
,
0001
0000
0100
0000
0020
2000
0000
3030
,
1000
0000
0000
0000
0100
0000
0000
0000
0020
0000
0002
0000
0000
0000
0030
0003
,
0010
0100
1000
0010
,
0100
0000
0001
0000
1000
0001
1000
0000
,
0001
0100
0010
1000
,
0001
0000
1000
0000
0100
0000
0010
0001
,
0010
0100
1000
0010
,
0100
0000
0001
0000
1000
0000
0001
0100
,
0001
1000
0001
0010
,
0100
0000
1000
0000
0010
1000
0010
1000
,
0010
0000
0000
0000
1000
0000
0000
0000
0001
0000
0200
0000
0000
0000
0000
0300
,
0010
0000
0000
0000
1000
0000
0000
0000
0100
0000
0020
0000
0000
0000
0000
0030
,
0001
0000
0000
0000
0010
0000
0000
0000
0100
0000
2000
0000
0000
0000
0000
3000
,
0010
0100
0101
0110
,
0010
0000
0000
0000
1000
0000
0000
0000
0100
0000
2000
0000
0000
0000
0000
3000
,
0010
0000
0000
0000
0100
0000
0000
0000
0001
0000
0020
0000
0000
0000
0000
0030
,
0001
0000
0000
0000
0010
0000
0000
0000
0100
0000
2000
0000
0000
0000
0000
3000
,
0010
0000
0100
0000
0001
0000
1000
0001
,
0100
0001
1000
0001
,
1000
0100
0010
0001
,
1000
0010
0100
0001
,
0100
0010
1000
0100
,
1000
0001
0010
0001
,
1000
0010
0100
0001
,
1000
0000
0001
0000
1000
0100
0000
0000
,
1000
0001
0010
0001
,
1000
0000
0010
0000
0100
0000
0001
0100
,
0001
1000
0100
1000
,
0001
0000
0010
0000
0001
0000
1000
0010
,
1000
0000
0001
0100
0001
0000
0010
0000
,
0100
0000
1000
0000
0010
0000
1000
0100
,
1000
0001
0010
0100
,
1000
0000
0010
0000
1000
0000
0001
0100
,
0010
0000
1000
0000
0100
0000
0020
0002
,
0000
0000
0000
0000
,
0000
0000
0033
0000
;

//---------------dance-single - Renard----------------
#NOTES:
     dance-single:
     Renard:
     Easy:
     3:
     0.254,0.303,0.057,0.124,0.000: // measure 1
0000
0000
0000
0000
,  // measure 2
0000
0000
0000
0000
,  // measure 3
0000
0000
0000
0000
,  // measure 4
0000
0000
0000
0000
,  // measure 5
1000
0001
0100
0000
,  // measure 6
0001
1000
0001
0000
,  // measure 7
1000
0001
1000
0000
,  // measure 8
0100
1000
0001
0000
,  // measure 9
2000
0000
0000
0000
,  // measure 10
3002
0000
0000
0000
,  // measure 11
0203
0000
0000
0000
,  // measure 12
0320
0000
0000
0000
,  // measure 13
1030
0100
0020
0000
,  // measure 14
0031
0100
0020
0000
,  // measure 15
2030
0000
0100
0200
,  // measure 16
0020
0000
3330
0000
,  // measure 17
1000
1000
0010
0010
,  // measure 18
0100
0100
0001
0001
,  // measure 19
1000
0000
0001
0000
,  // measure 20
1000
0000
0001
0000
,  // measure 21
0001
0001
0010
0010
,  // measure 22
0100
0100
1000
1000
,  // measure 23
0001
0000
1000
0000
,  // measure 24
0001
0000
1000
0000
,  // measure 25
0001
0100
0010
0100
,  // measure 26
1000
0100
0010
0100
,  // measure 27
0001
0010
1000
0010
,  // measure 28
0100
0010
0001
0010
,  // measure 29
0001
0100
1000
0010
,  // measure 30
0001
0100
1000
0010
,  // measure 31
0001
0100
1000
0100
,  // measure 32
0001
0010
1000
0000
,  // measure 33
0010
0000
0001
0100
,  // measure 34
1000
0000
0100
0001
,  // measure 35
0010
1000
0020
0130
,  // measure 36
0001
0100
1000
0010
,  // measure 37
0100
0001
0010
0000
,  // measure 38
0100
1000
0010
0000
,  // measure 39
0100
0001
0010
0200
,  // measure 40
1300
0000
0010
0100
,  // measure 41
0001
0100
0110
0000
,  // measure 42
0010
1000
1100
0000
,  // measure 43
1000
0100
0001
0010
,  // measure 44
1000
0000
0100
0000
,  // measure 45
1000
0010
0001
0100
,  // measure 46
1000
0000
0010
0000
,  // measure 47
1000
0100
0001
0010
,  // measure 48
1000
0010
0001
0100
,  // measure 49
0010
0010
1000
1000
,  // measure 50
0001
0010
0100
0110
,  // measure 51
0100
0100
1000
1000
,  // measure 52
0010
0001
0100
1000
,  // measure 53
0100
0001
0010
1010
,  // measure 54
0010
0001
0100
1100
,  // measure 55
0100
0010
0001
0010
,  // measure 56
0011
0000
0100
0000
1000
0000
0002
2000
,  // measure 57
0000
0000
0000
0000
,  // measure 58
0000
0000
3003
0000
;
