#TITLE:20 Times;
#SUBTITLE:;
#ARTIST:Hardfox;
#TITLETRANSLIT:;
#SUBTITLETRANSLIT:;
#ARTISTTRANSLIT:;
#CREDIT:;
#BANNER:20.png;
#BACKGROUND:20-bg.png;
#LYRICSPATH:;
#CDTITLE:;
#MUSIC:20.ogg;
#OFFSET:0.000;
#SAMPLESTART:28.920;
#SAMPLELENGTH:12.000;
#SELECTABLE:YES;
#BPMS:0.000=149.275;
#STOPS:;
#BGCHANGES:;

//---------------dance-single - Renard----------------
#NOTES:
     dance-single:
     Renard:
     Hard:
     8:
     0.588,0.671,0.559,0.186,0.160:
0000
0000
0000
0000
,
0000
0000
0000
0000
,
0000
0000
0000
0000
,
0000
0000
0000
0000
,
1001
0100
1000
0010
,
0001
0100
1000
0000
0010
0001
0100
0000
,
0010
0000
0000
0010
1000
0000
0100
0000
0010
0000
0001
0000
0010
0000
0100
0000
,
1000
0000
0000
1000
0010
0000
0100
0000
0001
0000
0010
0000
0001
0000
1000
0000
,
0010
0000
0000
0010
0100
0000
0001
0000
1000
0000
0100
0000
0010
0000
0001
0000
,
2002
0000
0100
0100
0100
0000
3113
0000
,
0101
0000
0000
0100
0010
0000
1000
0000
0010
0000
0100
0000
0001
0000
1001
0000
,
1001
0000
0000
1000
0100
0000
0010
0000
0001
0000
0010
0000
0100
0000
1000
0000
,
1001
0000
0000
0001
0100
0000
0010
0000
1000
0000
0001
0000
1000
0000
1001
0000
,
1001
0000
0000
1000
0010
0000
0100
0000
0001
0000
0010
0000
0100
0000
1000
0000
,
0110
0000
0000
0010
1000
0000
0100
0000
0010
0000
0001
0000
0010
0000
0110
0000
,
0110
0000
0000
0100
1000
0000
0010
0000
0100
0000
0001
0000
0100
0000
0010
0000
,
1010
0000
0000
0010
1000
0000
0100
0000
0010
0000
0001
0000
0010
0000
0011
0000
,
0011
0000
0000
0001
0010
0000
0100
0000
1000
0000
0001
1000
0001
0000
1000
0000
,
1001
0000
0000
1000
0010
0000
0100
0000
0001
0000
0010
0000
0100
0000
1000
0000
,
0001
0000
0000
0001
0100
0000
0010
0000
1000
0000
0100
1000
0100
0000
1000
0000
,
0100
0000
0000
0100
0010
0000
0001
0000
0010
0000
0100
0000
1000
0000
0001
0000
,
0100
0000
0000
0100
0001
0000
1000
0000
0100
0000
0010
0000
0001
0000
1000
0000
,
0001
0000
0000
0001
0100
0000
0010
0000
1000
0000
0100
0000
0010
0000
0001
0000
,
1000
0000
0000
1000
0001
0000
0100
0000
0010
0000
1000
0000
0100
0000
0010
0000
,
0001
0000
0000
0001
0010
0000
0100
0000
1000
0000
0000
1000
0010
0000
0100
0000
,
0001
0001
0100
0000
0010
2000
0200
0000
,
0011
3300
0000
0000
1000
0100
1000
0010
,
0100
0000
0001
0000
0010
0000
0000
0000
0001
0000
1000
0000
0001
0000
0100
0001
,
0100
0000
0010
0000
1000
0100
0010
0001
,
1000
0000
0010
0000
0100
0001
0100
0000
,
0110
0000
1001
0000
1000
0100
0010
0001
,
0010
0000
1001
0000
0001
0100
0010
1000
,
0010
0000
1001
0000
1000
0100
0010
0001
,
0010
0010
0100
0000
1000
0010
0001
0100
,
1000
0000
0110
0000
0000
0001
0110
0000
,
1000
0000
0110
0000
0000
0001
0110
0000
,
1000
0000
0110
0000
0000
0001
0110
0000
,
1000
0110
0001
1001
,
1100
0000
0011
0000
0000
0001
0110
0000
,
1000
0000
0110
0000
0000
1000
0101
0000
,
0010
0000
1001
0000
0000
0100
0011
0000
,
0100
1010
1001
0101
,
2002
0220
0000
0000
,
3333
0000
0000
0000
,
0220
2002
0000
0000
,
3333
0000
0000
0000
,
2200
0022
0000
0000
,
3333
0000
0000
0000
,
0101
0110
1100
1010
,
0011
0101
1001
0220
,
1331
0000
0000
0000
,
1000
1000
0001
0000
0001
0001
1000
0000
,
0001
0000
0000
0001
1000
0000
0010
0000
0100
0000
0001
0000
0010
0000
0100
0000
,
1000
0000
0000
1000
0010
0000
0100
0000
0001
0000
1000
0000
0100
0000
0010
0000
,
0001
0000
0000
0001
1000
0000
0010
0000
0100
0000
0001
0000
1000
0000
0100
0000
,
1000
0000
0000
0001
1000
0000
0010
0000
0001
0000
0000
0001
0100
0000
0010
0000
,
1000
0000
0000
1000
0010
0000
0100
0000
0001
0000
0010
0000
0100
0000
1000
0000
,
0001
0000
0000
0001
0100
0000
0010
0000
1000
0000
0100
0000
0010
0000
0001
0000
,
1000
0000
0000
1000
0001
0000
0100
0000
0010
0000
1000
0000
0100
0000
0010
0001
;

//---------------dance-single - Renard----------------
#NOTES:
     dance-single:
     Renard:
     Challenge:
     9:
     0.770,0.762,0.838,0.000,0.434:
0000
0000
0000
0000
,
0000
0000
0000
0000
,
0000
0000
0000
0000
,
0000
0000
0000
0000
,
0000
1001
0110
1010
,
1001
1001
1001
0000
0101
0101
0101
0000
,
1001
0000
0000
0001
0100
0000
0010
0000
1000
0000
0100
0000
1000
0000
0001
0000
,
1000
0000
0000
1000
0100
0000
1000
0000
0001
0010
0001
0000
1000
0000
0010
0000
,
1000
0000
0000
1000
0001
0000
0100
0000
0001
0000
1000
0000
0100
0000
1000
0000
,
0001
0000
1001
1001
0110
0000
1001
0000
,
1100
0000
0000
0001
0010
0000
0100
0000
1000
0001
1000
0000
0001
0000
0100
0000
,
0010
0100
0000
0000
1010
0000
0100
0000
0010
0001
0010
0000
0100
0000
1000
0000
,
1010
0000
0000
1000
0001
0000
0100
0000
0001
1000
0001
0000
1000
0000
0100
0000
,
1100
0000
0000
0001
0010
0000
0100
0000
1000
0000
0001
0000
0100
0000
0010
0000
,
0110
0000
0000
0010
1000
0000
0001
0000
0100
0001
0100
0000
0001
0000
1000
0000
,
1100
0000
0000
0001
0010
0100
1000
0000
0001
0000
1000
0000
1001
0000
1000
0000
,
1010
0000
0000
0001
1000
0000
0100
0000
1000
0100
0010
0000
0100
0000
0010
0000
,
0100
0000
0000
1000
0010
0000
1000
0000
0001
1000
0001
0000
1000
0000
0001
0000
,
0101
0000
0000
0001
0100
0000
0010
0000
1010
0000
0000
1000
0100
0000
1000
0000
,
1100
0000
0000
1000
0001
0000
0100
0000
0010
1000
0010
1000
0010
0000
1000
0000
,
1001
0000
0000
1000
0100
0000
0010
0000
0011
0000
0000
0010
0100
0000
1000
0000
,
1001
0000
0000
1000
0010
0000
1000
0000
0001
0100
0001
0100
0001
0000
1000
0000
,
1100
0000
1000
0001
0010
0000
0001
0000
1000
0000
0010
0000
1000
0000
0001
0000
,
0101
0000
0001
0100
0010
0000
1000
0000
0100
0000
0010
0000
0100
0000
1000
0000
,
1001
0000
1000
0100
1000
0000
0001
0010
0001
0000
1000
0010
1000
0000
0001
0100
,
0001
0000
1000
0000
0100
0000
0010
0001
0010
0000
0100
1000
0001
0000
1000
0000
,
1010
0000
1010
0000
1001
0100
1001
0000
,
0110
0000
0101
0000
0101
0010
0101
0000
,
1001
0000
1100
0000
1010
0100
1010
0000
,
1010
0000
1001
0000
1100
0001
1010
0001
,
1000
0100
0000
0000
0001
1000
0000
0000
0101
0000
0000
0000
1001
0000
0000
0000
,
1100
0011
1001
1010
,
1000
0001
0000
0000
0001
0100
0000
0000
0110
0000
0000
0000
1001
0000
0000
0000
,
1100
0000
0000
0000
0011
0000
0000
0000
0001
0000
1000
0000
0010
1000
0010
0000
,
1000
0000
0001
0100
0000
0000
1001
0000
0000
0000
1001
0000
0000
0000
0001
0000
,
0100
0000
0001
1000
0100
0000
1000
0000
0001
0000
1001
0000
0000
0000
0001
0000
,
0100
0010
0000
1000
0100
0000
0010
0000
0100
0000
0100
0000
0010
0000
0100
0000
,
1000
0010
0000
0100
0010
0000
0100
0000
0001
0000
0100
0000
0010
0000
1000
0000
,
1001
0000
0000
0000
1100
0000
0000
0000
1000
0000
0001
0000
0000
0100
0001
0000
,
1000
0001
0000
0000
1100
0000
0000
0000
1000
0000
0010
0000
0100
0000
0001
0000
,
0010
0000
0000
0000
0011
0000
0000
0000
0010
0100
0000
1000
0001
0000
0010
0000
,
0100
0000
1000
0010
1000
0000
0001
0000
0100
0000
0001
0000
1000
0000
0001
0000
,
1001
0000
0000
0001
1000
0000
0001
0000
1000
0001
1000
0000
0001
0000
1000
0000
,
0001
0000
1000
0000
0001
0000
0000
1000
0001
0000
1000
0000
0001
0000
1000
0000
,
0110
0000
0000
0010
0100
0000
0010
0000
0100
0010
0100
0000
0010
0000
0100
0000
,
0010
0000
0100
0010
0100
0000
0010
0000
0100
0010
0100
0000
0010
0000
0100
0000
,
1010
0000
0000
0010
1000
0000
0001
0000
0100
0000
0001
0000
0100
0000
0001
0000
,
0011
0000
0000
0001
0010
0000
0100
0000
1000
0000
0001
0000
1000
0000
0100
0000
,
1100
0000
0000
1000
0100
0000
1000
0000
1001
0000
0000
0001
0100
0000
0001
0000
,
1001
0000
0000
1000
0100
0000
0010
0000
0001
0000
1000
0000
0001
1000
0000
0000
,
1001
1001
0110
0110
,
1000
0000
0001
0000
1000
0001
0100
0000
0110
0000
0010
0000
1001
0000
0000
0000
,
1000
0100
0000
0001
0010
0000
0100
0000
1000
0001
0010
0100
1000
0000
0001
0000
,
1001
0000
0000
0001
0100
0000
0010
0000
1000
0100
1000
0000
0001
0000
0010
0000
,
0011
0000
0000
0010
0100
0000
1000
0000
0010
0100
0010
0000
0100
0000
0001
0000
,
0101
0000
0000
0001
0100
0000
0010
0000
1000
0100
1000
0000
0001
0000
0010
0000
,
0011
0000
0010
0100
1000
0000
0001
0000
0100
0000
0010
1000
0100
0000
1000
0000
,
0001
0000
0010
0001
0010
0000
0001
0000
1000
0000
0010
1000
0010
0000
1000
0000
,
0001
0000
0100
0000
0010
1000
0100
0000
0010
0000
0001
0000
0010
0100
1000
0001
;

//---------------dance-single - Renard----------------
#NOTES:
     dance-single:
     Renard:
     Medium:
     6:
     0.423,0.548,0.372,0.041,0.000:
0000
0000
0000
0000
,
0000
0000
0000
0000
,
0000
0000
0000
0000
,
0000
0000
0000
0000
,
0000
1000
0001
0100
,
0010
0100
0010
0000
1000
0010
1000
0000
,
0001
0000
0001
0000
1000
0100
1000
0100
,
1000
0000
1000
0000
0001
0100
0001
0100
,
0001
0000
0001
0000
1000
0100
1000
0001
,
1000
0002
0200
0313
,
0001
0000
0001
0100
0010
1000
0100
0010
,
0001
0001
1000
1000
,
0001
0000
0001
0000
1000
0100
0010
0001
,
1000
0000
1000
0000
0001
0010
0100
1000
,
0001
0000
0001
0000
1000
0100
1000
0001
,
1000
0000
1000
0000
0100
1000
0001
1000
,
0100
0000
0100
0000
1000
0001
1000
0010
,
1000
0000
0001
0010
0100
1000
0001
1000
,
0001
0100
0001
1000
,
0100
0000
1000
0000
0001
0010
0001
0000
,
1000
0001
0100
0001
,
1000
1001
0001
1001
,
0001
0100
0001
0100
0010
0000
0100
0000
,
0010
1000
0010
1000
0100
0000
1000
0000
,
0001
0010
0001
0000
1000
0010
1000
0000
,
0001
0100
0001
0000
1000
0100
1000
0000
,
1001
0110
0010
1000
,
0001
0100
0001
1000
,
0100
1000
0001
0010
,
0001
0000
1000
0000
0010
0000
1000
0010
,
1000
0001
0100
0001
,
0010
0100
1000
0010
,
1000
0001
0100
0001
,
1000
0001
1000
0000
0001
1000
0001
0000
,
1000
0000
0110
0000
0000
1010
0000
0000
,
1000
0000
1100
0000
0000
0011
0000
0000
,
0001
0000
1001
0000
0000
0101
0000
0000
,
0010
1010
0000
1001
,
1100
0000
0011
0000
0000
1001
0000
0000
,
0001
0000
0110
0000
0000
1001
0000
0000
,
1000
0000
0011
0000
0000
1100
0000
0000
,
1001
0000
0110
0000
0000
1001
0000
0000
,
1000
1000
1000
1000
,
1000
1000
1000
1000
,
1001
1001
0001
0001
,
0001
0001
0001
0001
,
1001
2001
3001
0001
,
0001
0001
0001
0001
,
1001
0000
1002
0000
1000
0003
1001
0000
,
1001
0110
1001
0110
,
1001
0000
0000
0000
,
0000
0000
0000
0110
,
1001
0000
0001
0000
1000
0100
1000
0000
,
0001
0000
1000
0000
0010
0100
0010
0000
,
0100
0000
0001
0000
1000
0001
1000
0000
,
0001
0000
0010
0000
0100
0000
1000
0001
,
1000
1000
0001
0001
,
1000
1000
0010
0010
,
0100
0000
0100
0000
0001
0000
0001
1000
;

//---------------dance-single - Renard----------------
#NOTES:
     dance-single:
     Renard:
     Easy:
     3:
     0.273,0.549,0.352,0.000,0.000: // measure 1
0000
0000
0000
0000
,  // measure 2
0000
0000
0000
0000
,  // measure 3
0000
0000
0000
0000
,  // measure 4
0000
0000
0000
0000
,  // measure 5
0000
0000
0000
0000
,  // measure 6
0000
0000
0000
0000
,  // measure 7
1000
1000
1000
0000
,  // measure 8
0001
0001
0001
0000
,  // measure 9
0100
0100
0100
0000
,  // measure 10
0010
0100
0110
0000
,  // measure 11
0010
1000
0010
1000
,  // measure 12
0001
0100
0001
0100
,  // measure 13
0001
1000
0001
1000
,  // measure 14
0001
0000
1000
0000
,  // measure 15
0001
0010
0001
0010
,  // measure 16
0100
1000
0100
1000
,  // measure 17
0010
1000
0010
1000
,  // measure 18
0001
0000
0100
0000
,  // measure 19
0001
1000
1001
0000
,  // measure 20
1000
0001
1001
0000
,  // measure 21
0010
0100
0110
0000
,  // measure 22
0100
0010
0110
0000
,  // measure 23
0010
1000
0010
0000
,  // measure 24
0100
0001
0100
0000
,  // measure 25
0001
0000
1000
0000
,  // measure 26
0001
1000
0001
1000
,  // measure 27
1001
0000
0001
0000
,  // measure 28
0100
0010
1000
0100
,  // measure 29
0110
0000
0100
0000
,  // measure 30
1000
0001
0100
0001
,  // measure 31
1001
0000
0001
0000
,  // measure 32
1000
0010
1000
0001
,  // measure 33
1001
0000
0101
0000
,  // measure 34
1001
0000
1100
0000
,  // measure 35
1000
0001
0100
0000
,  // measure 36
0001
0000
1100
0000
,  // measure 37
0001
1000
0100
0000
,  // measure 38
1000
0000
0101
0000
,  // measure 39
0001
1000
0001
0000
,  // measure 40
1010
0000
1001
0000
,  // measure 41
1000
0001
0010
0000
,  // measure 42
1001
0000
1001
0000
,  // measure 43
1001
1001
0000
0000
,  // measure 44
0000
0000
0000
0000
,  // measure 45
0110
0110
0000
0000
,  // measure 46
0000
0000
0000
0000
,  // measure 47
1001
1001
0000
0000
,  // measure 48
0000
0000
0000
0000
,  // measure 49
0110
0110
1001
1001
,  // measure 50
0110
1001
0110
1001
,  // measure 51
1001
0000
0000
0000
,  // measure 52
0000
0000
0000
1001
,  // measure 53
1000
1000
0001
0001
,  // measure 54
0100
0100
0001
0001
,  // measure 55
1000
1000
0010
0010
,  // measure 56
1000
0001
1000
0001
,  // measure 57
1000
1000
0001
0001
,  // measure 58
0010
0010
0100
0100
,  // measure 59
1000
1000
0001
0100
,  // measure 60
0010
0000
0000
0000
;
