#TITLE:18!;
#SUBTITLE:;
#ARTIST:Omicron Complex;
#TITLETRANSLIT:;
#SUBTITLETRANSLIT:;
#ARTISTTRANSLIT:;
#CREDIT:;
#BANNER:18.png;
#BACKGROUND:18-bg.png;
#LYRICSPATH:;
#CDTITLE:;
#MUSIC:18.ogg;
#OFFSET:0.000;
#SAMPLESTART:30.316;
#SAMPLELENGTH:12.000;
#SELECTABLE:YES;
#BPMS:0.000=190.000,128.000=380.000,150.000=190.000;
#STOPS:;
#BGCHANGES:;

//---------------dance-single - Renard----------------
#NOTES:
     dance-single:
     Renard:
     Challenge:
     8:
     0.598,0.600,0.339,0.021,0.000:
0000
0000
0000
0000
,
0000
0000
0000
0000
,
0000
0000
0000
0000
,
0000
0000
0000
0000
,
1000
1000
0001
0001
,
0100
0010
0100
0010
0100
0000
0010
0000
,
1000
1000
0100
0100
,
0010
0001
0010
0000
0100
1000
0100
0000
,
1000
1001
0001
0101
,
0001
1001
1000
1100
,
1000
1001
0001
0101
,
0001
0100
0010
1000
0100
0010
0001
0000
,
1000
1001
0001
0101
,
0001
1001
1000
1100
,
1000
1001
0001
0011
,
0001
0010
0100
1000
0010
1000
0010
0000
,
1000
0010
0100
0001
,
0010
0000
0100
0000
1000
0100
0010
0001
,
1000
0001
0100
0010
,
2000
3100
0020
0031
,
0001
0000
0010
0100
1000
0000
0010
0100
,
0001
0100
0010
1000
,
0100
1000
0010
1000
,
0001
0100
0010
0100
0010
0000
0110
0000
,
0010
1010
1000
1001
,
1000
0000
0100
0010
0001
0000
0010
0000
,
0001
0101
0001
0011
,
0001
0010
0001
0000
1000
0100
1000
0000
,
0010
1010
0001
1001
,
1000
0100
1000
0100
1000
0000
0100
0000
,
0010
0100
0010
0000
0001
0010
0001
0000
,
0010
0100
1000
0000
0001
0100
0010
0000
,
1000
0001
1000
0001
,
1000
0001
1000
0001
,
1000
0001
1000
0001
,
1000
0001
1000
0001
,
1000
0001
0000
0000
,
0000
0000
1001
0001
,
0001
0100
0000
0100
0001
0000
0001
1000
,
0000
1000
0100
0000
1000
0000
0010
0000
,
0010
1000
0000
1000
0001
0000
0010
0000
,
0010
0100
0000
0100
1000
0000
0001
0000
,
0001
0100
0000
0100
0001
0000
0001
1000
,
0000
1000
0010
0000
1000
0000
0100
0000
,
0100
1000
0000
1000
0010
0000
0100
0000
,
0100
0001
0000
0001
0010
0000
0001
0000
,
0011
0000
0010
0000
0100
1000
0100
0000
,
1000
0010
1000
0000
0010
0000
1000
0000
,
1100
0000
1000
0000
1010
0000
0010
0100
,
0010
0000
0100
0001
0100
0000
0001
1000
,
0001
0000
0010
0001
0010
0000
0001
0100
,
0001
1000
0001
0000
1000
0000
0100
1000
,
0100
0000
1000
0010
1000
0000
0001
0010
,
0001
0100
0001
0000
1000
0000
0001
0000
,
1001
0001
0101
0100
,
0110
0000
0010
0000
1010
0000
1000
0100
,
1000
0100
1000
0100
1000
0000
0001
0010
,
0001
0010
0001
0010
0001
0000
0100
0000
,
0110
0010
1010
1000
,
1001
0000
1000
0000
1100
0000
0001
0010
,
0001
0010
0001
0000
1000
0000
0100
1000
,
0100
1000
0010
0100
0001
0000
1001
0000
,
0001
0100
0000
0001
0000
1000
0000
0100
,
1000
0100
1000
0000
0010
0000
0100
0000
,
0001
1000
0000
0001
0000
1000
0000
0010
,
0000
1000
0100
0000
1000
0000
0001
0000
,
0010
0001
0000
1000
0000
0010
0000
0100
,
0000
0001
0100
0000
0001
0000
1000
0000
,
0100
1000
0000
0001
0010
0000
0100
1000
,
0010
0100
0001
0000
0100
0000
0001
0000
,
0001
1000
0000
1000
0100
0000
0010
0001
,
0010
0001
0010
0000
0100
0000
1000
0000
,
1000
0010
0000
0010
0100
0000
0100
0001
,
1000
0001
1000
0000
0100
0000
1000
0001
,
1000
0001
1000
0000
0010
1000
0010
1000
,
0010
0000
1000
0100
1000
0000
0001
0010
,
0001
0100
0001
1000
0001
0000
1000
0001
,
1000
0010
1000
0100
1000
0000
1001
0000
;

//---------------dance-single - Renard----------------
#NOTES:
     dance-single:
     Renard:
     Hard:
     8:
     0.513,0.680,0.082,0.000,0.000:
0000
0000
0000
0000
,
0000
0000
0000
0000
,
0000
0000
0000
0000
,
0000
0000
0000
0000
,
0001
0100
0010
1000
,
0100
0000
0010
0000
0001
0000
1000
0001
,
1000
0001
1000
0010
,
1000
0010
1000
0000
0001
0100
0001
0000
,
1000
0000
0100
0000
0010
0000
0001
0010
,
0001
0010
0001
0010
0001
0010
0001
0010
,
0100
0000
1000
0000
0010
1000
0010
1000
,
0010
1000
0010
1000
0010
1000
0010
1000
,
0100
1000
0100
1000
0001
1000
0001
1000
,
0010
1000
0010
1000
0100
1000
0100
1000
,
0001
1000
0001
1000
0001
0100
0001
0100
,
0001
0000
0010
0000
0001
1000
0001
0000
,
0001
0100
0010
1000
,
0100
0010
0001
1001
,
0001
0100
0010
1000
,
0100
1000
0001
1001
,
1000
0010
0100
0001
,
0010
0100
1000
1001
,
0001
0101
0100
0110
,
0010
1000
0010
1000
0001
0000
1001
0000
,
1000
0000
0100
0000
0010
0001
0010
0000
,
0100
1000
0010
0100
,
0001
0000
0100
0000
0010
1000
0010
0000
,
1000
0100
1000
0000
0001
0010
0001
0000
,
1000
0000
0010
0000
0100
0001
0100
0000
,
0001
0000
0010
0000
0100
1000
0100
0000
,
1000
0000
0001
0000
0100
0010
0100
0000
,
0010
1000
0010
1000
0001
1000
0001
0000
,
1000
0001
1000
0001
,
1000
0001
1000
0001
,
1000
0001
1000
0001
,
1000
0001
1000
0001
,
1000
0001
0000
0000
,
0000
0000
1001
0001
,
0000
0100
0000
0000
0010
0000
1000
0000
,
0100
0010
0001
0010
,
0000
0100
0000
0000
1000
0000
0010
0000
,
0000
0100
0000
0000
0001
0000
1000
0000
,
0000
0100
0000
0000
1000
0000
0000
0010
,
0000
0100
0001
0100
,
0000
0010
0000
0000
1000
0000
0100
0000
,
0000
1000
0000
0000
0010
0000
0100
0000
,
0000
0001
0000
0001
1000
0000
0100
0000
,
0000
1000
0000
1000
0010
0000
0100
0000
,
0000
0001
0000
0001
0010
0000
0100
0000
,
0000
1000
0000
1000
0010
0000
0100
0000
,
0000
0001
0000
0001
1000
0000
0100
0000
,
0000
1000
0000
1000
0010
0000
0100
0000
,
0000
0001
0000
0001
0010
0000
0100
0000
,
0000
1000
0000
1000
0010
0000
1000
0000
,
1000
0010
0010
0100
,
0100
0000
0001
0100
0001
0100
0001
0000
,
0001
0010
0010
0100
,
0100
0000
1000
0100
1000
0100
1000
0000
,
1000
0010
0010
0100
,
0100
0000
0001
0100
0001
0100
0001
0000
,
0001
0000
0010
0000
0010
0000
0100
1000
,
0100
0000
1000
0001
1000
0000
0001
0000
,
0001
0100
0100
0010
,
0010
1000
1000
0100
,
0100
1000
1000
0001
,
0001
0010
0010
0001
,
0001
1000
1000
0100
,
0100
1000
1000
0010
,
0010
0000
0100
0000
0100
0000
0001
1000
,
0001
0000
0100
0010
0100
0000
0010
0000
,
0010
1000
1000
0100
,
0100
0000
0010
0000
0001
0010
0001
0000
,
0010
0001
0010
0000
0001
0010
0001
0010
,
0100
1000
0001
0000
1000
0000
0100
0000
,
0100
1000
1000
0010
,
0010
0100
0100
0001
,
0001
0000
1000
0000
1000
0000
0100
1000
,
0100
0000
1000
0001
0010
0000
1001
0000
;

//---------------dance-single - Renard----------------
#NOTES:
     dance-single:
     Renard:
     Medium:
     6:
     0.419,0.480,0.123,0.000,0.000:
0000
0000
0000
0000
,
0000
0000
0000
0000
,
0000
0000
0000
0000
,
0000
0000
0000
0000
,
1000
1000
0001
0100
,
0010
0000
0010
0000
1000
0000
0100
1000
,
0100
1000
0001
0010
,
0001
0000
1000
0000
0001
1000
0001
0000
,
0100
0000
0100
0001
0100
0000
0100
0001
,
0100
0000
0100
0001
0100
0000
0100
0000
,
0001
0000
0001
1000
0001
0000
0001
1000
,
0001
0000
0001
1000
0100
0000
0100
0000
,
1000
0000
1000
0001
1000
0000
1000
0000
,
0001
0000
0001
1000
0001
0000
0001
0000
,
0100
0000
0100
0000
,
0010
0000
1000
0000
0001
1000
0001
0000
,
1000
0001
1000
1001
,
0001
1000
0001
1001
,
0100
0010
0100
0110
,
0010
0000
0100
0000
0010
0100
0010
0000
,
1000
0000
0001
1000
,
0001
0000
1000
0000
,
0010
0000
0100
0000
,
0010
1000
0001
1000
0100
0000
1000
0000
,
0001
0001
1000
0000
,
1000
1000
0001
0000
,
0100
0100
0010
0010
,
1000
0100
0010
0000
,
0001
0001
0010
0010
,
0100
0100
1000
1000
,
0001
0010
0100
1000
,
0001
1000
1001
1001
,
0001
0000
0001
0000
,
0100
0000
0100
0000
,
0010
0000
1000
0000
,
1100
0000
0000
0000
,
1001
0000
0000
0000
,
0000
0000
1001
0001
,
0000
1000
0000
0000
0100
0000
0000
1000
,
0000
0001
0010
0100
,
0000
1000
0000
0000
0010
0000
0100
0000
,
0000
0001
0000
0000
0010
0000
0100
0000
,
0000
0010
0000
0000
0001
0000
0000
1000
,
0000
0010
0000
0100
,
0000
0001
0000
0000
0100
0000
0001
0000
,
0000
1000
0000
0000
0001
0000
1000
0000
,
0100
1000
0000
0001
,
0010
0001
0000
1000
,
0010
1000
0000
0001
,
0100
0001
0000
1000
,
0000
1000
0000
0001
,
0000
0001
0000
1000
,
0000
0001
0000
0100
,
0000
0010
0000
1000
,
0010
1000
0000
0001
,
0100
0001
0000
1000
,
0100
0000
1000
0000
0001
0000
0010
0001
,
0010
0001
0000
1000
,
0100
1000
0000
0010
,
1000
0000
0010
0000
0000
0000
0100
0001
,
0100
0000
0001
0000
0100
0000
0001
1000
,
0001
1000
0001
1000
0001
0000
1000
0000
,
1000
0001
0001
0100
,
0100
0010
0110
0010
,
0010
1000
1000
0100
,
0010
0001
0011
0010
,
0100
1000
0001
0010
,
0100
1000
1001
1000
,
0010
0100
0001
1000
,
0010
0000
1000
0001
1000
0000
0001
0000
,
0001
0000
1000
0000
1000
0000
0010
1000
,
0001
0000
1000
0100
1000
0000
0001
0000
,
0001
0000
1000
0000
1000
0000
0001
1000
,
0010
0000
1000
0001
1000
0000
0001
0000
,
0100
0000
0001
0000
1000
0000
0001
1000
,
0100
0000
1000
0001
0100
0000
0001
0000
,
1000
0001
0010
0001
,
1000
0000
0010
1000
0001
0000
1001
0000
;

//---------------dance-single - Renard----------------
#NOTES:
     dance-single:
     Renard:
     Easy:
     4:
     0.361,0.360,0.000,0.000,0.000: // measure 1
0000
0000
0000
0000
,  // measure 2
0000
0000
0000
0000
,  // measure 3
0000
0000
0000
0000
,  // measure 4
0000
0000
0000
0000
,  // measure 5
0001
0001
1000
0010
,  // measure 6
0100
0100
0001
0010
,  // measure 7
0010
0001
1000
0100
,  // measure 8
1000
0001
1000
1000
,  // measure 9
0010
0010
1000
0010
,  // measure 10
1000
0010
1000
0010
,  // measure 11
1000
1000
1000
1000
,  // measure 12
1000
1000
0010
0010
,  // measure 13
0001
0001
1000
0001
,  // measure 14
1000
1000
1000
1000
,  // measure 15
0010
0000
0010
0000
,  // measure 16
0100
0001
1000
1000
,  // measure 17
0001
1000
0001
1000
,  // measure 18
1000
0001
1000
1000
,  // measure 19
0010
0100
0010
0100
,  // measure 20
0100
0010
0100
0100
,  // measure 21
0001
0000
1000
0001
,  // measure 22
1000
0000
0001
0000
,  // measure 23
0100
0000
0010
0000
,  // measure 24
0100
1000
0010
0001
,  // measure 25
1000
1000
0001
0000
,  // measure 26
0001
0001
1000
0000
,  // measure 27
0010
0010
0100
0100
,  // measure 28
0001
0010
0100
0000
,  // measure 29
1000
1000
0100
0100
,  // measure 30
0010
0010
0001
0001
,  // measure 31
1000
0100
0010
0001
,  // measure 32
1000
0001
1000
1000
,  // measure 33
1000
0000
1000
0000
,  // measure 34
0010
0000
0010
0000
,  // measure 35
0100
0000
0001
0000
,  // measure 36
0010
0000
0000
0000
,  // measure 37
1000
0000
0000
0000
,  // measure 38
0000
0000
1000
1000
,  // measure 39
0000
0001
0010
0000
,  // measure 40
0001
1000
0100
0010
,  // measure 41
0000
0001
0100
0010
,  // measure 42
0000
1000
0100
0010
,  // measure 43
0000
0100
1000
0000
,  // measure 44
0001
0100
0000
0010
,  // measure 45
0000
1000
0010
1000
,  // measure 46
0000
0001
1000
0001
,  // measure 47
0010
0001
0000
1000
,  // measure 48
0100
1000
0000
0001
,  // measure 49
0100
0001
0000
1000
,  // measure 50
0010
1000
0000
0001
,  // measure 51
0000
0001
0000
1000
,  // measure 52
0000
1000
0000
0001
,  // measure 53
0000
1000
0000
0010
,  // measure 54
0000
0100
0000
0001
,  // measure 55
0100
0001
0000
1000
,  // measure 56
0010
1000
0000
0001
,  // measure 57
0010
0001
1000
0100
,  // measure 58
1000
1000
0000
0001
,  // measure 59
0010
0001
0000
0100
,  // measure 60
0001
0100
0000
0010
,  // measure 61
1000
1000
0010
1000
,  // measure 62
1000
1000
1000
0001
,  // measure 63
0001
1000
1000
0010
,  // measure 64
0010
0100
0100
0100
,  // measure 65
0100
0001
0001
0010
,  // measure 66
0100
1000
1000
0100
,  // measure 67
0010
0001
1000
0100
,  // measure 68
0010
0001
1000
0001
,  // measure 69
0100
0010
1000
0001
,  // measure 70
0100
0001
1000
1000
,  // measure 71
1000
0001
0001
0100
,  // measure 72
1000
0001
0010
1000
,  // measure 73
1000
0001
0001
1000
,  // measure 74
0100
0001
1000
1000
,  // measure 75
0010
1000
0001
1000
,  // measure 76
0010
0001
1000
1000
,  // measure 77
0001
1000
0100
1000
,  // measure 78
0001
0100
1000
1000
;
