#TITLE:13 + 30;
#SUBTITLE:;
#ARTIST:Fantomas;
#TITLETRANSLIT:;
#SUBTITLETRANSLIT:;
#ARTISTTRANSLIT:;
#CREDIT:;
#BANNER:13.png;
#BACKGROUND:13-bg.png;
#LYRICSPATH:;
#CDTITLE:;
#MUSIC:13.ogg;
#OFFSET:0.000;
#SAMPLESTART:41.503;
#SAMPLELENGTH:12.000;
#SELECTABLE:YES;
#BPMS:0.000=150.000,31.000=300.000,41.000=75.000,44.000=150.000,67.500=300.000,73.500=150.000,78.000=168.240,107.000=167.640,116.000=169.520,121.500=170.540,133.000=169.720,148.500=165.260,149.000=157.660,149.500=156.660,150.000=155.060,150.500=165.880,167.500=168.700,170.000=165.460,171.000=223.520,179.000=228.740,210.333=229.960,233.000=217.540,235.000=202.980,245.000=199.340,247.000=186.740,248.000=194.600,252.500=201.160,253.000=215.580,253.500=215.380,254.000=225.200,254.500=209.580,255.000=211.540,255.500=192.860,262.000=201.280;
#STOPS:73.500=0.100
,77.000=4.340
,121.000=0.157
,142.500=0.177
,170.000=3.989
;
#BGCHANGES:;

//---------------dance-single - Renard----------------
#NOTES:
     dance-single:
     Renard:
     Hard:
     9:
     0.654,0.620,0.483,0.095,0.530: // measure 1
1000
0000
1000
0001
0000
0100
0010
0000
0010
1000
0000
0100
,  // measure 2
0010
0000
0010
0001
0000
0010
0100
0000
1010
0000
0000
0101
,  // measure 3
0000
0000
1001
0000
0000
1100
0000
0000
0010
0001
0000
0001
,  // measure 4
1000
0000
0010
0100
0000
0100
0001
0000
0010
0100
0000
1001
,  // measure 5
0000
0000
0110
0000
0000
1001
0000
0000
0110
0000
0000
0010
,  // measure 6
1000
0000
1000
0001
0000
0100
0001
0000
0010
0100
0000
1000
,  // measure 7
0001
0000
0100
0010
0000
1001
0000
0000
0110
0000
0000
1001
,  // measure 8
0000
0000
0000
0000
0110
0000
0000
0000
0000
0000
0100
0000
1000
0000
0000
0000
0000
0000
0001
0000
0000
0100
0000
0000
,  // measure 9
0001
0100
0001
0100
0001
0100
0001
0100
,  // measure 10
0001
0100
0001
0100
0001
0100
0001
0100
,  // measure 11
0001
0100
0002
0000
0000
0000
0000
0000
,  // measure 12
1003
0000
0001
0100
0000
0010
1000
0000
0100
0010
0000
0001
,  // measure 13
0010
0000
0100
1000
0000
0001
0200
0000
0000
0002
0000
0000
,  // measure 14
0000
0000
1010
0000
0000
1010
0303
0000
0001
0100
0000
0100
,  // measure 15
0010
0000
1000
0100
0000
0010
0001
0000
0010
0100
0000
1000
,  // measure 16
0000
0000
0101
0000
0000
1010
0000
0000
1001
0000
0000
1000
,  // measure 17
0001
0000
0000
0000
0000
0000
0100
0000
0000
0000
0010
0000
0000
0000
0000
0000
1001
0000
0000
0000
0000
0001
0000
0000
,  // measure 18
0100
0001
0100
0001
0100
0001
0100
0001
,  // measure 19
0100
0001
0100
0000
0000
0000
0000
0000
,  // measure 20
0000
0000
0000
0000
2222
3333
0000
0000
1000
0000
0000
0000
0001
0000
0001
0000
,  // measure 21
0100
0000
0010
0010
1000
0000
0100
0010
,  // measure 22
0000
0000
0001
0010
0100
1000
0001
0000
,  // measure 23
0110
0000
0110
1001
0000
0000
1000
0100
,  // measure 24
0010
0000
0001
0010
0000
0000
0100
1000
,  // measure 25
0011
0000
0001
1000
0100
0000
0010
0001
,  // measure 26
0100
0000
1010
1010
0100
0000
0000
0000
,  // measure 27
1001
0000
0001
0100
0010
1000
0001
0000
,  // measure 28
0001
0100
0010
0000
0010
1000
0100
0000
,  // measure 29
0100
1000
0001
0000
0010
0000
1001
0000
,  // measure 30
0001
0100
0010
0000
2000
0000
0000
3001
,  // measure 31
0100
0010
1000
0001
1000
0100
0010
0000
,  // measure 32
0011
0011
0000
0000
1100
1100
0000
0000
,  // measure 33
0001
0010
0000
0000
0001
1000
0010
0000
,  // measure 34
0110
0000
1001
0000
0001
1000
0010
0000
,  // measure 35
1000
0100
0010
0000
0011
0011
0000
0000
,  // measure 36
1100
1100
0000
1000
0010
1001
0000
0000
,  // measure 37
0110
0000
0110
1001
0000
0000
1001
0110
,  // measure 38
0000
0000
0001
1000
0000
0000
1001
0000
,  // measure 39
0001
0010
0100
1000
0001
0000
0001
0100
,  // measure 40
0010
0000
0010
1000
0100
0000
0100
0010
,  // measure 41
0001
0000
0001
0010
0100
0000
0100
1000
,  // measure 42
0010
0100
0001
0000
0001
0100
0010
1000
,  // measure 43
1000
0000
0001
0000
0100
0000
0010
0000
2MMM
3000
MMMM
0000
1001
0000
0000
0000
,  // measure 44
0010
0100
0010
0100
0000
0000
0001
1000
0001
1000
0000
0010
,  // measure 45
0000
1000
0000
0100
0000
0000
0010
0001
0010
0001
0000
0000
,  // measure 46
0010
0100
0010
0100
0000
0000
1000
0100
1000
0001
0000
1000
,  // measure 47
0000
0010
0000
0100
0000
0000
0001
0100
0001
0100
0000
0000
,  // measure 48
0010
0100
0010
0100
0000
0000
0010
1000
0010
1000
0000
0100
,  // measure 49
0000
0010
0000
0001
0000
0000
0010
0100
0010
0100
0000
0000
,  // measure 50
1000
0100
1000
0100
0000
0000
1000
0001
1000
0001
0000
0100
,  // measure 51
0000
0010
0000
1000
0000
0000
0001
0010
0100
1000
0000
0000
,  // measure 52
1000
0100
0010
0001
0000
0000
0001
0010
0100
1000
0000
1000
,  // measure 53
0000
1000
0000
0001
0000
0000
1000
0100
0010
0001
0000
0000
,  // measure 54
0001
0010
0100
1000
0000
0000
1000
0100
0010
0001
0000
0001
,  // measure 55
0000
0001
0000
1000
0000
0000
1000
0010
0100
0001
0000
0000
,  // measure 56
0001
0100
0010
1000
0000
0000
1000
0010
0100
0001
0000
0001
,  // measure 57
0000
0001
0000
1000
0000
0000
0001
0100
0010
1000
0000
0000
,  // measure 58
1000
0010
0100
0001
0000
0000
0001
0000
0000
1001
0000
1001
,  // measure 59
0000
0000
1001
0000
0000
0000
0110
0000
0000
0000
0110
0000
0000
0000
0110
0000
0000
0000
1000
0000
0000
0001
0000
0000
,  // measure 60
0100
0010
1000
0100
0010
0001
0100
0010
,  // measure 61
1000
0100
0010
0001
0100
0010
1000
0001
,  // measure 62
0001
0001
1000
0100
0010
0001
0100
0010
,  // measure 63
1000
0100
0010
0001
0010
0100
1000
0001
,  // measure 64
0100
0010
1000
0100
0100
0100
0010
0001
,  // measure 65
0010
0100
1000
0001
0100
0010
1000
0100
,  // measure 66
0010
0001
0010
0100
1000
0010
0100
0001
,  // measure 67
0001
0002
0000
0000
0000
0000
0000
0000
,  // measure 68
0000
0000
0000
0000
,  // measure 69
0000
0000
0000
0000
,  // measure 70
0003
0000
0000
0000
;

//---------------dance-single - Renard----------------
#NOTES:
     dance-single:
     Renard:
     Medium:
     7:
     0.387,0.490,0.312,0.009,0.000:
1000
0101
1000
0011
,
0100
0110
1001
0110
,
1001
0110
1000
0101
,
0010
1100
1000
0101
,
0010
1000
0100
0010
,
0011
0010
0110
0100
,
1100
0100
1001
0110
,
1001
0100
0010
1000
,
0010
1000
0010
1000
,
0010
1000
0010
1000
,
0010
0100
0000
0000
,
0100
0110
0010
0110
,
1001
0110
1000
0001
,
1000
0110
0110
1000
,
0001
0100
0010
1000
,
0001
0100
0001
0100
,
0001
0000
1000
0000
0100
0000
0000
0001
,
0000
0010
0000
0001
0000
0010
0000
0001
,
0000
0010
0000
0001
0000
0000
0000
0000
,
0000
1001
0000
0000
,
0000
0100
0010
0001
,
1000
0001
0010
0100
,
1000
0010
0100
0001
,
0100
0010
0100
0010
,
1000
0100
0010
0001
,
1000
0001
0100
0010
,
1000
0001
0100
0010
,
0000
1010
0000
0100
,
0001
0010
0100
1000
,
0001
0100
0000
0000
,
0010
1000
0010
0100
,
0001
0010
0001
0010
,
0000
0100
0000
1000
,
0010
0100
0001
0000
,
0100
0010
1000
0000
,
0100
0010
0001
0000
,
1000
0001
0100
0001
,
1000
0100
0010
0001
,
1000
0001
0100
0010
,
1000
0110
0000
1001
,
1000
0100
0010
0010
,
0001
0001
0010
0100
,
1000
0010
0101
0001
,
0001
1000
1000
0100
,
0100
0010
0010
0001
,
0001
1000
1000
0010
,
0010
0100
0100
0001
,
0001
0010
0010
0110
,
0000
0100
0100
1000
,
1000
0010
0010
0110
,
0000
0100
0001
1000
,
0100
0010
0001
1001
,
0000
0001
0100
0010
,
1000
0001
0100
1001
,
0000
1000
0100
0010
,
0001
1000
0001
1001
,
0000
0001
0100
0010
,
1000
0001
0100
1001
,
0000
0000
0000
0000
0000
0000
1000
0100
,
1000
0000
0001
0010
0001
0000
1000
0001
,
1000
0000
0001
0100
0010
1000
0000
0000
,
0000
0000
0001
0100
0001
0000
1000
0100
,
1000
0000
0001
0010
0001
0000
1000
0010
,
1000
0001
0100
0000
0000
0000
0001
1000
,
0001
0000
1000
0100
1000
0000
0001
0010
,
0001
0000
1000
0010
1000
0000
0001
0100
,
0010
2000
0000
0000
0000
0000
0000
0000
,
0000
0000
0000
0000
,
0000
0000
0000
0000
,
0000
3000
0000
0000
0000
0000
0000
0000
;

//---------------dance-single - Renard----------------
#NOTES:
     dance-single:
     Renard:
     Easy:
     3:
     0.260,0.296,0.114,0.028,0.000:
1000
0000
0001
1000
,
0001
0000
1000
1000
,
1000
1000
0001
0100
,
0001
1000
0001
0000
,
1000
0001
0100
0010
,
0000
0010
0000
0010
,
0000
0010
0100
0010
,
0100
0010
1000
1010
,
0000
0000
0000
0000
0000
1010
0000
0000
,
0000
0000
1010
0000
,
0000
1010
0000
0000
,
1000
0000
1000
0000
,
0001
0000
0001
0100
,
0001
1000
0100
0000
,
0100
0000
0100
0000
,
0100
1000
0001
0010
,
0100
0000
0100
0000
0000
0000
0000
1000
,
0000
0100
0000
1000
0000
0000
0000
0100
,
0000
1000
0000
0100
0000
0000
0000
0000
,
0000
1100
0000
1001
,
0000
0110
0000
0010
,
0000
1001
0000
1000
,
0100
0010
0000
0001
,
0000
0110
0000
1001
,
0000
1000
0001
0100
,
0010
0010
0100
0000
,
0001
1000
0100
0010
,
0000
0010
0001
1000
,
0000
0101
0000
0001
,
1000
0100
0000
0000
,
0010
0001
0000
1000
,
0000
0100
0000
0010
,
0000
0001
1000
0010
,
1000
0010
0100
0000
,
0001
0000
1000
0000
,
0100
0000
0010
0000
,
0001
0000
1000
0000
,
0100
1000
0001
0100
,
0001
0000
1000
0000
,
0100
0010
0000
0001
,
1000
0001
0100
0000
,
0010
0000
1000
0001
,
0100
0010
1000
0001
,
0000
1000
0000
0010
,
0000
0100
0000
0001
,
0000
1000
0000
0100
,
0000
0010
0000
0001
,
0000
1000
0000
0010
,
0010
1000
0000
0001
,
0000
0100
0000
0010
,
0010
1000
0000
0100
,
0000
0010
0000
0001
,
0001
1000
0000
0001
,
0000
0100
0000
0010
,
0010
0010
0000
1000
,
0000
0100
0000
1000
,
1000
0001
0000
0010
,
0000
0100
0000
1000
,
0000
0000
0000
1000
,
0001
0100
0010
1000
,
0001
0100
0010
2000
,
0000
3100
0010
0001
,
0010
0100
1000
0001
,
0100
0020
0000
1030
,
0100
0010
0001
0010
,
0100
1000
0001
0120
,
0000
0000
0000
0000
,
0000
0000
0000
0000
,
0000
0000
0000
0000
,
0000
0000
0030
0000
;
