#TITLE:12 Inch (A1 Rocco vs Bass-T Mix);
#SUBTITLE:;
#ARTIST:Niels De Vries;
#TITLETRANSLIT:;
#SUBTITLETRANSLIT:;
#ARTISTTRANSLIT:;
#CREDIT:;
#BANNER:;
#BACKGROUND:;
#LYRICSPATH:;
#CDTITLE:;
#MUSIC:12.ogg;
#OFFSET:0.000;
#SAMPLESTART:55.652;
#SAMPLELENGTH:12.000;
#SELECTABLE:YES;
#BPMS:0.000=138.000;
#STOPS:;
#BGCHANGES:;
#GENRE:Hard Dance;

//---------------dance-single - Renard----------------
#NOTES:
     dance-single:
     Renard:
     Hard:
     8:
     0.555,0.565,0.446,0.069,0.238:
0000
0000
0000
0000
,
0000
0000
0000
0000
,
1000
0010
0000
1000
0010
0000
0100
0000
0001
0000
0010
0000
0100
0000
0000
0000
,
1000
0000
0000
0010
0100
0000
0001
0000
1000
0000
0001
0000
1001
0000
0000
0000
,
1000
0000
0000
0010
0100
0000
0001
0000
0010
0000
0000
0000
0011
0000
0000
0000
,
0010
0000
0000
0010
0100
0000
1000
0000
0010
0000
0000
0000
1010
0000
0000
0000
,
1000
0000
0000
0000
0010
0000
0000
0000
0100
0000
0000
0001
0000
0000
0000
0000
,
1000
0000
0000
0000
0001
0000
0100
0000
0010
0000
0000
1000
0000
0000
0000
0000
,
0100
0000
0010
0001
0010
0000
0100
1000
,
0100
0000
1000
0010
1000
0000
0001
0100
,
0001
0000
1000
0100
1000
0000
0001
0010
,
0001
1000
0010
0100
0001
0000
1001
0000
,
1000
0000
0000
0000
0100
0000
0000
0000
0010
0000
0000
0000
0001
0000
0000
0000
0000
0000
0000
0000
0000
0000
0000
0000
1000
0000
0000
0001
0000
0000
0000
0000
0000
1000
0000
0000
0000
0000
0000
0000
0000
0000
0000
0000
0000
0000
0000
0000
,
0001
0000
0000
0000
0100
0000
0100
0000
0010
0000
0000
0010
0000
0000
0000
0000
,
1000
0000
0000
0000
0010
0000
0000
0000
0100
0000
0000
0000
0001
0000
0000
0000
0000
0000
0000
0000
0000
0000
0000
0000
1000
0000
0000
0010
0000
0000
0000
0000
0000
1000
0000
0000
0000
0000
0000
0000
0000
0000
0000
0000
0000
0000
0000
0000
,
0001
0000
0000
0000
0100
0000
0100
0000
0001
0000
0000
1000
0000
0000
0000
0000
,
0100
0000
0000
0000
0010
0000
0000
0000
0001
0000
0000
0000
0010
0000
0000
0000
0000
0000
0000
0000
0000
0000
0000
0000
0100
0000
0000
1000
0000
0000
0000
0000
0000
0100
0000
0000
0000
0000
0000
0000
0000
0000
0000
0000
0000
0000
0000
0000
,
0010
0000
0000
0000
0001
0000
1000
0000
0001
0000
0000
1000
0000
0000
0000
0000
,
0001
0000
0000
0000
1000
0000
0000
0000
0001
0000
0000
0000
1000
0000
0000
0000
0000
0000
0000
0000
0000
0000
0000
0000
0010
0000
0000
0100
0000
0000
0000
0000
0000
0110
0000
0000
0000
0000
0000
0000
0000
0000
0000
0000
0000
0000
0000
0000
,
2010
0000
0001
0010
,
0200
0000
0022
0000
,
0000
0000
0000
0000
,
0000
0000
3333
0000
,
0000
0000
0000
0000
,
1100
1000
1010
0010
0100
0001
0010
0100
,
1000
1000
0100
0010
0001
0001
0100
0010
,
1010
1000
1100
0100
0010
0001
0100
0010
,
1000
1000
0001
0001
0100
0100
0010
0010
,
1010
1000
1001
0001
0100
0100
0010
1000
,
0100
0100
0010
0001
0010
0100
1000
0010
,
1010
1000
1001
0001
0101
0100
0010
1000
,
0100
0100
0010
0001
0010
0010
0200
0000
,
1300
0000
0000
0000
0100
0000
0000
0000
0010
0000
0000
0000
0001
0000
0000
0000
0000
0000
0000
0000
0000
0000
0000
0000
1000
0000
0000
0001
0000
0000
0000
0000
0000
1001
0000
0000
0000
0000
0000
0000
0000
0000
0000
0000
0000
0000
0000
0000
,
0101
0000
0000
0000
0110
0000
0010
0000
1010
0000
0000
1001
0000
0000
0000
0000
,
0001
0000
0000
0000
0010
0000
0000
0000
0100
0000
0000
0000
1000
0000
0000
0000
0000
0000
0000
0000
0000
0000
0000
0000
1000
0000
0000
0001
0000
0000
0000
0000
0000
1001
0000
0000
0000
0000
0000
0000
0000
0000
0000
0000
0000
0000
0000
0000
,
1010
0000
0000
0000
0101
0000
0001
0000
0011
0000
0000
1100
0000
0000
0000
0000
,
0001
0000
0000
0000
0010
0000
0000
0000
0001
0000
0000
0000
0010
0000
0000
0000
0000
0000
0000
0000
0000
0000
0000
0000
1000
0000
0000
0100
0000
0000
0000
0000
0000
1100
0000
0000
0000
0000
0000
0000
0000
0000
0000
0000
0000
0000
0000
0000
,
0011
0000
0000
0000
1001
0000
1000
0000
1100
0000
0000
0011
0000
0000
0000
0000
,
1000
0000
0000
0000
0010
0000
0000
0000
1000
0000
0000
0000
0010
0000
0000
0000
0000
0000
0000
0000
0000
0000
0000
0000
1000
0000
0000
0010
0000
0000
0000
0000
0000
1010
0000
0000
0000
0000
0000
0000
0000
0000
0000
0000
0000
0000
0000
0000
,
0101
0000
0000
0000
0011
0000
0010
0000
0110
0000
0000
1100
0000
0000
0000
0000
,
0010
0001
0100
0010
1000
0100
0001
0100
,
1000
0010
0100
0001
0010
1000
0010
0001
,
0100
0010
1000
0100
0010
0001
0010
1000
,
0010
0001
0100
1000
0100
0000
0101
0000
,
0001
0100
0010
1000
0100
0010
0001
0010
,
0100
1000
0100
0001
0100
1000
0010
0100
,
0001
0100
1000
0100
0001
0010
0100
1000
,
0100
0001
0100
1000
0010
0000
1001
0000
,
0101
0100
0110
0000
1000
0010
0100
0001
,
0010
0100
1000
0100
0010
0000
0011
0000
,
0011
0010
0110
0000
1100
0000
0011
0000
,
1000
0000
0010
0000
0100
0000
0001
0000
0010
0000
0001
0000
0010
0001
0010
0001
,
0010
0100
0010
1000
0010
0001
0010
0100
,
0010
1000
0010
0001
0010
0100
0010
0001
,
0100
0010
0100
1000
0100
0001
0100
0010
,
0100
0001
0100
1000
0100
0010
0100
0020
,
2000
0000
0000
0000
,
3030
0000
0000
0000
;

//---------------dance-single - Renard----------------
#NOTES:
     dance-single:
     Renard:
     Medium:
     6:
     0.384,0.424,0.228,0.079,0.050:
0000
0000
0000
0000
,
0000
0000
0000
0000
,
0001
0100
0001
0100
0001
0000
0100
0000
,
0010
1000
0010
1000
0100
0000
0010
0000
,
1001
1010
0101
1001
,
1000
0000
0100
0010
0100
0000
0100
0000
,
1000
0010
0100
0001
,
1000
0000
0001
0100
0001
0000
1000
0000
,
0010
0000
0100
0000
0010
1000
0010
0000
,
0100
0000
0001
0000
0010
0001
0010
0000
,
0001
0000
1000
0000
0001
1000
0001
0000
,
1000
1001
0001
1001
,
0010
0000
0000
0000
0100
0000
0000
0000
0001
1000
0000
0000
0001
0000
0000
0000
,
1000
0010
0100
0100
,
0001
0000
0000
0000
1000
0000
0000
0000
0100
1000
0000
0000
0100
0000
0000
0000
,
1000
0010
0100
0100
,
0001
0000
0000
0000
0010
0000
0000
0000
0001
1000
0000
0000
0001
0000
0000
0000
,
0100
0001
1000
0100
,
1000
0000
0000
0000
0001
0000
0000
0000
0100
0010
0000
0000
0100
0000
0000
0000
,
0010
0000
1000
0200
,
0020
0000
0002
0000
,
0000
0000
0000
0000
,
0333
0000
0000
0000
,
0000
0000
0000
0000
,
0001
0000
0001
0000
0001
0000
0001
0100
,
0100
0000
0100
0000
0100
0000
0100
0100
,
0010
0000
0010
0000
0010
0000
0010
1000
,
1000
0000
1000
0100
0100
0000
0100
0010
,
0001
0000
0001
1000
0001
0000
0001
0100
,
0001
0000
0001
0010
0001
0000
0000
0000
,
1000
0000
1000
0001
1000
0000
1000
0010
,
1000
0000
1000
0100
1000
0000
1001
0000
,
1000
0000
0000
0000
0010
0000
0000
0000
1000
0010
0000
0000
1010
0000
0000
0000
,
0001
0100
0001
0100
,
0001
0000
0000
0000
0010
0000
0000
0000
0001
0010
0000
0000
0011
0000
0000
0000
,
1001
1010
0101
1001
,
1000
0100
0000
0000
1100
0000
0000
0000
0010
0001
0000
0000
0011
0000
0000
0000
,
0101
1010
1001
0000
,
1000
0100
0000
0000
1100
0000
0000
0000
0010
0001
0000
0000
0011
0000
0000
0000
,
2002
0000
0000
0000
0000
0000
0000
0000
0020
0000
0000
0000
0000
3033
0000
0000
,
1000
0000
1000
0000
0001
0000
0001
1000
,
0001
0000
0001
0000
0100
0000
0100
0010
,
0100
0000
0100
0000
0010
0000
0010
1000
,
0001
0000
0001
1000
0001
0000
0001
0100
,
0010
0000
0010
1000
0100
0000
0010
0000
,
0001
0000
0100
0001
1000
0000
0100
1000
,
0001
0000
0100
0001
1000
0000
0010
0000
,
1000
0000
0001
0100
0010
0000
1001
0000
,
1100
0000
0010
0001
0100
0000
0001
0000
,
1000
0000
0010
1000
0100
0000
0000
0000
,
0010
0000
0001
0100
0001
0000
1000
0000
,
0100
0000
0010
0001
0010
0000
0000
0000
,
0001
1000
0010
1000
,
0001
0100
0001
1000
,
0001
0100
0100
0001
,
1000
0100
0100
2000
,
0002
0000
0000
0000
,
3003
0000
0000
0000
;

//---------------dance-single - Renard----------------
#NOTES:
     dance-single:
     Renard:
     Easy:
     2:
     0.224,0.250,0.000,0.040,0.000:
0000
0000
0000
0000
,
0000
0000
0000
0000
,
0000
0000
0000
0000
,
0000
0000
0000
0000
,
1000
1000
0001
0001
,
0100
0100
0010
0000
,
1000
1000
0001
0001
,
0010
0010
0200
0000
,
1300
1000
1000
0000
,
0001
0000
0001
0000
,
0100
0100
0100
0000
,
0010
0000
0010
0000
,
1000
1000
1000
1000
,
0001
0000
0001
0000
,
0010
0010
0010
0010
,
0100
0000
0100
0000
,
0010
0001
0010
0001
,
1000
0000
1000
0000
,
0100
1000
0100
1000
,
0200
0000
0020
0000
,
0002
0000
0000
0000
,
0000
0000
0000
0000
,
0333
0000
0000
0000
,
0000
0000
0000
0000
,
1000
0000
0000
0000
1000
0000
0000
1000
,
0001
0001
0001
0000
,
0100
0000
0000
0000
0100
0000
0000
0100
,
0010
0010
0010
0000
,
1000
0000
0000
0000
1000
0000
0000
1000
,
0001
0001
0100
0000
,
0010
0000
0000
0000
0010
0000
0000
1000
,
0100
1000
0001
1000
,
0001
0001
0001
0001
,
0100
0100
0010
0000
,
1000
1000
1000
1000
,
0100
0100
0010
0010
,
0001
0001
1000
1000
,
0001
0100
0001
0000
,
1000
0100
1000
0001
,
0010
0001
0100
0000
,
0010
0010
0100
0100
,
0001
0001
1000
1000
,
0100
0100
0010
0010
,
0100
1000
0010
0100
,
0001
0001
0010
0010
,
0100
0010
0001
0100
,
0010
0000
1000
0010
,
0100
0001
1000
0000
,
0001
0000
0001
0000
,
0001
0000
0001
0000
,
1000
0000
1000
0000
,
0010
0010
0010
0000
,
0100
0000
0100
0000
,
0001
0000
0001
0000
,
1000
1000
0001
0000
,
0100
0100
0010
1000
,
0001
0000
0000
0000
;

//---------------dance-single - Renard----------------
#NOTES:
     dance-single:
     Renard:
     Challenge:
     10:
     0.708,0.720,0.228,0.040,0.625: // measure 1
0000
0000
0000
0000
,  // measure 2
0000
0000
0000
0000
,  // measure 3
0001
1000
0000
1000
0100
0000
0010
0000
0001
0000
0010
0000
0100
0000
1000
0000
,  // measure 4
0010
0100
0000
0010
0100
0000
0001
0000
0100
0001
0100
0001
0100
0000
0001
0000
,  // measure 5
0100
0010
1000
0000
1010
0000
0100
0000
0010
0000
0000
0010
0001
0000
0100
0000
,  // measure 6
0010
0100
0000
0010
1000
0000
0110
0000
0001
0000
0010
0100
0000
0000
0001
0000
,  // measure 7
0010
0001
0010
0000
0011
0000
0000
0000
0001
0010
0000
0010
0100
0000
1000
0000
,  // measure 8
0010
0000
0000
0000
0100
0000
0001
0000
0100
0000
0000
0100
0010
0000
0000
0000
,  // measure 9
1000
0000
0010
0100
0001
0000
0010
0100
0010
0000
0001
0010
0100
0000
1000
0010
,  // measure 10
0100
0000
0001
0100
0010
0000
1000
0001
1000
0000
0001
0000
1000
0000
0000
0000
,  // measure 11
0010
0000
0100
0001
0010
0000
0100
1000
0010
0000
0100
0001
0010
0000
0100
0010
,  // measure 12
0001
0000
1000
0010
0100
0000
0001
1000
0010
0000
1000
0000
1001
0000
0000
0000
,  // measure 13
0001
0100
0010
1000
0100
0000
0000
0000
0010
0001
0000
0001
0010
0000
0100
0000
,  // measure 14
1000
0000
0000
1000
0010
0000
0100
0000
0001
0000
0000
0001
0100
0000
0000
0000
,  // measure 15
0010
1000
0010
1000
0010
0000
0000
0000
1000
0010
0000
0010
0100
0000
0001
0000
,  // measure 16
0010
0000
0000
0010
0001
0000
1000
0000
0001
0000
0000
0000
1001
0000
0000
0000
,  // measure 17
1000
0010
0000
0010
1000
0000
0010
0000
0100
0010
0100
0010
0100
0000
0001
0000
,  // measure 18
0010
0000
0000
0010
0001
0000
0010
0000
0100
1000
0100
1000
0100
0000
0000
0000
,  // measure 19
1000
0010
0000
0010
1000
0000
0001
0000
0100
0001
0100
0001
0100
0000
0010
0000
,  // measure 20
2000
0000
0010
0200
,  // measure 21
0002
0000
0000
0020
0000
0000
0000
0000
,  // measure 22
0000
0000
0000
0000
0000
0000
0000
3333
,  // measure 23
0000
0000
0000
0000
,  // measure 24
0000
0000
0000
0000
,  // measure 25
1000
0100
0010
0001
0010
0000
0100
0000
1000
0000
0010
0000
0100
0000
0001
0000
,  // measure 26
0100
0010
1000
0010
0100
0000
0001
0000
0010
0000
0100
0000
1000
0000
0000
0000
,  // measure 27
0001
1000
0100
0010
0001
0000
0010
0000
0100
0000
1000
0000
0001
0000
0010
0000
,  // measure 28
0001
0010
0100
1000
0001
0000
1000
0000
0010
0000
0100
0000
0001
0000
0000
0000
,  // measure 29
0001
0100
0010
0000
0110
0000
0000
0000
0010
1000
0100
0010
0100
0000
0000
0000
,  // measure 30
0100
0000
1000
0000
0110
0000
0010
0000
0100
0001
0010
0001
0010
0000
0000
0000
,  // measure 31
0100
0000
0010
0000
0110
0000
0100
0000
1000
0010
1000
0000
0110
0000
0000
0000
,  // measure 32
0010
0100
0010
0100
0010
0000
0100
0000
0001
0000
0100
0000
0110
0000
0000
0000
,  // measure 33
0001
0100
0010
1000
0010
0000
0100
0000
0001
0100
0000
0100
0010
0000
1000
0000
,  // measure 34
0100
0000
0000
0100
0010
0000
0001
0000
0010
0000
0000
0010
0100
0000
1000
0000
,  // measure 35
0010
0100
0010
0100
0010
0000
0100
0000
0001
1000
0000
1000
0001
0000
1000
0000
,  // measure 36
0010
0000
0000
0010
0100
0000
0001
0000
1000
0000
0000
1000
0100
0000
0010
0000
,  // measure 37
0001
1000
0001
1000
0001
0000
0010
0000
0100
0010
0000
0010
0100
0000
1000
0000
,  // measure 38
0010
0100
0000
0100
0001
0000
0100
0000
0010
0000
0000
0010
1000
0000
0000
1000
,  // measure 39
0010
0000
0100
0010
0100
0000
0001
0000
0100
0010
0100
0000
0010
1000
0010
0000
,  // measure 40
0100
0000
0000
0100
0001
0000
0010
0000
0100
0000
0000
0100
0000
0000
0000
0000
,  // measure 41
1000
0100
0010
0001
0010
0000
0100
0000
1000
0000
0010
0000
0100
0000
0001
0000
,  // measure 42
0010
0000
0100
0000
1000
0000
0001
0000
0010
0001
0010
0001
0010
0000
0000
0000
,  // measure 43
0001
0010
0100
1000
0001
0000
0010
0000
0100
0000
1000
0000
0010
0000
0100
0000
,  // measure 44
0001
0000
1000
0000
0010
0000
0100
0000
0010
0100
0010
0100
0010
0000
0000
0000
,  // measure 45
1000
0000
0010
0100
0001
0000
0010
0100
1000
0000
0010
0000
0100
0000
0001
0000
,  // measure 46
0010
0000
0001
1000
0100
0000
0010
0001
0010
0000
0100
0000
1000
0000
0010
0000
,  // measure 47
0100
0000
0001
0010
0001
0000
0010
0100
0010
0000
0100
0000
1000
0000
0010
0000
,  // measure 48
0100
0000
0001
1000
0100
0000
0010
0001
0010
0100
1000
0000
0010
0000
0000
0000
,  // measure 49
0100
0000
0010
0000
0110
0000
0010
0000
1000
0100
1000
0100
1000
0000
0100
0000
,  // measure 50
0010
0000
0001
0000
0011
0000
0001
0000
0010
0100
0010
0100
0010
0000
0100
0000
,  // measure 51
1000
0000
0010
0000
1010
0000
0010
0000
0100
0010
0100
0010
0100
0000
0001
0000
,  // measure 52
0010
0000
0001
0000
0011
0000
0010
0000
0100
0010
0100
0010
0100
0000
1000
0010
,  // measure 53
1000
0000
0010
0000
0110
0000
0010
0000
0100
0001
0010
0000
0011
0000
0001
0010
,  // measure 54
0100
0000
0010
0000
0110
0000
0100
1000
0010
0100
0010
0000
0110
0000
0100
0001
,  // measure 55
0010
0000
0100
0000
0110
0000
0100
1000
0010
0100
0010
0000
0110
0000
0010
0100
,  // measure 56
0010
0000
1000
0000
1001
0000
0010
0100
0010
0100
0010
0000
0011
0000
1001
0000
;
