#TITLE:(Nonstop 12);
#SUBTITLE:;
#ARTIST:"Welcome to Rotterdam";
#TITLETRANSLIT:;
#SUBTITLETRANSLIT:;
#ARTISTTRANSLIT:;
#CREDIT:;
#BANNER:ns.jpg;
#BACKGROUND:ns-bg.jpg;
#LYRICSPATH:;
#CDTITLE:;
#MUSIC:ns.ogg;
#OFFSET:0.000;
#SAMPLESTART:87.771;
#SAMPLELENGTH:12.000;
#SELECTABLE:YES;
#BPMS:0.000=175.000;
#STOPS:;
#BGCHANGES:;

//---------------dance-single - Renard----------------
#NOTES:
     dance-single:
     Renard:
     Hard:
     9:
     0.588,0.605,0.149,0.057,0.164: // measure 1
0000
0000
0000
0000
,  // measure 2
0000
0000
0000
0000
,  // measure 3
0000
0000
0000
0000
,  // measure 4
0000
0000
0000
0000
,  // measure 5
1001
0000
0000
0000
,  // measure 6
0000
0000
0000
0000
,  // measure 7
0000
0000
0000
0000
,  // measure 8
0001
0100
0020
0000
1030
0100
0020
0000
,  // measure 9
0031
0000
0001
0010
0100
0000
0100
0000
,  // measure 10
0100
0000
0100
1000
0010
0000
0010
0000
,  // measure 11
0010
0000
0100
0001
0010
0000
0010
0000
,  // measure 12
0010
0000
0100
1000
0010
0000
0010
0000
,  // measure 13
0010
0000
0100
0000
0001
0000
0100
0010
,  // measure 14
0100
0010
1000
0100
,  // measure 15
0010
0000
0001
0010
0001
0010
0000
0000
,  // measure 16
0001
0000
0010
0100
0010
0100
0000
0000
,  // measure 17
1000
0000
0100
1000
0100
1000
0000
0000
,  // measure 18
0010
0000
0100
0010
0100
0000
0010
0000
,  // measure 19
0100
0000
0001
0000
0100
0001
0000
0000
,  // measure 20
1000
0000
0100
0000
0010
0001
0000
0000
,  // measure 21
0010
0000
0100
0000
1000
0100
0000
0000
,  // measure 22
1000
0001
0100
0001
,  // measure 23
1000
0001
0100
0010
,  // measure 24
1000
0000
0100
0010
0001
0000
0010
0000
,  // measure 25
0100
0000
1000
0000
0010
0000
0100
0001
,  // measure 26
0100
0000
0010
1000
0010
0000
1000
0000
,  // measure 27
0100
0010
0000
0000
0001
0000
0000
2000
,  // measure 28
0002
0000
0000
3003
,  // measure 29
1001
0000
0010
0100
0001
0000
1001
0000
,  // measure 30
1000
0000
0100
0010
0001
0000
0110
0000
,  // measure 31
0100
1000
0010
0100
0001
0000
0101
0000
,  // measure 32
0100
0010
1000
0100
0010
0000
0011
0000
,  // measure 33
0010
0100
1000
0001
0100
0000
0110
0000
,  // measure 34
0010
0000
1000
0100
0010
0000
0110
0000
,  // measure 35
0200
0002
0300
0000
0020
0003
0000
0200
,  // measure 36
1000
1000
1000
1330
,  // measure 37
1000
0001
0000
0001
0000
0000
0000
0000
1000
0000
0010
0000
0100
0000
0001
0000
,  // measure 38
0010
0100
0000
0100
0000
0000
0000
0000
1000
0000
0010
0000
0100
0000
0001
0000
,  // measure 39
1000
0100
0000
0010
0000
0000
0000
0000
0001
0000
0010
0000
0100
0000
1000
0000
,  // measure 40
0010
0100
0000
0100
0000
0000
0000
0000
0001
0000
1000
0000
0100
0000
0010
0000
,  // measure 41
0001
0010
0000
0010
0000
0000
0000
0000
0100
0000
1000
0000
0010
0000
0100
0000
,  // measure 42
0001
0100
0000
0100
0000
0000
0000
0000
0010
0000
1000
0000
0100
0000
0010
0000
,  // measure 43
0001
0010
0000
0010
0000
0000
0000
0000
0100
0000
1000
0000
0010
0000
0100
0000
,  // measure 44
0001
1000
0000
1000
0000
0000
0000
0000
0100
0000
0010
0000
0001
0000
0000
0000
,  // measure 45
1001
0000
0001
0100
0000
0010
1000
0100
,  // measure 46
0010
0000
0010
0001
0000
0001
1000
0010
,  // measure 47
0100
0000
0100
0001
0000
0001
0010
1000
,  // measure 48
0010
0000
0010
0100
0000
0100
1000
0010
,  // measure 49
0100
0000
0100
0001
0000
0001
0100
0010
,  // measure 50
1000
0000
1000
0001
0000
0001
1000
0001
,  // measure 51
0100
0000
0100
0010
0000
0010
1000
0000
,  // measure 52
0001
0000
0100
0010
0000
0100
1001
0000
,  // measure 53
1000
0000
0010
0000
1000
0010
0100
0000
,  // measure 54
0001
0010
0100
0000
1000
0000
1100
0000
,  // measure 55
1000
0000
0001
0010
0001
1000
0010
0000
,  // measure 56
0100
0001
1000
0000
0000
0001
0000
0000
,  // measure 57
1000
0000
0000
0001
0000
0000
0100
0000
0010
0000
0000
1000
0000
0000
0100
0000
,  // measure 58
0010
0001
0010
0100
1000
0100
1000
0000
,  // measure 59
0001
0100
0010
0000
0110
0000
0010
1000
,  // measure 60
0100
0000
0010
0001
1000
0010
0100
0000
,  // measure 61
0001
0000
0100
0000
0010
1000
0000
0000
0010
0000
1000
0010
0000
0000
0000
0000
,  // measure 62
1000
0000
0100
0000
0010
0001
0000
0000
0010
0000
0001
0010
0000
0000
0000
0000
,  // measure 63
0100
0000
1000
0000
0001
0100
0000
0000
0010
0000
0100
0010
0000
0000
0000
0000
,  // measure 64
1000
0000
0100
0000
0010
0001
0000
0000
0010
0000
0100
1000
0000
0000
0000
0000
,  // measure 65
0001
0000
0100
0000
0010
1000
0000
0000
0010
0000
1000
0001
0000
0000
0000
0000
,  // measure 66
0100
0000
0010
0000
1000
0100
0000
0000
0010
0000
0001
1000
0000
0000
0000
0000
,  // measure 67
0001
0000
0010
0000
0100
1000
0000
0000
0001
0000
0010
0100
0000
0000
0000
0000
,  // measure 68
0000
1000
0001
0010
1001
0000
0000
0000
,  // measure 69
1000
0000
0001
0000
0100
0010
0000
0000
0100
0000
0010
0100
0000
0000
0000
0000
,  // measure 70
0010
0000
1000
0000
0100
0010
0000
0000
0100
0000
0010
0001
0000
0000
0000
0000
,  // measure 71
0010
0000
0100
0000
1000
0001
0000
0000
0100
0000
0010
1000
0000
0000
0000
0000
,  // measure 72
0010
0100
0001
0010
0100
1000
0010
0000
,  // measure 73
0100
0000
0001
0000
0100
0010
0000
0000
1000
0000
0010
1000
0000
0000
0100
0000
,  // measure 74
0010
0000
0001
0000
0010
0100
0000
0000
1000
0000
0001
0010
0000
0000
0100
0000
,  // measure 75
1000
0000
0010
0000
0100
0001
0000
0000
0100
0000
0010
1000
0000
0000
0001
0000
,  // measure 76
0100
0000
0000
0100
0000
0000
0010
0000
1000
0000
0100
0000
0010
0000
0001
0010
,  // measure 77
0001
0010
0100
1000
0000
1000
0010
0100
,  // measure 78
0001
0100
1000
0100
0000
0100
0001
0010
,  // measure 79
1000
0010
0100
0001
0000
0001
0100
1000
,  // measure 80
0010
0100
0001
0100
0000
0100
0010
1000
,  // measure 81
0010
0001
0010
0100
0000
0100
0001
1000
,  // measure 82
0100
0010
0001
0010
0000
0010
0100
0001
,  // measure 83
0100
1000
0010
0100
0000
0100
0001
0100
,  // measure 84
1000
0100
0010
1000
0100
0010
0001
0000
,  // measure 85
0011
0000
0010
0100
0000
0100
1000
0010
,  // measure 86
0100
0001
0100
1000
0000
1000
0100
0010
,  // measure 87
1000
0100
0010
0100
0000
0110
0000
0010
,  // measure 88
0001
1000
0010
0100
0000
0110
0000
0101
,  // measure 89
0000
0001
0100
0010
0000
0010
1000
0100
,  // measure 90
0010
0001
0010
0001
0000
0011
0000
0110
,  // measure 91
0000
0100
1000
0010
0000
0100
0001
0100
,  // measure 92
1000
0100
0010
1000
0100
0010
0001
0000
,  // measure 93
0011
0000
0010
0100
1000
0000
0000
0000
,  // measure 94
1000
0010
0100
0010
0100
0001
0000
0100
,  // measure 95
0010
0000
1000
0100
0010
0001
0010
0100
,  // measure 96
0000
1000
0010
0100
0001
0000
0100
0000
,  // measure 97
0010
0000
1000
0100
0010
0000
0000
0000
,  // measure 98
0001
0010
0100
1000
0010
0100
0000
0001
,  // measure 99
0100
0000
0010
1000
0100
1000
0001
0010
,  // measure 100
0000
0001
1000
0010
0100
0000
0010
0000
,  // measure 101
1001
0000
0000
0000
;
