#TITLE:(Nonstop 11);
#SUBTITLE:;
#ARTIST:"Change and Passing";
#TITLETRANSLIT:;
#SUBTITLETRANSLIT:;
#ARTISTTRANSLIT:;
#CREDIT:;
#BANNER:ns.jpg;
#BACKGROUND:ns-bg.jpg;
#LYRICSPATH:;
#CDTITLE:;
#MUSIC:ns.ogg;
#OFFSET:0.000;
#SAMPLESTART:34.286;
#SAMPLELENGTH:12.000;
#SELECTABLE:YES;
#BPMS:0.000=140.000;
#STOPS:;
#BGCHANGES:;

//---------------dance-single - Renard----------------
#NOTES:
     dance-single:
     Renard:
     Hard:
     9:
     0.611,0.620,0.165,0.048,0.457: // measure 1
0000
0000
0000
0000
,  // measure 2
0000
0000
0000
0000
,  // measure 3
0000
0000
0000
0000
,  // measure 4
0000
0000
0000
0000
,  // measure 5
1000
0001
0000
1001
0000
0010
0100
0001
,  // measure 6
0000
1001
0000
1000
0100
0010
0001
0000
,  // measure 7
1000
0010
0000
1001
0000
1000
0100
0010
,  // measure 8
0000
0000
1001
0000
,  // measure 9
0001
0000
0100
0000
0010
0000
1000
0010
0000
1000
0010
0000
1000
0000
0100
0000
,  // measure 10
0010
0000
0001
0000
1000
0000
0001
0100
0000
0001
0100
0000
0001
0000
0010
0000
,  // measure 11
0100
0000
1000
0000
0001
0000
0010
0001
0000
0010
0001
0000
0010
0000
0001
0000
,  // measure 12
0010
0000
0100
0000
1000
0000
0010
1000
0000
0010
1000
0000
0010
0000
0100
0000
,  // measure 13
0001
0000
0010
0000
0100
0000
1000
0001
0000
1000
0001
0000
1000
0000
0001
0000
,  // measure 14
0100
0000
0010
0000
1000
0000
0010
0100
0000
0010
0100
0000
0010
0000
0100
0000
,  // measure 15
0001
0000
0010
0000
0100
0000
1000
0100
0000
1000
0100
0000
1000
0000
0100
0000
,  // measure 16
1000
0000
0001
0000
0010
0000
0001
1000
0000
0001
1000
0000
0001
0000
0100
0000
,  // measure 17
0010
0000
1000
0000
0100
0000
0000
0010
0000
0000
0001
0000
0010
0000
0100
0000
,  // measure 18
1000
0000
0010
0000
0100
0000
0000
0001
0000
0000
0100
0000
0010
0000
1000
0000
,  // measure 19
0100
0000
0010
0000
0001
0000
0000
0010
0000
0000
0100
0000
1000
0000
0010
0000
,  // measure 20
0100
0000
0001
0000
1000
0100
0000
0010
0000
0000
0001
0000
0010
0000
0100
0000
,  // measure 21
1000
0000
0001
0000
0100
0000
0000
0010
0000
0000
1000
0000
0100
0000
0010
0000
,  // measure 22
0001
0000
0010
0000
0100
0000
0000
1000
0000
0000
0010
0000
0100
0000
0001
0000
,  // measure 23
0100
0000
0010
0000
1000
0000
0000
0100
0000
0000
0010
0000
0001
0000
0010
0000
,  // measure 24
0100
0000
1000
0000
0001
0000
0100
0000
0010
0000
0000
1000
0000
0000
0010
0000
,  // measure 25
1000
0000
0001
0000
0100
0000
0001
1000
0000
0100
1000
0000
0001
0000
0010
0000
,  // measure 26
0100
0000
1000
0000
0001
0000
0100
0001
0000
1000
0001
0000
1000
0000
0100
0000
,  // measure 27
0010
0000
0001
0000
0010
0000
0100
1000
0000
0001
1000
0000
0010
0000
1000
0000
,  // measure 28
0001
0000
0100
0000
0010
0000
1000
0100
0000
1000
0001
0000
1000
0000
0010
0000
,  // measure 29
0100
0000
0001
0000
0010
0000
0100
1000
0000
0001
1000
0000
0001
0000
0100
0000
,  // measure 30
0010
0000
1000
0000
0100
0000
0010
0001
0000
0010
0100
0000
0010
0000
0100
0000
,  // measure 31
1000
0000
0010
0000
0100
0000
0001
1000
0000
0001
0100
0000
0001
0000
0010
0000
,  // measure 32
0100
0000
1000
0000
0001
0000
0100
0010
0000
1000
0001
0000
1000
0000
0100
0000
,  // measure 33
0010
0000
0001
0000
0010
0000
0000
0100
0000
1000
0001
0000
0100
0000
0000
0000
,  // measure 34
0010
0000
1000
0000
0100
0000
0000
0010
0000
0001
0010
0000
0100
0000
0000
0000
,  // measure 35
1000
0000
0010
0000
0100
0000
0000
0001
0000
1000
0100
0000
1000
0000
0001
0000
,  // measure 36
0002
0023
0230
2300
,  // measure 37
3001
0000
0001
0100
0000
0100
0010
0000
0010
1000
0000
1000
0100
0000
0010
0000
,  // measure 38
0001
0000
0001
0010
0000
0010
0100
0000
0100
1000
0000
1000
0010
0000
0100
0000
,  // measure 39
0001
0000
0001
1000
0000
1000
0100
0000
0100
0010
0000
0010
0001
0000
0010
0000
,  // measure 40
0100
0000
0100
1000
0000
1000
0001
0000
0001
0100
0000
0100
0000
0010
1000
0000
,  // measure 41
0010
0100
0000
0001
1000
0000
0001
1000
0000
0100
0000
1000
0000
0001
0010
0000
,  // measure 42
0100
1000
0000
0001
0100
0000
0010
1000
0000
0001
0000
0100
0000
0010
1000
0000
,  // measure 43
0001
0100
0000
0001
1000
0000
0100
1000
0000
0001
0000
0010
0000
0100
1000
0000
,  // measure 44
0001
0010
0000
0100
1000
0000
0001
0100
0000
0010
1000
0001
0000
0001
1000
0000
,  // measure 45
0001
0000
0100
0000
0110
0000
0000
0010
1000
0000
0100
0000
0110
0000
0000
0000
,  // measure 46
0010
0000
0001
0000
1001
0000
0000
0001
0100
0000
0010
0000
1010
0000
0000
0000
,  // measure 47
1000
0000
0100
0000
1100
0000
0000
1000
0100
0000
0010
0000
0011
0000
0000
0000
,  // measure 48
0010
0000
0100
0000
1000
0000
0001
0100
0000
0001
0000
1000
0000
0100
0000
0010
,  // measure 49
0001
0000
0010
0000
0100
0000
1000
0001
0000
0100
0000
0010
0000
1000
0100
0000
,  // measure 50
0010
0000
0001
0000
0010
0100
0000
1000
0000
0001
0000
0010
0000
0100
1000
0000
,  // measure 51
0001
0000
0100
0000
0010
1000
0000
0010
0000
0100
0000
0001
0000
1000
0100
0000
,  // measure 52
1000
0000
0001
0000
0010
0001
0000
1000
0000
0010
0000
0100
0000
0001
0100
0000
,  // measure 53
0010
1000
0010
0100
0001
0000
0010
0100
,  // measure 54
1000
0001
0100
0000
0110
0000
0010
1000
,  // measure 55
0100
0000
1000
0100
1000
0000
0001
0000
0010
0000
0001
0000
1000
0000
0001
0000
,  // measure 56
0000
0000
0100
0010
0100
0000
0000
0000
0110
0000
0000
0000
0000
0000
0000
0000
,  // measure 57
0010
0000
1000
0000
0100
0000
0010
0001
0010
0000
0100
0000
1000
0000
0001
0000
,  // measure 58
0100
0010
1000
0000
1010
0000
0000
1000
,  // measure 59
0010
0000
0100
0010
0100
0000
0001
0000
0010
0000
0100
0000
1000
0000
0000
0000
,  // measure 60
0001
0100
0001
0000
0100
0000
0000
0000
1001
0000
0000
0000
0000
0000
0000
0000
,  // measure 61
1000
0100
0010
0001
1000
0010
0000
0100
,  // measure 62
0000
0000
0001
0100
0001
0000
0000
0000
0101
0000
0000
0000
0000
0000
0000
0000
,  // measure 63
0001
0000
1000
0100
1000
0000
0100
0000
0010
0000
0001
0000
0000
0000
1001
0000
,  // measure 64
0000
0001
0100
0000
0110
0000
0000
0000
,  // measure 65
0010
0000
1000
0010
1000
0000
0010
0000
0100
0000
0001
0000
0000
0000
1001
0000
,  // measure 66
0000
0000
1000
0100
0010
0000
0001
0000
0010
0000
0100
0000
1000
0000
0001
0000
,  // measure 67
0010
0000
0001
1000
0001
0000
0100
0000
0001
0000
0100
0000
0000
0000
0110
0000
,  // measure 68
0000
0010
1000
0000
1001
0000
0000
0000
,  // measure 69
1000
0000
0100
1000
0100
0000
1000
0000
0001
0000
0010
0001
0010
0000
0001
0000
,  // measure 70
0100
0010
1000
0100
0010
0001
1000
0100
,  // measure 71
0010
0000
0001
0010
0001
0000
0010
0000
0100
0000
1000
0100
1000
0000
0100
0000
,  // measure 72
1000
0010
0100
0001
1000
0100
0010
0001
,  // measure 73
1000
0000
0001
1000
0001
0000
1000
0000
0010
0000
0100
0010
0100
0000
0010
0000
,  // measure 74
1000
0100
0010
0001
0010
0100
1000
0010
,  // measure 75
0100
0000
0001
0100
0001
0000
0100
0000
0010
0000
1000
0010
1000
0000
0100
0000
,  // measure 76
0010
0001
0010
0100
1000
0001
0100
0010
,  // measure 77
1000
0010
1000
0010
0100
0001
0000
0011
,  // measure 78
0000
0010
0100
1000
0001
0100
0010
1000
,  // measure 79
0100
0000
0100
0010
0001
1000
0000
0110
,  // measure 80
0000
0001
1000
0000
0110
0000
0000
0000
,  // measure 81
2022
0000
0000
0000
,  // measure 82
0000
0000
0000
0000
,  // measure 83
3033
0000
0000
0000
;
