#TITLE:(Nonstop 10);
#SUBTITLE:;
#ARTIST:"Go Agro";
#TITLETRANSLIT:;
#SUBTITLETRANSLIT:;
#ARTISTTRANSLIT:;
#CREDIT:;
#BANNER:ns.png;
#BACKGROUND:ns-bg.png;
#LYRICSPATH:;
#CDTITLE:;
#MUSIC:ns.ogg;
#OFFSET:0.000;
#SAMPLESTART:61.855;
#SAMPLELENGTH:12.000;
#SELECTABLE:YES;
#BPMS:0.000=190.000;
#STOPS:;
#BGCHANGES:;

//---------------dance-single - Renard----------------
#NOTES:
     dance-single:
     Renard:
     Hard:
     9:
     0.612,0.696,0.669,0.034,0.109: // measure 1
0000
0000
0000
0000
,  // measure 2
0000
0000
0000
0000
,  // measure 3
0000
0000
0000
0000
,  // measure 4
0000
0000
0000
0000
,  // measure 5
0000
0000
0000
0000
,  // measure 6
0000
0000
0000
0000
,  // measure 7
0000
0000
0000
0000
,  // measure 8
0000
0000
0000
0000
,  // measure 9
1000
0000
0000
1000
0001
0000
0000
0000
,  // measure 10
0000
0100
0010
1000
,  // measure 11
0100
0000
0000
0100
0010
0000
0000
0000
,  // measure 12
0000
0001
1000
0010
,  // measure 13
0100
0000
0000
0100
0001
0000
0000
0000
,  // measure 14
0000
1000
0100
0010
,  // measure 15
0001
0000
1001
0000
,  // measure 16
1000
0000
1001
0000
,  // measure 17
0110
0000
0000
0010
1000
0000
0000
0000
,  // measure 18
0101
0001
0010
0100
,  // measure 19
1100
0000
0000
1000
0010
0000
0100
0000
,  // measure 20
0001
0010
0100
1000
,  // measure 21
0100
0010
0001
1000
0100
0010
0100
1000
,  // measure 22
0001
0010
0100
0010
0001
1000
0010
0100
,  // measure 23
0010
1000
0001
0100
0010
0100
0001
0010
,  // measure 24
0100
1000
0001
0100
0010
1000
0100
0000
,  // measure 25
1001
1001
0110
0000
,  // measure 26
0110
0000
0010
1000
0100
0000
0110
0000
,  // measure 27
0011
0000
0001
0010
0100
1000
0001
0100
,  // measure 28
0010
0110
1001
1001
,  // measure 29
1100
0000
0011
0000
0001
0010
0100
1000
,  // measure 30
0001
0101
1010
1001
,  // measure 31
1100
0000
0011
0000
0001
0010
0100
1000
,  // measure 32
0001
0101
1010
1010
,  // measure 33
1001
0000
1001
0000
1000
0100
0010
0001
,  // measure 34
1000
0010
1000
0010
1000
0100
1000
0100
,  // measure 35
1000
0001
1000
0001
1000
0000
1001
0000
,  // measure 36
0001
1000
0001
1000
0001
0010
0001
0010
,  // measure 37
0001
0100
0001
0100
0001
0000
1001
0000
,  // measure 38
1000
0100
0010
0001
1000
0000
1001
0000
,  // measure 39
0001
0010
0100
1000
0001
0000
1001
0000
,  // measure 40
1000
0010
0100
0001
1000
0000
1001
0000
,  // measure 41
0110
0000
1001
0000
,  // measure 42
1000
0000
0100
0010
0000
0001
0010
0000
,  // measure 43
0100
0000
0100
1000
0000
1000
0010
0000
,  // measure 44
0100
0000
0001
0000
0010
0001
1000
0000
,  // measure 45
0010
0000
0010
0100
0000
0100
0001
0000
,  // measure 46
1000
0100
0010
0000
0001
0010
0100
0000
,  // measure 47
1000
0001
0000
0001
0100
0000
0100
0010
,  // measure 48
1000
0100
0010
0001
,  // measure 49
1001
0000
0000
0110
0000
0000
1001
0000
,  // measure 50
1000
0000
0100
0000
0000
0010
0001
0000
,  // measure 51
1000
0000
0000
0010
0000
0000
0100
0000
0000
0001
0000
0000
0010
0000
0000
0000
,  // measure 52
0100
0000
1001
0000
0100
0010
0000
1000
,  // measure 53
0010
0000
0000
0100
0000
0000
0001
0000
0000
0010
0000
0000
0100
0000
0000
0000
,  // measure 54
1000
0000
0101
0000
0000
0010
1000
0000
,  // measure 55
0110
0000
0000
0011
0000
0000
0110
0000
0000
0110
0000
0000
1100
0000
0000
0000
,  // measure 56
1000
0000
0110
0000
0000
0010
1000
0000
,  // measure 57
0101
0000
0000
0101
0000
0000
0110
0000
0000
0110
0000
0000
1010
0000
0000
0000
,  // measure 58
1000
0100
0010
0000
0001
0010
0100
1000
,  // measure 59
0001
0000
0000
0100
0000
0000
0010
0000
0000
1000
0000
0000
0100
0000
0000
0000
,  // measure 60
0010
0000
0011
0000
0000
0110
0000
0000
,  // measure 61
1100
0000
0000
1001
0000
0000
1010
0000
0000
1001
0000
0000
1100
0000
0000
0000
,  // measure 62
1000
0100
0010
0000
0001
0010
0100
1000
,  // measure 63
0010
0000
0000
1001
0000
0000
1100
0000
0000
1001
0000
0000
1010
0000
0000
0000
,  // measure 64
1000
0100
0010
0000
0001
0010
0000
0100
,  // measure 65
1000
0000
0000
1010
0000
0000
1001
0000
0000
0101
0000
0000
1001
0000
0000
0000
,  // measure 66
1000
0100
0010
0000
0001
0010
0100
1000
,  // measure 67
0001
0000
0000
0100
0000
0000
0010
0000
0000
1000
0000
0000
0100
0000
0000
0000
,  // measure 68
0010
0001
0010
0000
0100
1000
0001
0100
,  // measure 69
0010
0000
0000
1000
0000
0000
0010
0000
0000
1000
0000
0000
0010
0000
0000
0000
,  // measure 70
0100
0001
0010
0000
0100
1000
0001
0000
,  // measure 71
0100
0000
0000
0100
0000
0000
0010
0000
0000
0010
0000
0000
0010
0000
0000
0000
,  // measure 72
1000
0100
0010
0000
0001
0010
0100
0000
,  // measure 73
1000
0000
0000
0001
0000
0000
1000
0000
0000
0001
0000
0000
1000
0000
0000
0000
,  // measure 74
0010
0010
0100
0100
,  // measure 75
0001
0000
0000
0010
0000
0000
0001
0000
0000
0010
0000
0000
0001
0000
0000
0000
,  // measure 76
0010
0100
1000
0001
,  // measure 77
0100
0000
0000
0010
0000
0000
0100
0000
0000
0010
0000
0000
1000
0000
0000
0000
,  // measure 78
0010
1000
0100
0010
,  // measure 79
0001
0000
0000
0001
0000
0000
1000
0000
0000
1000
0000
0000
0001
0000
0000
0000
,  // measure 80
0100
0010
1000
0100
,  // measure 81
0010
0000
0000
0010
0000
0000
0100
0000
0000
0100
0000
0000
1000
0000
0000
0000
,  // measure 82
0110
0110
0101
0101
,  // measure 83
0110
0000
0110
0000
0101
0000
0001
0100
,  // measure 84
0010
0010
1010
1010
,  // measure 85
0110
0110
1010
1100
,  // measure 86
1100
0001
0100
0010
,  // measure 87
1000
0001
0100
0010
,  // measure 88
2002
0000
0000
0000
,  // measure 89
0010
0000
0000
3003
,  // measure 90
0001
0100
0010
0100
1000
0100
0010
0100
,  // measure 91
0001
0010
0100
0010
1000
0010
0100
0010
,  // measure 92
0001
0100
0010
0100
1000
0100
0010
0100
,  // measure 93
0001
1000
0100
0010
0001
0000
1001
0000
,  // measure 94
1000
0100
0010
0100
0001
0100
0010
0100
,  // measure 95
1000
0010
0100
0010
0001
0010
0100
0010
,  // measure 96
1000
0100
0010
0100
0001
0100
0010
0100
,  // measure 97
1000
1000
1000
1000
0001
0100
0010
0100
,  // measure 98
0010
0000
0110
0000
0101
0000
0001
0100
,  // measure 99
0010
0000
1010
0000
1100
0000
1000
0100
,  // measure 100
0010
0000
1001
0000
0110
0000
0010
1000
,  // measure 101
0001
0100
0010
1000
0100
0010
0001
0000
,  // measure 102
1001
0000
1001
0000
1001
0000
0010
0100
,  // measure 103
1001
0000
1001
0000
1001
0000
0100
0010
,  // measure 104
1001
1001
1001
1001
,  // measure 105
0002
0000
0000
0000
,  // measure 106
0013
0010
0010
0100
,  // measure 107
1000
0000
0010
0000
0100
0000
0100
0001
,  // measure 108
0100
0100
0100
0100
,  // measure 109
0001
0010
0100
1001
,  // measure 110
1000
1000
1000
0010
,  // measure 111
0100
0000
0100
0000
0100
0000
0001
0010
,  // measure 112
0100
0100
1000
0010
,  // measure 113
0100
0001
0010
1100
,  // measure 114
2000
0002
3003
0000
0000
0000
0000
0000
;
