#TITLE:(Nonstop 09);
#SUBTITLE:;
#ARTIST:"Dancefloor Smash";
#TITLETRANSLIT:;
#SUBTITLETRANSLIT:;
#ARTISTTRANSLIT:;
#CREDIT:;
#BANNER:ns.png;
#BACKGROUND:ns-bg.png;
#LYRICSPATH:;
#CDTITLE:;
#MUSIC:ns.ogg;
#OFFSET:0.000;
#SAMPLESTART:49.655;
#SAMPLELENGTH:12.000;
#SELECTABLE:YES;
#BPMS:0.000=174.000;
#STOPS:;
#BGCHANGES:;

//---------------dance-single - Renard----------------
#NOTES:
     dance-single:
     Renard:
     Hard:
     9:
     0.591,0.724,0.287,0.014,0.172: // measure 1
0000
0000
0000
0000
,  // measure 2
0000
0000
0000
0000
,  // measure 3
0000
0000
0000
0000
,  // measure 4
0000
0000
0000
0000
,  // measure 5
1000
0000
0001
0000
0000
0100
0000
0000
,  // measure 6
0010
0000
0000
1000
0000
0100
0010
0001
,  // measure 7
1000
0000
0001
0000
0000
0100
0000
0000
,  // measure 8
0010
0000
0000
1000
0000
0000
0000
0000
,  // measure 9
0001
0000
1000
0100
0010
0001
0000
0010
,  // measure 10
0100
1000
0000
0001
0000
0100
0000
0010
,  // measure 11
1000
0000
0100
1000
0001
0010
0000
0001
,  // measure 12
1000
0010
0000
0100
0000
0001
0000
1000
,  // measure 13
0100
0000
1000
0001
0010
0001
0000
1000
,  // measure 14
0010
0100
0000
0001
0000
0100
0000
0010
,  // measure 15
1000
0000
0100
0000
0000
0010
0000
0001
,  // measure 16
1000
0000
0010
0100
0000
0001
0010
0001
,  // measure 17
1000
0000
0100
0010
0001
1000
0000
0001
,  // measure 18
0100
0010
0000
1000
0000
0001
0000
1000
,  // measure 19
0100
0000
0010
0001
0010
0100
0000
1000
,  // measure 20
0100
0010
0000
0100
0000
1000
0000
0001
,  // measure 21
0100
0000
0010
1000
0100
0010
0000
0001
,  // measure 22
0010
0100
0000
1000
0000
0001
0100
0010
,  // measure 23
1000
0000
0000
0010
0100
0000
0001
0100
,  // measure 24
0000
0010
1000
0001
0000
0100
0010
1000
,  // measure 25
0100
0000
0010
0000
0001
0000
0010
0100
,  // measure 26
0000
1000
0010
1000
0001
0100
0010
1000
,  // measure 27
0100
0010
0000
0001
0010
0000
0100
1000
,  // measure 28
0001
0100
0010
1000
0000
0100
0010
0001
,  // measure 29
0010
0000
0100
0000
1000
0010
0000
0000
,  // measure 30
0101
0000
0001
1000
0000
1100
0000
1001
,  // measure 31
0000
1000
0100
0000
0010
0001
0010
0000
,  // measure 32
0100
1000
0001
0100
0010
0000
1000
0100
,  // measure 33
1000
0000
0101
0000
1001
0000
1000
0100
,  // measure 34
0000
0010
0001
1000
0010
0000
0100
0001
,  // measure 35
0100
0000
0010
0000
1000
0000
0100
0010
,  // measure 36
0000
0001
0010
0000
0100
1000
0010
0000
,  // measure 37
0100
0000
0101
0000
0001
1000
0000
0000
,  // measure 38
1100
0000
1000
0001
0000
0101
0000
1001
,  // measure 39
0000
1000
0100
0000
0010
0000
1001
0000
,  // measure 40
0000
0000
0000
0000
,  // measure 41
1000
0000
1000
0001
0000
0000
0100
0000
0100
0010
0000
1000
,  // measure 42
0100
0000
0010
0001
0000
0000
0010
0000
0000
0100
0000
0000
,  // measure 43
1000
0000
1000
0010
0000
0100
0001
0000
0010
0100
0000
0000
,  // measure 44
1000
0001
1000
0001
1000
0001
0100
0010
0100
0010
0100
0010
,  // measure 45
1000
0000
1000
0010
0000
0010
0100
0000
0100
0001
0000
0001
,  // measure 46
0010
0000
0010
0001
0000
0001
1000
0000
1000
0100
0000
0100
,  // measure 47
0010
0000
0001
1000
0000
0100
0010
0000
0001
1000
0000
0010
,  // measure 48
0100
0000
0000
0101
0000
0000
0010
0000
1000
0001
0000
0000
,  // measure 49
0101
0000
0000
1000
0000
0100
0010
0000
0001
1000
0000
0000
,  // measure 50
0001
0000
0000
0100
0000
0010
1000
0000
0001
0100
0000
0010
,  // measure 51
1000
0000
0100
0010
0000
0000
0011
0000
0000
0010
0000
0000
,  // measure 52
0100
0000
0000
1000
0000
0010
0100
0000
0000
0001
0000
0000
,  // measure 53
0010
0000
0000
0100
0000
1000
0010
0000
0000
0100
0000
0000
,  // measure 54
0001
0000
0000
0010
0000
0001
1000
0000
0000
0100
0000
0000
,  // measure 55
1000
0000
0000
0010
0000
0100
0001
1000
0001
1000
0000
0000
,  // measure 56
0010
0000
0010
0100
0000
0100
0001
0000
0001
1000
0000
1000
,  // measure 57
0100
0000
0100
0010
0000
0010
0001
0000
0001
1000
0000
1000
,  // measure 58
0010
0100
0001
0010
0100
1000
0010
0100
,  // measure 59
0001
0010
0100
1000
0100
0010
0001
1000
,  // measure 60
0010
0100
0001
0010
0100
1000
0010
0100
,  // measure 61
0001
0010
0100
1000
0010
0100
0001
0000
,  // measure 62
1000
0000
0100
0000
0000
0010
0001
0000
,  // measure 63
1000
0000
0110
0000
0000
0010
1000
0000
,  // measure 64
0001
0000
0010
0000
0000
0100
1000
0000
,  // measure 65
0001
0000
0110
0000
0000
1000
0100
0000
,  // measure 66
0010
0000
1001
0000
0000
0001
0100
0000
,  // measure 67
0010
0000
1001
0000
0000
1000
0100
0000
,  // measure 68
0010
0000
1001
0000
0000
0001
0100
0000
,  // measure 69
0010
1000
0100
0010
0001
1000
0001
0000
,  // measure 70
0100
0000
1010
0000
0000
0100
0001
0000
,  // measure 71
0010
0100
1000
0001
0100
0010
1000
0000
,  // measure 72
0100
0000
0011
0000
0100
1000
0010
0100
,  // measure 73
0001
0010
0100
1000
0001
0000
0110
0000
,  // measure 74
0010
0000
1001
0000
1000
0100
0010
0001
,  // measure 75
1000
0000
0010
0000
0100
0001
0010
0000
,  // measure 76
0100
0000
0011
0000
0100
1000
0010
0200
,  // measure 77
0002
0000
0303
1001
,  // measure 78
0110
0000
0010
0000
1000
0000
0100
0010
,  // measure 79
0001
0000
1001
0000
1000
0010
0100
0000
,  // measure 80
1001
0000
0110
0000
1000
0100
0010
0000
,  // measure 81
0011
0000
1100
0000
0001
1000
0010
0000
,  // measure 82
0110
0000
1000
0000
0100
0010
0001
1000
,  // measure 83
0010
0000
0101
0000
0010
1000
0100
0000
,  // measure 84
0010
0000
0110
0000
0100
1000
0010
0000
,  // measure 85
0100
0000
0001
0000
0010
0001
1000
0010
,  // measure 86
0100
0000
1001
0000
1000
0100
0010
0001
,  // measure 87
1000
0000
0110
0000
0001
1000
0100
0000
,  // measure 88
0010
0000
0110
0000
0100
1000
0010
0100
,  // measure 89
0001
0000
1001
0000
1000
0100
0010
0001
,  // measure 90
1000
0000
0110
0000
0010
1000
0100
0010
,  // measure 91
0001
1000
0010
0000
0100
0001
0010
0000
,  // measure 92
0100
1000
0010
0100
0001
0010
0100
1000
,  // measure 93
0010
0100
0001
0010
0100
0000
1001
0000
,  // measure 94
1000
0000
0001
0000
0000
0100
0010
0000
,  // measure 95
1000
0100
0010
0000
0000
0001
0010
0000
,  // measure 96
0100
0000
1000
0000
0000
0001
0100
0010
,  // measure 97
1000
0100
0010
0000
0000
0001
0010
0000
,  // measure 98
0100
0000
1000
0000
0000
0010
0100
0000
,  // measure 99
0001
0010
0100
0000
0000
1000
0010
0000
,  // measure 100
0100
0000
0001
0000
0000
0010
0100
1000
,  // measure 101
0010
0100
0001
0000
0000
0010
1001
0000
;
