#TITLE:(Nonstop 08);
#SUBTITLE:;
#ARTIST:"European Tour";
#TITLETRANSLIT:;
#SUBTITLETRANSLIT:;
#ARTISTTRANSLIT:;
#CREDIT:;
#BANNER:ns.png;
#BACKGROUND:ns-bg.png;
#LYRICSPATH:;
#CDTITLE:;
#MUSIC:ns.ogg;
#OFFSET:0.000;
#SAMPLESTART:49.778;
#SAMPLELENGTH:12.000;
#SELECTABLE:YES;
#BPMS:0.000=135.000;
#STOPS:;
#BGCHANGES:;

//---------------dance-single - Renard----------------
#NOTES:
     dance-single:
     Renard:
     Hard:
     9:
     0.533,0.556,0.194,0.042,0.177: // measure 1
0000
0000
0000
0000
,  // measure 2
0000
0000
0000
0000
,  // measure 3
0000
0000
0000
0000
,  // measure 4
0000
0000
0000
0000
,  // measure 5
0000
0000
0000
0000
,  // measure 6
1000
1000
1000
1000
,  // measure 7
1000
0000
0001
0000
0100
0000
0010
0000
1000
0000
0100
0000
0010
0000
0001
1000
,  // measure 8
0000
0000
0001
0000
0010
0000
0100
0000
1000
0000
0001
0000
0100
0000
0010
1000
,  // measure 9
0000
0000
0001
0000
0100
0000
0010
0000
1000
0000
0100
0000
0010
0000
0001
1000
,  // measure 10
0000
0000
0001
0000
0100
0000
0010
0000
1000
0000
0000
1001
0000
0000
1100
0000
,  // measure 11
0000
0000
1000
0000
0100
0000
0010
0000
0001
0000
1000
0000
0001
0000
0100
0010
,  // measure 12
0000
0000
1000
0000
0100
0000
0010
0000
0001
0000
1000
0000
0001
0000
0100
0010
,  // measure 13
0000
0000
1000
0000
0010
0000
0100
0000
0001
0000
0010
0000
0100
0000
1000
0001
,  // measure 14
0000
0000
0100
0000
0010
0000
1000
0000
0001
0000
0000
0110
0000
0000
1001
0000
,  // measure 15
0000
1000
0100
0010
0001
1000
0010
0100
,  // measure 16
0001
0000
0010
0100
1000
0010
0100
0001
,  // measure 17
1000
0000
0100
0010
0001
1000
0010
0100
,  // measure 18
0001
0000
0010
0000
0001
1000
0100
1000
,  // measure 19
0001
0000
0100
0000
0010
1000
0100
0010
,  // measure 20
0001
0000
0010
0000
0100
1000
0010
0100
,  // measure 21
0001
0000
0100
0000
0010
1000
0100
0010
,  // measure 22
0001
0000
1000
0000
0001
0100
0010
1000
,  // measure 23
0010
0000
0000
0100
0000
0000
0001
0000
0010
0000
0000
0100
0000
0000
1000
0000
,  // measure 24
0010
0000
0000
0100
0000
0000
0001
0000
1000
0000
0100
0000
0010
0000
0001
0000
,  // measure 25
1000
0000
0000
0001
0000
0000
0100
0000
0010
0000
0000
1000
0000
0000
0100
0000
,  // measure 26
0010
0000
0000
0001
0000
0000
1000
0000
0010
0000
0100
0000
0001
0000
1000
0000
,  // measure 27
0100
0000
0000
1000
0000
0001
1000
0000
0001
0000
0000
0100
0000
0010
0100
0000
,  // measure 28
0010
0000
0000
1000
0000
0010
1000
0000
0001
0000
0100
0000
0001
0000
0010
0000
,  // measure 29
0100
0000
0000
1000
0000
0001
0010
0000
0001
0000
0000
1000
0000
0010
1000
0000
,  // measure 30
0001
0000
0000
0100
0000
0010
1000
0000
0001
0000
0100
0000
0010
0000
1000
0000
,  // measure 31
0100
0000
0100
1000
0001
0000
0001
0010
,  // measure 32
0001
0000
1000
0010
0100
0000
0001
0100
,  // measure 33
0010
1000
0100
0000
0010
0000
0001
0000
,  // measure 34
1000
0010
0100
0000
0001
0010
0001
1000
,  // measure 35
0010
0100
0001
0000
0010
0000
0001
0000
,  // measure 36
1000
0000
0100
1000
0001
0000
0100
0000
,  // measure 37
0010
1000
0010
0000
0100
0000
0001
0000
,  // measure 38
1000
0100
1000
0001
0010
1001
1001
0000
,  // measure 39
0001
0100
0010
1000
0000
0001
0100
0010
,  // measure 40
1000
0100
0010
0001
1000
0000
0001
0000
,  // measure 41
0100
0010
0000
0000
0010
1000
0000
0000
0001
0100
0000
0000
1001
0000
0000
0000
,  // measure 42
1000
0100
0010
0001
0010
0000
1001
0000
,  // measure 43
0001
0100
0010
1000
0000
0100
0010
0001
,  // measure 44
1000
0100
0010
0001
1000
0000
1001
0000
,  // measure 45
0001
0100
0000
0000
0010
1000
0000
0000
0100
1000
0000
0000
1001
0000
0000
0000
,  // measure 46
1000
0100
0010
0001
1000
0110
0110
0110
,  // measure 47
0010
1000
0001
0100
0000
0001
1000
0100
,  // measure 48
0010
0000
0001
0000
1000
0000
0001
0000
0100
0000
0001
0100
0001
0100
0001
0000
,  // measure 49
0100
0010
1000
0100
0010
0001
1000
0100
,  // measure 50
1000
0000
0001
0000
0100
0000
0001
1000
0001
0000
0000
0000
0110
0000
0000
0000
,  // measure 51
0010
1000
0001
0100
0000
0010
1000
0100
,  // measure 52
0010
0000
0001
0000
0010
0000
0100
0000
1000
0000
0001
0100
0001
0100
0001
0000
,  // measure 53
0100
0010
1000
0100
0010
0001
0010
0100
,  // measure 54
1000
0010
0100
0001
1000
0000
1010
0000
,  // measure 55
1000
0000
0000
0100
0000
0000
0010
0000
0001
0000
0000
1000
0000
0000
0010
0000
,  // measure 56
0100
0000
0000
0001
0000
0000
0010
0000
0001
0000
0000
1000
0000
0000
0010
0000
,  // measure 57
0100
0001
0010
0100
0000
1000
0010
0100
,  // measure 58
0001
1000
0011
1100
,  // measure 59
1001
0000
0001
0100
0010
0000
1000
0100
,  // measure 60
0010
0000
0100
1000
0010
0000
0101
0000
,  // measure 61
0001
1000
0100
0010
0001
1000
0000
0110
,  // measure 62
0000
0010
1000
0000
0001
0000
0110
0000
,  // measure 63
0010
1000
0100
0010
0001
1000
0000
0110
,  // measure 64
2002
0000
0000
3003
,  // measure 65
1000
0001
0100
0010
0000
1000
0100
0010
,  // measure 66
0001
0000
1000
0001
1000
0000
0010
0000
0100
0000
0010
0100
0010
0000
0100
0000
,  // measure 67
0010
1000
0100
0010
0000
0001
0010
0100
,  // measure 68
1000
0000
0001
0100
0001
0000
1000
0000
0100
0000
0000
0000
1001
0000
0000
0000
,  // measure 69
1000
0100
0010
0001
1000
0010
0000
0110
,  // measure 70
0000
0010
1000
0100
0010
0001
0000
1001
,  // measure 71
0000
0001
0100
0010
1000
0100
0000
0020
,  // measure 72
0000
0000
0032
0000
0000
0000
0203
0000
0000
0300
0020
0000
0000
0000
1030
0000
,  // measure 73
0100
0000
0000
0100
0010
0000
0001
0000
1000
0000
0000
1000
0001
0000
0100
0000
,  // measure 74
0010
0000
0000
0010
1000
0000
0100
0000
0010
0000
0001
0000
1000
0000
0010
0000
,  // measure 75
0100
0000
0000
0100
0001
0000
1000
0000
0100
0000
0000
0100
0010
0000
0001
0000
,  // measure 76
1000
0001
0100
0010
1000
0001
0010
0100
,  // measure 77
1000
0000
0000
1000
0001
0000
0010
0000
0100
0000
0000
0100
0010
0000
0001
0000
,  // measure 78
1000
0010
0000
1010
0000
1000
0001
0100
,  // measure 79
0000
0100
0001
0010
0000
0010
0100
1000
,  // measure 80
0010
0100
0000
0001
1000
0100
0010
0000
,  // measure 81
1001
0000
0000
0000
;
