#TITLE:(Nonstop 07);
#SUBTITLE:;
#ARTIST:"Candy & Core";
#TITLETRANSLIT:;
#SUBTITLETRANSLIT:;
#ARTISTTRANSLIT:;
#CREDIT:;
#BANNER:ns.png;
#BACKGROUND:ns-bg.png;
#LYRICSPATH:;
#CDTITLE:;
#MUSIC:ns.ogg;
#OFFSET:0.000;
#SAMPLESTART:29.091;
#SAMPLELENGTH:12.000;
#SELECTABLE:YES;
#BPMS:0.000=165.000;
#STOPS:;
#BGCHANGES:;

//---------------dance-single - Renard----------------
#NOTES:
     dance-single:
     Renard:
     Hard:
     9:
     0.585,0.640,0.112,0.225,0.112: // measure 1
0000
0000
0000
0000
,  // measure 2
0000
0000
0000
0000
,  // measure 3
0000
0000
0000
0000
,  // measure 4
0000
0000
0000
0000
,  // measure 5
0000
0000
1000
0000
0001
0000
0000
0100
0000
0000
0001
0000
0010
0000
0000
0100
,  // measure 6
0000
0000
1000
0000
0001
0000
0000
0100
0000
0000
0010
0000
1000
0000
0000
0001
,  // measure 7
0000
0000
0100
0000
0010
0000
0000
1000
0000
0000
0100
0000
0010
0000
0000
0001
,  // measure 8
0000
0010
0100
0000
1000
0001
0100
0010
,  // measure 9
1000
0000
1000
0001
0000
0001
0100
0010
,  // measure 10
1000
0011
0100
1001
,  // measure 11
0001
0000
0001
0100
0000
0100
0010
1000
,  // measure 12
0001
0011
0010
0110
,  // measure 13
0100
0100
0100
1000
1000
1000
0001
0001
,  // measure 14
0010
0010
0010
0001
0001
0001
0100
0100
,  // measure 15
0010
0010
0010
1000
1000
1000
0100
0100
,  // measure 16
0010
0001
0010
0100
1000
0000
0001
0100
,  // measure 17
0010
0000
0010
1000
0000
1000
0001
0100
,  // measure 18
0010
1000
0100
0000
0010
0001
0010
0000
,  // measure 19
0100
1000
0001
0100
0000
0100
0001
0010
,  // measure 20
0100
0010
0100
0000
1000
0100
1000
0000
,  // measure 21
0001
0010
0100
1000
0000
1000
0001
0100
,  // measure 22
0010
1000
0010
0000
0100
0001
0100
0000
,  // measure 23
0001
1000
0100
0010
0000
0010
0100
1000
,  // measure 24
0010
0100
0001
1001
,  // measure 25
1000
0000
0001
0100
0000
0000
0001
0000
0010
0000
0100
1000
0000
0000
0001
0000
,  // measure 26
0010
0000
0100
0000
0000
1000
0001
0100
,  // measure 27
0010
0000
1000
0010
0000
0000
1000
0000
0001
0000
0100
0000
0001
0000
0010
0000
,  // measure 28
0100
0000
1000
0000
0100
0000
0000
0000
1000
0000
0001
1000
0000
0000
0000
0000
,  // measure 29
0001
0000
0100
0001
0000
0000
0100
0000
0010
0000
1000
0010
0000
0000
1000
0000
,  // measure 30
0100
0000
0000
0000
0010
0000
0000
0000
0000
0001
0010
0000
0100
0000
1000
0000
,  // measure 31
0001
0000
0100
0010
0000
0000
1000
0000
0010
0000
0100
0000
0001
0000
0010
0000
,  // measure 32
0100
0000
1000
0000
0001
0000
0000
0000
0100
0000
0001
0100
0000
0000
0000
0000
,  // measure 33
0001
0100
0001
0100
0010
0100
0010
0100
,  // measure 34
1000
0100
1000
0100
0010
0100
0010
0100
,  // measure 35
0001
0010
0001
0010
0100
0010
0100
0010
,  // measure 36
1000
0010
1000
0010
1000
0010
1000
0010
,  // measure 37
0100
0010
0100
0010
0100
1000
0100
1000
,  // measure 38
0100
0001
0100
0001
0100
0010
0100
0010
,  // measure 39
0100
1000
0100
1000
0010
1000
0010
1000
,  // measure 40
2002
0000
0000
0000
0010
0000
0100
3003
,  // measure 41
0001
1000
1000
0100
0010
0000
0010
0000
,  // measure 42
0100
0000
0100
1000
0010
0000
0010
0000
,  // measure 43
0100
0001
0001
0010
0001
0000
1000
0100
,  // measure 44
0010
0100
1000
0001
,  // measure 45
0010
0001
0001
0010
0100
0000
1000
0000
,  // measure 46
0010
0000
0010
0100
0001
0000
0001
0000
,  // measure 47
1000
0100
0100
0010
0001
0000
1000
0002
,  // measure 48
0200
0000
0000
0000
0010
0000
1000
0303
,  // measure 49
0001
0000
0001
0100
0000
0100
0001
0000
0100
0000
0010
0000
1000
0000
0100
0000
,  // measure 50
0010
0001
0010
0100
1000
0001
0010
0100
,  // measure 51
1000
0000
1000
0100
0000
0100
1000
0000
0001
0000
0010
0000
0100
0000
1000
0000
,  // measure 52
0100
0010
0001
1000
0010
0100
0001
1000
,  // measure 53
0001
0000
0001
1000
0000
1000
0001
0000
0100
0000
0010
0000
1000
0000
0100
0000
,  // measure 54
0010
0001
0010
0100
1000
0010
0100
0001
,  // measure 55
0010
0000
0010
0001
0000
0001
0010
0000
0100
0000
1000
0000
0001
0000
0100
0000
,  // measure 56
0010
0000
0010
1000
0000
1000
0010
0000
1000
0000
0100
0000
0010
0000
0001
0000
,  // measure 57
2000
0000
0000
0002
0000
0000
0000
0000
,  // measure 58
0000
0000
0000
3000
,  // measure 59
0200
0000
0003
0020
0000
0000
0300
0000
,  // measure 60
2000
0000
0000
0000
0000
0000
0000
0030
,  // measure 61
0200
0000
0000
3000
0020
0000
0000
0300
,  // measure 62
0002
0000
0000
0000
0000
0000
0000
0030
,  // measure 63
2000
0000
0000
0003
0020
0000
0000
3000
,  // measure 64
0000
0230
0000
0302
0020
0000
0000
0003
,  // measure 65
0200
0000
0000
0030
2000
0000
0300
0000
,  // measure 66
0002
0000
0000
3000
,  // measure 67
0200
0000
0003
0000
0020
0000
0000
0300
,  // measure 68
2000
0000
0000
0000
0000
0000
0000
0030
,  // measure 69
0200
0000
3000
0000
0020
0000
0000
0300
,  // measure 70
0002
0000
0000
0030
,  // measure 71
2000
0003
0000
0000
3002
0000
0203
0020
,  // measure 72
0000
0000
0000
0330
2002
0000
3003
0000
,  // measure 73
1000
0100
0010
0001
0010
0000
0100
1000
,  // measure 74
0001
0100
0000
0010
0000
1000
0100
0010
,  // measure 75
0001
0010
0100
1000
0001
0000
0100
0001
,  // measure 76
1000
0100
0000
0010
0000
0010
0001
0000
,  // measure 77
0010
0100
1000
0001
0010
0000
0001
1000
,  // measure 78
0010
0100
0000
0001
0000
0100
0010
1000
,  // measure 79
0100
0010
0001
0010
0100
0000
0100
1000
,  // measure 80
0001
0100
0000
0010
0000
0010
0100
0001
,  // measure 81
0100
0010
1000
0100
0010
0000
0010
0100
,  // measure 82
1000
0001
0000
0101
0000
0001
1000
0100
,  // measure 83
0010
0001
1000
0000
1001
0000
1000
0001
,  // measure 84
0100
0010
0000
0110
0000
1001
0000
1000
,  // measure 85
0100
0010
0001
0010
0100
0000
0100
1000
,  // measure 86
0010
0100
0000
1001
0000
0001
0100
0010
,  // measure 87
1000
0100
0010
0001
1000
0000
0001
0100
,  // measure 88
0010
1000
0000
1001
0000
0110
0000
1001
,  // measure 89
0000
1000
0100
0010
0001
0010
0100
1000
,  // measure 90
0001
0000
0001
0000
0010
0100
1000
0001
,  // measure 91
0100
0010
1000
0100
0010
0001
0010
0000
,  // measure 92
0100
1000
0010
0000
0100
0001
0100
0000
,  // measure 93
0001
0000
1000
0100
0000
0000
1000
0000
0001
0000
0010
0001
0000
0000
0010
0000
,  // measure 94
0001
0000
0000
0000
1000
0000
0000
0000
0000
0010
1000
0000
0001
0000
0100
0000
,  // measure 95
0010
0000
1000
0100
0000
0000
0010
0000
0001
0000
0010
0001
0010
0000
0001
0000
,  // measure 96
0010
0000
0100
1000
0100
0000
0000
0000
1000
0000
0001
1000
0001
0000
0000
0000
,  // measure 97
0110
0000
0000
0000
;
