#TITLE:(Nonstop 06);
#SUBTITLE:;
#ARTIST:"Bounce & Pound";
#TITLETRANSLIT:;
#SUBTITLETRANSLIT:;
#ARTISTTRANSLIT:;
#CREDIT:;
#BANNER:ns.png;
#BACKGROUND:ns-bg.png;
#LYRICSPATH:;
#CDTITLE:;
#MUSIC:ns.ogg;
#OFFSET:0.000;
#SAMPLESTART:26.667;
#SAMPLELENGTH:12.000;
#SELECTABLE:YES;
#BPMS:0.000=180.000;
#STOPS:;
#BGCHANGES:;

//---------------dance-single - Renard----------------
#NOTES:
     dance-single:
     Renard:
     Hard:
     9:
     0.669,0.735,0.351,0.016,0.871: // measure 1
0000
0000
0000
0000
,  // measure 2
0000
0000
0000
0000
,  // measure 3
0000
0000
0000
0000
,  // measure 4
0000
0000
0000
0000
,  // measure 5
1000
0000
0000
1000
0000
0000
1000
0000
0001
1000
0000
0001
,  // measure 6
0100
0000
0000
0100
0000
0000
0100
0000
0001
0100
0000
0001
,  // measure 7
0010
0000
0000
0010
0000
0000
0010
0000
0001
0010
0000
0100
,  // measure 8
1000
0000
0001
0000
0000
0110
0000
0000
0000
0000
0000
0000
,  // measure 9
0010
0000
0010
1000
0000
0000
0001
0000
0001
0100
0000
0000
,  // measure 10
0001
0000
1000
0000
0000
0100
0010
0000
0001
0010
0000
0000
,  // measure 11
0100
0000
1000
0001
0000
0000
0110
0000
0000
1001
0000
0000
,  // measure 12
0110
0000
0010
0100
0000
0000
1001
0000
0001
1000
0000
0000
,  // measure 13
0101
1010
1001
1100
,  // measure 14
1000
0000
0001
0000
0000
0010
0100
0000
1000
0001
0000
0000
,  // measure 15
0100
0000
0010
1000
0000
0000
1001
0000
0000
1000
0000
0100
,  // measure 16
0010
0000
0000
0001
0000
0000
0010
0000
0000
0100
1000
0100
,  // measure 17
1000
0000
0000
0001
0000
0100
0010
0000
0000
1000
0000
0010
,  // measure 18
1000
0000
0001
0000
0000
0100
0001
0000
0000
1000
0000
0000
,  // measure 19
0100
0000
0010
0001
0000
0000
0010
0000
0000
0100
0000
0000
,  // measure 20
1000
0000
0001
0100
0000
0010
1000
0000
0000
1001
0000
0000
,  // measure 21
1000
0000
0100
0010
0000
0000
0001
0000
0010
0100
0000
0000
,  // measure 22
1000
0000
0001
0000
0000
0100
0010
0000
0000
1000
0000
0000
,  // measure 23
0001
0000
0100
0010
0000
0100
0010
0000
0000
1000
0000
0001
,  // measure 24
1000
0010
0100
1001
,  // measure 25
1000
0000
0000
0100
0000
0000
1000
0000
0100
1000
0000
0100
,  // measure 26
0010
0000
0000
0001
0000
0000
0010
0000
0001
0010
0000
0001
,  // measure 27
0100
0000
0000
0001
0000
0000
0100
0000
0001
0100
0000
0010
,  // measure 28
1000
0000
0000
0001
0000
0100
0010
0000
0100
0010
0000
0000
,  // measure 29
0100
0000
0010
1000
0000
0010
1000
0000
0000
0001
0000
0000
,  // measure 30
0100
0000
0001
0100
0000
0001
0100
0000
0000
0001
0000
0000
,  // measure 31
0010
0100
1000
0100
0010
0001
0010
0100
1000
0001
0010
0100
,  // measure 32
1000
0001
0100
0010
1000
0001
1000
0000
0000
0000
0000
0000
,  // measure 33
0001
0000
0000
0100
0000
0000
0010
1000
0010
1000
0000
0000
,  // measure 34
0001
0100
0001
0100
0000
0001
0010
0000
0001
0010
0000
0000
,  // measure 35
0100
0000
0000
1000
0000
0000
0001
1000
0001
1000
0000
0000
,  // measure 36
0010
0100
0010
0100
0000
0000
1001
0000
0000
0000
0000
0000
,  // measure 37
0001
0000
0000
0100
0000
0000
0001
1000
0001
1000
0000
0000
,  // measure 38
0100
1000
0100
1000
0000
0001
0010
0000
0001
0010
0000
0000
,  // measure 39
0001
0000
0000
1000
0000
0000
0010
0100
0010
0100
0000
0000
,  // measure 40
0010
0000
0010
0100
0000
0000
1001
0000
0000
0000
0000
0000
,  // measure 41
1000
0000
0001
0000
0100
0000
0010
0100
0010
0100
0000
0000
,  // measure 42
0010
0000
1000
0000
0100
0000
0010
0100
0010
0100
0000
0000
,  // measure 43
0010
0000
0001
0000
1000
0000
0001
0100
0001
0100
0000
0000
,  // measure 44
0010
0000
0000
1000
0010
1000
0010
0000
1000
0001
0000
0000
,  // measure 45
1000
0000
0100
0000
0010
0000
0001
1000
0001
1000
0000
0000
,  // measure 46
0001
0000
0010
0000
0100
0000
1000
0001
1000
0001
0000
0000
,  // measure 47
1000
0000
1000
0001
0000
0001
0100
0000
0100
0010
0000
0000
,  // measure 48
0110
1001
0110
1001
,  // measure 49
0110
0000
0000
0000
,  // measure 50
0010
0000
0010
0100
0000
0100
0001
0000
0001
1000
0000
0000
,  // measure 51
1001
0000
0000
0010
0000
0010
0000
0010
0000
0010
0000
0000
,  // measure 52
0100
0000
0100
0001
0000
0001
1000
0000
1000
0100
0000
0100
,  // measure 53
0010
0000
0010
0001
0000
0001
0010
0001
0010
0001
0000
0000
,  // measure 54
0010
0000
0010
0100
0000
0100
1000
0000
1000
0001
0000
0001
,  // measure 55
0010
0000
0010
0001
0000
0001
1000
0000
1000
0100
0000
0100
,  // measure 56
1000
0001
1000
0001
1000
0001
0100
0010
0100
0010
0000
0000
,  // measure 57
1001
0110
1001
0110
,  // measure 58
1001
0000
0000
0000
,  // measure 59
0000
0000
0000
0000
,  // measure 60
0000
0000
0000
0000
,  // measure 61
1000
0000
1000
0100
0000
0000
0010
0001
0000
0010
0000
0100
,  // measure 62
1000
0001
0100
0010
0000
1000
0001
0100
0000
0010
0000
1000
,  // measure 63
0100
0000
0010
0001
0000
0000
0010
0100
0000
1000
0000
0001
,  // measure 64
0010
0100
1000
0001
0000
0100
0010
1000
0000
0001
0000
0100
,  // measure 65
0010
0000
1000
0100
0000
0000
0010
0001
0000
0010
0000
0100
,  // measure 66
1000
0001
0010
0100
0000
1000
0001
0100
0000
0010
0000
1000
,  // measure 67
0001
0000
0100
0010
0000
0000
1000
0001
0000
1000
0000
0010
,  // measure 68
1000
0000
0000
1000
0000
0001
0100
0000
0000
0110
0000
0000
,  // measure 69
0010
0000
1000
0001
0000
0000
0100
0001
0000
0010
0000
0100
,  // measure 70
1000
0001
0010
0100
0000
1000
0001
0100
0000
0010
0000
1000
,  // measure 71
0100
0000
0010
0001
0000
0000
0010
0100
0000
1000
0000
0001
,  // measure 72
0100
0010
1000
0001
0000
1000
0100
0010
0000
0001
0000
0010
,  // measure 73
0100
0000
1000
0010
0000
0000
0100
0001
0000
0100
0000
0010
,  // measure 74
1000
0100
0010
0001
0000
0010
0100
1000
0000
0001
0000
0100
,  // measure 75
0010
0000
1000
0010
0000
0000
0100
0001
0000
0010
0000
0100
,  // measure 76
1000
0001
0010
0100
0000
0010
0001
0010
0000
0001
1000
0010
,  // measure 77
1000
0000
0000
0101
0000
0000
0001
0010
0000
0100
0000
1000
,  // measure 78
0001
0000
0000
0110
0000
0000
0010
1000
0000
0001
0000
0100
,  // measure 79
0010
0000
0000
1001
0000
0000
1000
0100
0000
0010
0000
0001
,  // measure 80
1000
0000
0000
0101
0000
0000
0010
1000
0100
0010
0000
0000
,  // measure 81
0001
0000
0000
0010
0000
0000
0100
1000
0000
0001
0000
1000
,  // measure 82
0010
1000
0010
1000
0000
0000
0001
0000
0000
0100
0000
0000
,  // measure 83
0001
0000
0001
1000
0000
0000
1000
0100
0000
0010
0000
0001
,  // measure 84
0010
0000
0100
1000
0000
0001
0100
0000
0000
0110
0000
0000
,  // measure 85
0010
0000
0000
1000
0000
0000
0001
0000
0100
0010
0000
0000
,  // measure 86
0110
0000
0000
1000
0000
0000
0100
0000
0010
0001
0000
0000
,  // measure 87
0110
0000
0000
0100
0000
0000
1000
0000
0010
0100
0000
0000
,  // measure 88
1001
0010
1001
0110
,  // measure 89
1010
0000
0000
0101
0000
0000
1001
0000
1000
0100
0000
0000
,  // measure 90
0011
0000
0000
1100
0000
0000
1001
0000
0001
0100
0000
0000
,  // measure 91
0110
0000
0000
0010
0000
0000
1000
0000
0001
0100
0000
0000
,  // measure 92
0010
0000
0000
1000
0000
0100
0010
0000
0000
2002
0000
0000
,  // measure 93
3003
0000
0000
0000
;
