#TITLE:(Nonstop 05);
#SUBTITLE:;
#ARTIST:"Disinfected";
#TITLETRANSLIT:;
#SUBTITLETRANSLIT:;
#ARTISTTRANSLIT:;
#CREDIT:;
#BANNER:ns.png;
#BACKGROUND:ns-bg.png;
#LYRICSPATH:;
#CDTITLE:;
#MUSIC:ns.ogg;
#OFFSET:0.000;
#SAMPLESTART:66.207;
#SAMPLELENGTH:12.000;
#SELECTABLE:YES;
#BPMS:0.000=145.000;
#STOPS:173.500=0.828
;
#BGCHANGES:;

//---------------dance-single - Renard----------------
#NOTES:
     dance-single:
     Renard:
     Hard:
     9:
     0.570,0.657,0.163,0.000,0.322: // measure 1
0000
0000
0000
0000
,  // measure 2
0000
0000
0000
0000
,  // measure 3
0000
0000
0000
0000
,  // measure 4
0000
0000
0000
0000
,  // measure 5
1000
0000
0001
0000
0100
0000
0010
0000
1000
0000
0000
1000
0000
0000
1000
0000
,  // measure 6
0100
0000
0010
0000
0001
0000
1000
0000
0001
0000
0000
0001
0000
0000
0001
0000
,  // measure 7
0100
0000
0010
0000
1000
0000
0100
0000
0010
0000
0000
0010
0000
0000
0010
0000
,  // measure 8
0001
0000
0000
0001
1000
0000
0000
1000
0010
0000
0100
0000
0001
0000
0010
0000
,  // measure 9
0100
0000
0000
0100
1000
0001
0000
0000
0100
0000
0000
0000
0010
0000
0000
0000
,  // measure 10
1000
0000
0000
0100
0010
0001
0000
0000
0010
0000
0000
0000
0100
0000
0000
0000
,  // measure 11
1000
0000
0000
0001
1000
0100
0000
0000
1000
0000
0000
0000
0001
0000
0000
0000
,  // measure 12
0010
0000
0001
0000
0010
0000
0100
0000
1000
0000
0000
0000
0001
0100
0001
0000
,  // measure 13
0100
0000
0000
0000
0001
0000
1000
0000
0100
0010
0000
0001
0000
0000
1000
0000
,  // measure 14
0001
0000
0000
0000
0100
0000
0000
0000
0010
0000
0000
0010
0000
0000
0000
0000
,  // measure 15
1000
0000
0000
0000
0100
0000
0010
0000
0001
1000
0000
0001
0000
0000
0100
0000
,  // measure 16
0001
1000
0100
0010
,  // measure 17
0001
0010
0000
0010
0001
0000
0001
0010
0000
0010
0001
0000
0001
0010
0000
0010
,  // measure 18
0001
0000
0001
0010
0000
0010
0001
0000
0001
0010
0000
0010
0001
0000
0001
0010
,  // measure 19
0000
0010
0001
0000
0001
0010
0000
0010
0001
0000
0001
0010
0000
0010
0001
0000
,  // measure 20
0001
0010
0000
0010
0001
0000
0001
0010
0000
0010
0001
0000
0010
0000
0001
0000
,  // measure 21
0010
0000
0000
0010
0100
0000
1000
0000
0001
0000
0100
0000
0010
0000
1000
0000
,  // measure 22
0000
1000
0010
0100
0001
0000
0001
0000
,  // measure 23
1000
0000
0000
1000
0100
0000
0010
0000
0000
0000
0001
0000
1000
0000
0001
0000
,  // measure 24
0000
0100
0010
1000
0001
0000
1001
0000
,  // measure 25
1000
0000
0000
1000
0100
0000
0010
0000
0000
0000
0001
0000
1000
0000
0001
0000
,  // measure 26
0000
0100
0010
0100
0010
0000
1010
0000
,  // measure 27
1000
0000
1000
0001
1000
0000
0001
0000
0100
0000
0010
0000
1000
0000
0100
0000
,  // measure 28
0010
0001
0010
0100
1000
0000
0001
0000
,  // measure 29
0100
0000
0000
0100
0001
0000
1000
0000
0000
0000
0100
0000
0010
0000
0001
0000
,  // measure 30
1000
0000
0000
0001
0000
0000
0100
0000
0010
0000
0000
0000
1010
0000
0000
0000
,  // measure 31
1000
0000
0000
1000
0001
0000
0100
0000
0010
0000
0000
0010
1000
0000
0100
0000
,  // measure 32
0010
0000
0000
0010
0001
0000
0010
0000
0100
0000
1000
0000
0001
0000
0000
0000
,  // measure 33
0100
0000
0000
0100
0001
0000
1000
0000
0100
0000
0000
0100
1000
0000
0001
0000
,  // measure 34
0010
0000
0000
0010
0001
0000
1000
0000
0010
0000
0000
0000
0110
0000
0000
0000
,  // measure 35
0100
0000
0000
0100
0001
0000
1000
0000
0100
0000
0000
0100
1000
0000
0001
0000
,  // measure 36
0010
0000
0000
0010
0000
0000
0010
0000
0001
0000
0000
0000
1001
0000
0000
0000
,  // measure 37
0001
0000
0000
0001
0100
0000
0010
0000
0000
0000
0110
0000
0110
0000
0000
0000
,  // measure 38
0010
1000
0100
0010
0001
0000
0011
0000
,  // measure 39
0010
0000
0000
0010
0100
0000
1000
0000
0010
0000
0100
0000
0001
0000
0000
0000
,  // measure 40
1001
0000
0000
1010
0000
0000
1001
0000
1001
0000
0000
0000
0101
0000
0000
0000
,  // measure 41
0001
0000
0000
0001
1000
0000
0100
0000
0000
0000
0010
0000
0000
0000
0001
0000
,  // measure 42
0000
0000
1000
0001
1000
0000
0001
0000
0100
0000
0000
0000
0110
0000
0000
0000
,  // measure 43
0010
0000
0000
1000
0000
0000
0001
0100
0001
0000
0100
0000
0001
0000
1000
0000
,  // measure 44
0100
0000
0000
0010
0000
0000
0001
0000
1000
0000
0000
1000
0001
0000
0100
0000
,  // measure 45
0000
0000
0001
0000
1000
0000
0100
0000
0010
0000
0000
0010
0001
0000
0010
0000
,  // measure 46
0000
0000
0100
0000
0000
0000
1000
0000
0001
1000
0001
0000
0000
0000
1000
0000
,  // measure 47
0000
0001
0100
0010
1000
0000
0100
0010
,  // measure 48
0000
0000
0001
0000
0010
0000
0100
0000
1000
0000
0000
0001
0000
0000
0100
0000
,  // measure 49
0000
0010
1000
0000
0100
0010
0001
1000
,  // measure 50
0000
0001
0100
0010
1000
0001
0100
0000
,  // measure 51
0010
0000
1000
0000
0000
0000
0100
0000
0000
0000
0010
0001
0010
0000
0100
0000
,  // measure 52
1000
0001
0000
0100
0000
0001
1000
0100
,  // measure 53
0010
0001
0000
1000
0000
0001
0010
0100
,  // measure 54
1000
0010
0000
0100
0000
0100
0001
1000
,  // measure 55
0010
1000
0000
1000
0000
0100
0010
0001
,  // measure 56
1000
0001
0000
0101
0000
1001
0000
1000
,  // measure 57
0100
0010
0000
0001
0000
1000
0001
0100
,  // measure 58
0001
0000
0100
0001
0100
0000
0001
0000
1000
0000
0100
1000
0100
0000
1000
0000
,  // measure 59
0001
0000
0010
0001
0010
0000
0001
0000
1000
0000
0010
0000
0100
0000
0100
0000
,  // measure 60
0010
0000
0100
0000
0001
0000
1000
0000
0100
0000
0000
0100
0010
0000
0001
0000
,  // measure 61
0010
0000
0100
0000
1000
0000
0001
0000
0100
0000
0000
0100
0010
0000
1000
0000
,  // measure 62
0100
0010
0000
0011
0000
0110
0000
0100
,  // measure 63
1000
0000
0001
0000
0000
0000
0100
0000
0001
0000
0000
1000
0100
0000
1000
0000
,  // measure 64
0001
0000
0000
0010
0001
0000
1000
0000
0001
0000
0100
0000
0000
0000
0001
0000
,  // measure 65
0000
0000
1000
0100
1000
0000
0001
0000
0010
0000
0000
0000
0001
0000
1000
0000
,  // measure 66
0000
0000
0010
0100
0010
0000
0100
0000
0001
0000
0000
0001
1000
0000
0100
0000
,  // measure 67
0010
0001
0000
1000
0000
0001
0100
0010
,  // measure 68
1000
0100
0010
0001
1000
0001
0000
0101
,  // measure 69
0000
0000
0001
1000
0100
0010
0000
0001
,  // measure 70
0000
0000
1000
0010
0100
0000
0000
0000
;
