#TITLE:(Nonstop 04);
#SUBTITLE:;
#ARTIST:"Ultrasonic Riddim";
#TITLETRANSLIT:;
#SUBTITLETRANSLIT:;
#ARTISTTRANSLIT:;
#CREDIT:;
#BANNER:ns.png;
#BACKGROUND:ns-bg.png;
#LYRICSPATH:;
#CDTITLE:;
#MUSIC:ns.ogg;
#OFFSET:0.000;
#SAMPLESTART:44.138;
#SAMPLELENGTH:12.000;
#SELECTABLE:YES;
#BPMS:0.000=174.000;
#STOPS:;
#BGCHANGES:;

//---------------dance-single - Renard----------------
#NOTES:
     dance-single:
     Renard:
     Hard:
     9:
     0.595,0.610,0.283,0.041,0.000: // measure 1
0000
0000
0000
0000
,  // measure 2
0000
0000
0000
0000
,  // measure 3
0000
0000
0000
0000
,  // measure 4
0000
0000
0000
0000
,  // measure 5
1000
0000
0001
0000
0100
0000
0001
0010
,  // measure 6
0001
0000
0010
0000
0100
0000
1000
0100
,  // measure 7
1000
0000
0001
0100
0010
1000
0100
0010
,  // measure 8
0001
0010
0100
1000
0010
0100
0001
0000
,  // measure 9
0100
0001
0100
0010
0000
1000
0100
0010
,  // measure 10
0000
0001
0010
0100
1000
0000
0001
0000
,  // measure 11
0100
0010
1000
0100
0000
0010
0001
0010
,  // measure 12
0000
0100
1000
0010
0100
0000
0101
0000
,  // measure 13
0001
1000
0100
0010
0000
0001
0010
0100
,  // measure 14
0000
1000
0010
0100
0001
0000
1001
0000
,  // measure 15
1000
0100
0010
0001
0000
1000
0010
0100
,  // measure 16
0000
0001
0100
0010
1000
0000
1001
0000
,  // measure 17
0110
0000
0010
1000
0100
0010
0001
0000
,  // measure 18
0110
0000
0100
1000
0010
0100
0001
0010
,  // measure 19
0100
0000
1000
0000
0010
0100
0001
0000
,  // measure 20
0110
0000
1001
0000
1000
0100
0010
0001
,  // measure 21
1000
0000
0101
0000
0010
1000
0100
0010
,  // measure 22
0001
0000
1100
0000
0010
0001
0010
0100
,  // measure 23
1000
0000
0001
0100
0000
1010
0000
1001
,  // measure 24
0000
1100
0000
1000
0100
0010
0001
1000
,  // measure 25
0001
0000
0100
0010
1000
0000
0010
1000
,  // measure 26
0001
0000
0100
0001
0100
0000
0001
1000
,  // measure 27
0100
0000
0010
0001
1000
0000
0010
0100
,  // measure 28
0001
0010
0100
1000
0001
1000
0020
0200
,  // measure 29
0000
0000
0000
0000
,  // measure 30
0000
0000
0000
0000
,  // measure 31
0000
0000
0000
0000
,  // measure 32
0000
0000
0000
0000
0000
0000
0000
0330
,  // measure 33
0010
0000
0000
1001
,  // measure 34
1000
0100
0010
0001
0010
0100
1000
0010
,  // measure 35
0100
0001
0010
0100
1000
0100
0010
0001
,  // measure 36
0100
0010
1000
0100
0010
0000
1001
0000
,  // measure 37
0001
0010
0100
1000
0010
0100
0001
0100
,  // measure 38
0010
0100
1000
0100
0010
0100
0001
0100
,  // measure 39
0001
0010
0100
0010
1000
0010
0100
0010
,  // measure 40
0001
1000
0010
0100
0001
0000
1001
0000
,  // measure 41
0110
0000
0100
0000
1000
0010
0100
0001
,  // measure 42
0010
0000
0110
0000
0100
1000
0010
0100
,  // measure 43
0001
0000
0110
0000
0010
1000
0100
0010
,  // measure 44
0001
0000
1001
0000
0001
0100
0010
1000
,  // measure 45
0100
0000
1100
0000
1000
0100
0010
0001
,  // measure 46
1000
0000
0101
0000
0001
0100
0010
1000
,  // measure 47
0100
0010
0001
0010
,  // measure 48
0200
0000
2000
3300
,  // measure 49
1000
0000
1010
0000
0100
0001
0010
0100
,  // measure 50
1000
0001
0010
0100
1000
0001
0100
0000
,  // measure 51
0001
0000
0011
0000
0010
0100
1000
0001
,  // measure 52
0100
0010
1000
0100
0010
0001
1000
0000
,  // measure 53
0001
0000
0110
0000
0010
1000
0100
0000
,  // measure 54
0010
0000
0011
0000
0010
0100
1000
0000
,  // measure 55
0001
0110
1000
0110
,  // measure 56
0001
0000
1100
0000
1000
0001
0010
0100
,  // measure 57
1000
0000
0101
0000
0100
0010
1000
0100
,  // measure 58
0010
0001
1000
0100
0010
0001
1000
0010
,  // measure 59
0100
0000
1001
0000
1000
0100
0010
0000
,  // measure 60
0001
0010
0100
0000
1000
0010
0100
0000
,  // measure 61
0001
0000
0110
0000
0100
1000
0010
0000
,  // measure 62
0100
0001
0010
0000
0100
1000
0010
0000
,  // measure 63
0110
0000
0100
0010
1000
0000
0001
0100
,  // measure 64
0010
0000
0010
1000
0100
0010
0001
1000
,  // measure 65
0001
0000
0100
0000
0000
0010
1000
0000
,  // measure 66
0100
0010
0001
0010
0100
1000
0001
0100
,  // measure 67
0010
1000
0100
0010
0001
0010
0100
1000
,  // measure 68
0010
0100
0001
0010
0100
0010
0001
1000
,  // measure 69
0100
0010
0100
1000
0010
0100
0001
0010
,  // measure 70
0100
0010
0001
1000
0010
0100
0001
0010
,  // measure 71
0100
1000
0010
0100
0001
0010
0100
1000
,  // measure 72
0002
0000
2000
3003
,  // measure 73
1000
0101
0000
0000
,  // measure 74
0000
0000
0000
0000
,  // measure 75
0001
1100
0000
0000
,  // measure 76
0000
0000
0000
0000
,  // measure 77
1000
0000
0001
0000
0110
0000
0000
0010
,  // measure 78
1000
0100
0110
0000
,  // measure 79
0010
0001
1001
0010
,  // measure 80
0100
0000
0010
0000
1000
0100
0010
0000
,  // measure 81
0001
0010
0100
1000
0000
0001
0100
0010
,  // measure 82
1000
0100
0010
0001
0000
0001
0010
0000
,  // measure 83
0100
1000
0001
0000
0100
0010
1000
0000
,  // measure 84
0100
0010
0001
1000
0000
1000
0001
0000
,  // measure 85
0100
0010
1000
0001
0000
1000
0100
0010
,  // measure 86
0001
0010
0100
1000
0000
1000
0001
0000
,  // measure 87
1000
0010
0100
0000
0001
0100
0010
0000
,  // measure 88
1000
0100
0010
0001
1000
0000
1001
0000
,  // measure 89
1000
0001
0100
0010
1000
0100
0010
0001
,  // measure 90
0010
0100
1000
0001
0100
0010
0010
0010
,  // measure 91
1000
0100
0010
0001
0010
0100
1000
0100
,  // measure 92
0010
0001
1000
0010
0100
0000
0100
0100
,  // measure 93
0001
0000
0010
0000
0100
1000
0001
0010
,  // measure 94
0001
1000
0010
0100
0001
0010
0100
1000
,  // measure 95
0001
0000
0001
0000
0100
0010
1000
0100
,  // measure 96
0010
0001
0000
1000
0000
0001
0100
0000
,  // measure 97
0010
1000
0100
1000
,  // measure 98
0001
0010
0001
1000
,  // measure 99
0001
0100
0010
1000
,  // measure 100
0000
1001
0000
0110
0000
0001
1000
0001
,  // measure 101
0100
0000
0010
1000
0100
0000
0110
0000
,  // measure 102
0010
0000
0001
1000
0010
0100
0001
0100
,  // measure 103
0010
0000
1000
0100
0010
0000
0001
0000
,  // measure 104
0010
0000
0100
0000
1000
0001
0100
0010
;
