#TITLE:(Nonstop 03);
#SUBTITLE:;
#ARTIST:"Mixed and Fixed";
#TITLETRANSLIT:;
#SUBTITLETRANSLIT:;
#ARTISTTRANSLIT:;
#CREDIT:;
#BANNER:ns.png;
#BACKGROUND:ns-bg.png;
#LYRICSPATH:;
#CDTITLE:;
#MUSIC:ns.ogg;
#OFFSET:0.000;
#SAMPLESTART:37.333;
#SAMPLELENGTH:12.000;
#SELECTABLE:YES;
#BPMS:0.000=180.000;
#STOPS:;
#BGCHANGES:;

//---------------dance-single - Renard----------------
#NOTES:
     dance-single:
     Renard:
     Hard:
     9:
     0.566,0.754,0.192,0.064,0.056: // measure 1
0000
0000
0000
0000
,  // measure 2
0000
0000
0000
0000
,  // measure 3
0000
0000
0000
0000
,  // measure 4
0000
0000
0000
0000
,  // measure 5
1000
0000
0000
0000
1000
0000
0001
0100
,  // measure 6
0000
0010
0000
0000
0010
0000
1000
0100
,  // measure 7
0010
0000
0000
0001
0010
0100
0000
1000
,  // measure 8
0001
0000
0100
0010
0000
0000
0000
0000
,  // measure 9
1000
0000
0000
0000
0010
0000
0100
0001
,  // measure 10
0000
0100
0000
0000
0010
0000
1000
0100
,  // measure 11
0010
0000
0000
0001
0010
0100
0000
1000
,  // measure 12
0010
0000
0100
0001
0000
0000
0000
0000
,  // measure 13
0100
0000
0000
0000
0010
0000
1000
0100
,  // measure 14
0000
0010
0000
0000
0001
0000
0010
0100
,  // measure 15
1000
0000
0000
0001
0100
0010
0000
1000
,  // measure 16
0100
0000
0010
0001
0000
0000
0000
0000
,  // measure 17
1000
0000
1001
0000
0001
0100
0010
1000
,  // measure 18
0000
1000
0010
0100
0001
0010
0001
1000
,  // measure 19
0001
0000
0101
0000
0001
1000
0100
1000
,  // measure 20
0000
1000
0000
0001
0010
0001
0000
1000
,  // measure 21
0010
0000
1001
0000
1000
0100
0010
0001
,  // measure 22
0000
0001
1000
0000
0001
0100
0010
1000
,  // measure 23
0001
0000
1100
0000
1000
0001
0010
0001
,  // measure 24
0000
0001
1000
0000
0001
0100
0010
1000
,  // measure 25
0100
0000
1000
0000
0001
0000
0010
0001
,  // measure 26
0000
0001
0000
1000
0010
0100
0001
0010
,  // measure 27
0100
0000
1000
0000
0001
0100
0001
1000
,  // measure 28
0000
1000
0000
0001
0100
0010
0000
1000
,  // measure 29
0100
0000
1000
0000
0001
0010
0001
1000
,  // measure 30
0000
0001
0000
0100
0000
0010
0000
1000
,  // measure 31
0100
0000
1000
0000
0001
0010
0001
1000
,  // measure 32
0000
0000
0000
0000
,  // measure 33
0001
0000
0100
0000
0010
0000
1000
0100
,  // measure 34
0000
0100
0010
0000
0001
0010
0001
0010
,  // measure 35
0100
0000
1000
0000
0010
0000
0100
0001
,  // measure 36
0000
0001
0100
0000
0010
1000
0010
1000
,  // measure 37
0100
0000
0010
0000
0001
0000
1000
0001
,  // measure 38
0000
0001
0100
0000
0010
1000
0010
1000
,  // measure 39
0001
0000
0001
0000
0100
0000
0010
1000
,  // measure 40
0000
0100
0010
0000
0001
0000
1000
0000
,  // measure 41
0001
0000
0100
0000
0010
0000
1000
0100
,  // measure 42
0000
0010
0001
0010
0000
0100
1000
0001
,  // measure 43
0100
0000
0010
0000
1000
0000
0001
0100
,  // measure 44
0000
0001
1000
0100
0000
0010
0001
0010
,  // measure 45
0100
0000
1000
0000
0001
0000
0100
0010
,  // measure 46
0000
1000
0010
0100
0000
0001
1000
0100
,  // measure 47
0010
0000
0001
0000
1000
0000
0010
0200
,  // measure 48
0000
0000
0000
0000
,  // measure 49
0301
0100
0001
0100
0010
0100
0010
0100
,  // measure 50
0001
0100
0001
0100
0010
0100
0010
0100
,  // measure 51
0010
1000
0010
1000
0100
1000
0100
1000
,  // measure 52
0010
1000
0010
1000
0100
1000
0100
1000
,  // measure 53
0100
0010
0100
0010
0001
0010
0001
0010
,  // measure 54
0001
1000
0001
1000
0001
0100
0001
0100
,  // measure 55
0010
0100
0010
0100
1000
0100
1000
0100
,  // measure 56
0010
0100
0010
0100
0010
1000
0010
1000
,  // measure 57
0001
0000
1000
0001
1000
0000
0001
0000
1000
0000
0001
0000
1000
0000
0001
0000
,  // measure 58
1000
0000
0001
1000
0001
0000
1000
0000
0001
0000
1000
0000
0001
0000
1000
0000
,  // measure 59
0001
0000
1000
0001
1000
0000
0001
0000
1000
0000
0001
0000
1000
0000
0001
0000
,  // measure 60
1000
0000
0001
1000
0001
0000
1000
0000
0001
0000
1000
0000
0001
0000
1000
0000
,  // measure 61
0001
0000
1000
0001
1000
0000
0001
0000
1000
0000
0001
1000
0001
0000
1000
0000
,  // measure 62
0001
0000
1000
0001
1000
0000
0001
0000
1000
0000
0001
1000
0001
0000
1000
0000
,  // measure 63
0001
1000
0001
1000
0001
1000
0001
1000
0001
1000
0001
1000
0002
0000
2000
0000
,  // measure 64
0000
0000
0000
3003
,  // measure 65
1001
0000
1001
0000
1001
0000
0010
0100
,  // measure 66
0000
0010
0000
0100
0000
0010
0000
0100
,  // measure 67
0001
0000
0001
0000
1000
0000
0100
0010
,  // measure 68
0000
0001
0000
0010
0000
0100
0000
1000
,  // measure 69
1001
0000
1001
0000
1001
0000
0010
0100
,  // measure 70
1001
0000
1001
0000
1001
0000
0100
0010
,  // measure 71
1001
0000
1001
0000
1001
0000
0010
0200
,  // measure 72
0000
0000
0000
0000
0000
0000
0000
0300
,  // measure 73
0001
0100
0010
0000
1000
0100
0010
0001
,  // measure 74
0000
0001
0010
0000
0100
0000
1000
0001
,  // measure 75
0100
0010
1000
0000
0100
0000
0010
0001
,  // measure 76
0010
0100
1000
0000
0001
0000
0100
0010
,  // measure 77
1000
0000
1100
0000
1000
0001
0010
0001
,  // measure 78
0000
1000
0001
0000
0100
0000
0110
0000
,  // measure 79
0010
1000
0100
1000
0001
0000
0010
0001
,  // measure 80
0000
1000
0010
0000
1001
0000
0110
0000
,  // measure 81
0010
1000
0100
0000
0010
0001
0010
0100
,  // measure 82
0000
1000
0001
0000
0100
0000
0101
0000
,  // measure 83
0001
1000
0100
0000
1000
0000
0001
0010
,  // measure 84
0000
0010
0100
0000
1000
0000
1001
0000
,  // measure 85
0001
0100
0010
0000
1000
0000
0100
0010
,  // measure 86
0000
0001
0010
0000
0100
0000
1100
0000
,  // measure 87
1000
0000
0001
0010
0000
0001
0000
2000
,  // measure 88
0002
0000
0000
3003
,  // measure 89
0220
0000
0000
0000
,  // measure 90
0000
0000
0000
0000
,  // measure 91
0330
0000
0000
0000
;
