#TITLE:(Nonstop 02);
#SUBTITLE:;
#ARTIST:"Crew Conjunction";
#TITLETRANSLIT:;
#SUBTITLETRANSLIT:;
#ARTISTTRANSLIT:;
#CREDIT:;
#BANNER:ns.png;
#BACKGROUND:ns-bg.png;
#LYRICSPATH:;
#CDTITLE:;
#MUSIC:ns.ogg;
#OFFSET:0.000;
#SAMPLESTART:49.263;
#SAMPLELENGTH:12.000;
#SELECTABLE:YES;
#BPMS:0.000=190.000;
#STOPS:;
#BGCHANGES:;

//---------------dance-single - Renard----------------
#NOTES:
     dance-single:
     Renard:
     Hard:
     9:
     0.728,0.664,0.323,0.081,0.000: // measure 1
0000
0000
0000
0000
,  // measure 2
0000
0000
0000
0000
,  // measure 3
0000
0000
0000
0000
,  // measure 4
0000
0000
0000
0000
,  // measure 5
1000
0000
0001
0000
0100
0010
0100
0010
,  // measure 6
0000
1000
0100
0000
0010
0000
0001
0010
,  // measure 7
0100
1000
0010
0100
0001
0010
0100
1000
,  // measure 8
0010
0100
0001
0010
0100
1000
0010
0000
,  // measure 9
1001
0000
0000
0000
,  // measure 10
0000
0000
0000
0000
0010
1000
0100
1000
,  // measure 11
0010
1000
0100
1000
0010
1000
0100
1000
,  // measure 12
0010
1000
0001
0010
0001
0010
0001
0100
,  // measure 13
0001
1000
0001
0100
0001
0010
0001
1000
,  // measure 14
0001
0100
0100
0000
0010
1000
0100
1000
,  // measure 15
0001
1000
0010
1000
0001
0010
0001
1000
,  // measure 16
0001
0100
0010
0100
0010
0100
1000
0100
,  // measure 17
0001
0100
0010
0100
0001
0010
0100
0010
,  // measure 18
0001
1000
1000
0000
0001
0000
0101
0000
,  // measure 19
0001
0100
0010
1000
0000
1000
0010
1000
,  // measure 20
0100
0000
0011
0000
0010
0100
1000
0000
,  // measure 21
0001
0100
0010
1000
0000
1000
0100
0010
,  // measure 22
0001
1000
0001
0000
0100
0010
0100
0000
,  // measure 23
0010
1000
0001
0100
0000
0100
0010
1000
,  // measure 24
0100
0010
0001
0010
0100
1000
0001
0000
,  // measure 25
0100
0001
1000
0100
0000
0100
0010
0001
,  // measure 26
1000
0010
0100
0001
,  // measure 27
0000
1001
1000
1100
,  // measure 28
0000
0000
0011
0000
0001
1000
0001
0000
,  // measure 29
0100
0010
0100
0000
0010
1000
0001
0100
,  // measure 30
0010
1000
0100
0010
0001
0000
0010
0000
,  // measure 31
0100
1000
0001
0010
0000
0001
1000
0010
,  // measure 32
0100
0001
0100
0010
1000
0000
1001
0000
,  // measure 33
1000
1001
0001
1001
,  // measure 34
0001
0100
0010
1000
0200
0000
0000
0000
,  // measure 35
0000
0000
0000
0000
,  // measure 36
0310
0001
0010
0100
1000
0001
0010
0001
,  // measure 37
1000
1000
1000
1000
0001
0001
0001
0001
,  // measure 38
0010
0100
1000
0001
0100
0010
1000
0001
,  // measure 39
0100
0100
0100
0100
0001
0001
0001
0001
,  // measure 40
1000
0100
0010
0001
0010
0100
1000
0001
,  // measure 41
1000
1000
1000
1000
0001
0001
0001
0001
,  // measure 42
0100
0000
0010
0000
1010
0000
1000
0010
,  // measure 43
0100
0001
0010
0100
1000
0001
0001
0000
,  // measure 44
1000
0001
0100
0010
1000
0100
0010
0001
,  // measure 45
0010
0100
0010
0100
0010
0000
0110
0000
,  // measure 46
0100
1000
0001
0100
0010
1000
0001
0000
,  // measure 47
0001
0100
0010
1000
0100
0000
1100
0000
,  // measure 48
1000
0100
0010
0001
1000
0010
0100
0000
,  // measure 49
0001
0010
0100
1000
0001
0000
1001
0000
,  // measure 50
0001
0100
0010
1000
0100
0010
0001
0010
,  // measure 51
0100
1000
0010
0100
0001
0000
1001
0000
,  // measure 52
1000
0100
1000
0001
1000
0010
1000
0001
,  // measure 53
1000
0001
0100
0010
1000
0000
1001
0000
,  // measure 54
1000
0001
1000
0010
1000
0100
1000
0001
,  // measure 55
1000
0010
1000
0001
1000
0000
1001
0000
,  // measure 56
0001
1000
0001
0100
0001
0010
0001
1000
,  // measure 57
0001
0100
0010
0100
1000
0000
1100
0000
,  // measure 58
0100
0010
0100
0010
0100
0001
0100
0001
,  // measure 59
0010
0100
1000
0001
0100
0010
1000
0000
,  // measure 60
1000
0001
1000
0001
1000
0001
1000
0000
,  // measure 61
0001
1000
0001
1000
0001
0000
1001
0000
,  // measure 62
0010
0100
0010
0100
0010
0000
0110
0000
,  // measure 63
0100
0010
0100
0010
0100
0000
0110
0000
,  // measure 64
0010
1000
0100
0010
0001
0010
0100
0000
,  // measure 65
0100
1000
0100
0010
0001
0000
0011
0000
,  // measure 66
0010
0001
1000
0100
1000
0000
1010
0000
,  // measure 67
1000
0001
0100
0001
1000
0000
1001
0000
,  // measure 68
1000
0000
1100
0000
1000
0100
0010
0001
,  // measure 69
1000
0001
0100
0000
0110
0000
1001
0000
,  // measure 70
1000
0100
0010
0001
1000
0001
0100
0010
,  // measure 71
1000
0001
0010
0000
0011
0000
0110
0000
,  // measure 72
1100
0000
1000
0001
0100
0010
1000
0000
,  // measure 73
1001
0000
1000
0100
0010
0001
1000
0000
,  // measure 74
1001
0000
0001
0100
0010
0000
1000
0100
,  // measure 75
0010
0110
1001
0110
,  // measure 76
1001
0000
0001
0000
0100
0000
0010
1000
,  // measure 77
1000
0100
0010
0001
,  // measure 78
1001
0000
0001
0000
0100
0000
0010
1000
,  // measure 79
1000
0000
0001
0100
0010
0000
1010
0000
,  // measure 80
1001
0000
1000
0000
0100
0000
0010
0001
,  // measure 81
0001
0000
0010
0000
0100
1000
0001
0000
,  // measure 82
0100
0000
0010
0000
1000
0000
0100
0010
,  // measure 83
0010
0000
0001
1000
0010
0000
0100
0000
,  // measure 84
2002
0000
0000
3013
,  // measure 85
0001
0010
0100
1000
0001
0010
0100
1000
,  // measure 86
0001
0010
0100
1000
0001
0010
0100
1000
,  // measure 87
1000
0010
0100
0001
1000
0010
0100
0001
,  // measure 88
1000
0010
0100
0001
1000
0010
0100
0001
,  // measure 89
0001
0100
0010
1000
0001
0100
0010
1000
,  // measure 90
0001
0100
0010
1000
0001
0100
0010
1000
,  // measure 91
1000
0100
0010
0001
1000
0100
0010
0001
,  // measure 92
1000
0100
0010
0001
1000
0100
0010
0000
,  // measure 93
0001
0010
0001
0010
0100
0010
0100
0010
,  // measure 94
0100
1000
0100
1000
0010
1000
0010
1000
,  // measure 95
0010
0100
0010
0100
0001
0100
0001
0100
,  // measure 96
0001
0010
0001
0010
0100
0010
0100
0010
,  // measure 97
0100
1000
0100
1000
0001
1000
0001
1000
,  // measure 98
0001
0100
0001
0100
0010
0100
0010
0100
,  // measure 99
0010
1000
0001
0100
0010
1000
0100
0010
,  // measure 100
0001
0010
0100
1000
0001
0100
0010
1000
,  // measure 101
0002
0100
0100
0103
,  // measure 102
2000
0100
0100
3100
,  // measure 103
0020
0001
0001
0031
,  // measure 104
2000
0010
0010
3010
,  // measure 105
0200
1000
1000
1300
,  // measure 106
0002
0010
0010
0013
,  // measure 107
2000
0100
0100
3100
,  // measure 108
2002
0000
0010
3003
,  // measure 109
1000
0001
0100
0000
0101
0000
0001
1000
,  // measure 110
0100
0010
0001
0000
1001
0000
0001
0100
,  // measure 111
0010
1000
0100
0000
1100
0000
1000
0001
,  // measure 112
0010
0100
1000
0000
1001
0000
0001
0100
,  // measure 113
0010
0000
0010
0000
1010
0000
1000
0100
,  // measure 114
0010
0001
1000
0000
1001
0000
0001
0100
,  // measure 115
0010
0000
0010
0000
1010
0000
1000
0100
,  // measure 116
0010
0100
1000
0001
0100
0010
1000
0001
,  // measure 117
1001
0000
0000
0000
;
