#TITLE:(Nonstop 01);
#SUBTITLE:;
#ARTIST:"Brown Street";
#TITLETRANSLIT:;
#SUBTITLETRANSLIT:;
#ARTISTTRANSLIT:;
#CREDIT:;
#BANNER:ns.png;
#BACKGROUND:ns-bg.png;
#LYRICSPATH:;
#CDTITLE:;
#MUSIC:ns.ogg;
#OFFSET:0.000;
#SAMPLESTART:78.596;
#SAMPLELENGTH:12.000;
#SELECTABLE:YES;
#BPMS:0.000=171.000;
#STOPS:;
#BGCHANGES:;

//---------------dance-single - Renard----------------
#NOTES:
     dance-single:
     Renard:
     Hard:
     9:
     0.688,0.694,0.124,0.017,0.099: // measure 1
0000
0000
0000
0000
,  // measure 2
0000
0000
0000
0000
,  // measure 3
0000
0000
0000
0000
,  // measure 4
0000
0000
0000
0000
,  // measure 5
1000
0001
0100
0000
0110
0000
0010
0000
,  // measure 6
1000
0100
0010
0001
,  // measure 7
0010
0100
1000
0000
0110
0000
0010
0000
,  // measure 8
1000
0100
0010
0001
0010
0100
1000
0010
,  // measure 9
0100
0001
0010
0000
0010
0100
1000
0010
,  // measure 10
0000
0010
0100
0001
0010
0100
1000
0001
,  // measure 11
0100
0010
1000
0000
1000
0010
0100
0001
,  // measure 12
0000
0001
0010
0100
0010
0100
1000
0010
,  // measure 13
0100
0001
0001
0001
0100
0000
0110
0000
,  // measure 14
0010
1000
0100
0010
0010
0100
1000
0000
,  // measure 15
2002
0000
0000
0000
,  // measure 16
0000
0000
3013
0000
,  // measure 17
1000
0001
1000
0001
0100
0001
0100
0001
,  // measure 18
0100
0010
0100
0010
0100
1000
0100
1000
,  // measure 19
0001
1000
0001
1000
0001
0010
0001
0010
,  // measure 20
1000
0010
1000
0010
1000
0100
1000
0100
,  // measure 21
0001
0100
0001
0100
0001
1000
0001
1000
,  // measure 22
0010
1000
0010
1000
0010
0001
0010
0001
,  // measure 23
0100
0001
0100
1000
0001
0010
1000
0100
,  // measure 24
0010
0010
0010
0010
0010
0000
0000
0000
,  // measure 25
0010
0001
0010
1000
0010
0000
0110
0000
,  // measure 26
0010
0001
0010
0100
0001
0100
1000
0000
,  // measure 27
1000
0010
0001
0010
1000
0000
1010
0000
,  // measure 28
1000
0010
0100
0000
0101
0000
1100
0000
,  // measure 29
1000
0100
0001
0010
1000
0000
1010
0000
,  // measure 30
0010
0100
1000
0100
0001
0100
1000
0000
,  // measure 31
1000
0001
0100
1000
0001
0000
0011
0000
,  // measure 32
0010
1000
0100
0000
0101
0000
1100
0000
,  // measure 33
1001
0000
0001
0100
0000
0100
0010
1000
,  // measure 34
0100
0010
0000
0010
0001
0010
0100
1000
,  // measure 35
0010
0000
0010
0100
0000
0100
0001
0100
,  // measure 36
1000
0001
0000
0001
0010
1000
0100
0001
,  // measure 37
0100
0010
0001
0010
0000
0010
0100
1000
,  // measure 38
0010
0100
0000
0100
0001
0100
1000
0001
,  // measure 39
0010
1000
0100
0001
0000
0001
0100
0010
,  // measure 40
0001
0010
0000
0010
1000
0010
0100
1000
,  // measure 41
0010
0010
0010
0010
,  // measure 42
0010
0010
0010
0010
,  // measure 43
0010
0100
0001
0010
0100
1000
0010
0100
,  // measure 44
0001
1001
0110
0000
,  // measure 45
0010
1000
0100
0010
0001
0010
0000
0010
,  // measure 46
0100
1000
0010
0100
0000
0100
0001
0010
,  // measure 47
0100
1000
0010
0100
0001
0010
0000
0010
,  // measure 48
0001
0010
0100
1000
0000
1000
0001
0100
,  // measure 49
0010
1000
0100
1000
0001
0010
0000
0010
,  // measure 50
0001
1000
0010
0100
0000
0100
0001
0100
,  // measure 51
1000
0001
0010
1000
0100
0010
0000
0010
,  // measure 52
0001
0010
1000
0010
0100
0001
0100
1000
,  // measure 53
0001
0100
0010
1000
0010
0100
0001
0010
,  // measure 54
0100
1000
0001
0100
0010
0010
0010
0000
,  // measure 55
1000
0100
0010
0001
0010
0100
1000
0010
,  // measure 56
0100
0001
0010
0100
1000
0100
0100
0000
,  // measure 57
1000
0010
0100
0001
0010
0100
1000
0001
,  // measure 58
0010
0100
1000
0001
0100
0100
0100
0000
,  // measure 59
0001
0010
0100
1000
0001
0100
0010
1000
,  // measure 60
0100
0000
0010
0000
0001
0000
1000
0000
0001
0000
1000
0001
0000
1000
0001
0000
,  // measure 61
1000
1000
0001
0001
0100
0100
0010
0010
,  // measure 62
1000
1000
0100
0100
0010
0001
0010
0100
,  // measure 63
1000
1000
0001
0001
0010
0010
0001
0001
,  // measure 64
1000
1000
0010
0010
0100
0001
0100
0010
,  // measure 65
1000
0000
0001
0000
0100
0000
0010
0000
1000
0000
0001
1000
0000
0001
0000
0000
,  // measure 66
1000
0000
0100
0000
0010
0000
0001
0000
0010
0000
0100
1000
0000
0001
0000
0000
,  // measure 67
1000
0000
0100
0000
0010
0000
0001
0000
1000
0000
0001
0100
0000
0010
0000
0000
,  // measure 68
1000
0000
0001
0000
1000
0000
0001
0000
0100
0000
0100
0010
0000
0000
0000
0000
,  // measure 69
1000
0010
1000
0000
0010
0000
1000
0000
0001
0100
0001
0000
0100
0000
0001
0000
,  // measure 70
0010
0001
0010
0000
0001
0000
0010
0000
0100
0000
0100
0000
0100
0000
0100
0000
,  // measure 71
1000
0100
1000
0000
0100
0000
1000
0000
0001
0010
0001
0000
0010
0000
0001
0000
,  // measure 72
1000
0001
1000
0000
0001
0000
1000
0000
0010
0000
0010
0000
0010
0000
0010
0000
,  // measure 73
0100
0001
0100
0000
0001
0000
0100
0000
0001
1000
0001
0000
1000
0000
0001
0000
,  // measure 74
1000
0100
1000
0000
0100
0000
1000
0000
0001
0000
0001
0000
0001
0000
0001
0000
,  // measure 75
0010
0100
0010
0000
0100
0000
0000
0000
1000
0000
0001
0000
1000
0000
0000
0000
,  // measure 76
0001
0000
0001
0000
0001
0000
0001
0000
0001
0000
0001
1000
0000
0000
0000
0000
,  // measure 77
0001
0100
1000
0001
0010
1000
0100
0001
,  // measure 78
0100
0010
0001
0010
0100
0100
0100
0100
,  // measure 79
1000
0010
0100
0001
0100
1000
0001
0010
,  // measure 80
1000
0100
0010
0001
0010
0001
0010
0001
,  // measure 81
0010
0001
0010
0000
0100
0000
1000
0000
0010
0000
0100
0000
0001
0000
0100
0000
,  // measure 82
1000
0100
1000
0000
0100
0000
0010
0000
1000
0000
0100
0000
0010
0000
0001
0000
,  // measure 83
1000
0100
1000
0000
0100
0000
0000
0000
0001
0000
0100
0000
0010
0000
0000
0000
,  // measure 84
0001
0000
0010
0000
0100
0000
1000
0000
0010
0000
0100
0001
0000
0000
0000
0000
;
