#TITLE:Ziggurat;
#SUBTITLE:;
#ARTIST:Plusfuchs;
#GENRE:Trancecore;
#TITLETRANSLIT:;
#SUBTITLETRANSLIT:;
#ARTISTTRANSLIT:;
#CREDIT:;
#BANNER:zigg.png;
#BACKGROUND:zigg-bg.png;
#LYRICSPATH:;
#CDTITLE:;
#MUSIC:zigg.ogg;
#OFFSET:-0.010;
#SAMPLESTART:54.857;
#SAMPLELENGTH:12.000;
#SELECTABLE:YES;
#BPMS:0.000=175.000;
#STOPS:;
#BGCHANGES:;

//---------------dance-single - Renard----------------
#NOTES:
     dance-single:
     Renard:
     Challenge:
     12:
     0.992,1.000,0.318,0.000,0.734:
0000
0000
0000
0000
,
0000
0000
0000
0000
,
0000
0000
0000
0000
,
0000
0000
0000
0000
,
0010
0010
0010
0001
0001
0001
0100
0100
,
0100
0010
0010
0010
1000
0100
1001
0000
,
1000
1000
1000
0100
0100
0100
0010
0010
,
0001
0001
0100
0100
0010
0010
1001
0000
,
1000
0100
0010
0000
0001
0010
0000
0100
1000
0000
0001
1000
0000
0001
1000
0000
,
0001
0010
0100
0000
1000
0100
0000
0010
0001
0000
1000
0001
0000
1000
0001
0000
,
1000
0010
0100
0000
0001
0100
0000
0010
1000
0000
0001
1000
0000
0001
1000
0000
,
0010
1000
0001
0000
0100
0001
0000
1000
0100
0000
1000
0001
0000
1000
0001
0000
,
0001
0010
0100
0000
1000
0100
0000
0010
0001
0000
1000
0001
0000
1000
0001
0000
,
1000
0100
0010
0000
0001
0010
0000
0100
1000
0000
0001
1000
0000
0001
1000
0000
,
0001
0100
0010
0000
1000
0010
0000
0100
0001
0000
1000
0001
0000
1000
0001
0000
,
0100
0001
1000
0000
0010
1000
0000
0001
0010
0000
0001
1000
0000
0001
1000
0000
,
0001
1000
0001
0000
1000
0000
0010
0000
0100
0000
0001
0000
0010
0000
0100
0000
,
1000
0000
0010
0000
0100
0000
0001
0000
1000
0000
0100
1000
0100
0000
0000
0000
,
1000
0001
1000
0000
0001
0000
0100
0000
0010
0000
1000
0000
0100
0000
0010
0000
,
0001
0010
0001
0000
0010
0000
0100
0000
1000
0100
1000
0000
0100
0000
1000
0000
,
0010
0100
0010
0000
0100
0000
0001
0000
1000
0000
0100
0000
0010
0000
0001
0000
,
1000
0000
0001
0000
0100
0000
0001
0000
1000
0100
1000
0000
0001
0000
0000
0000
,
1000
0001
1000
0000
0010
0000
0100
0000
0001
0000
0010
0000
0100
0000
1000
0000
,
0001
1000
0001
0000
1000
0000
0010
0000
0100
0010
0100
0000
0010
0000
0000
0000
,
1000
0001
0100
0001
0010
0100
1000
0010
,
0100
0001
0100
1000
0100
0001
0010
0000
,
1000
0010
0001
0010
0100
1000
0100
0001
,
0100
1000
0100
1000
0100
0010
0100
0000
,
0010
0001
0100
1000
0100
0001
0010
0100
,
1000
0100
0010
0001
0010
0100
1000
0000
,
0010
0100
0001
0100
1000
0100
0001
0010
,
0100
0010
0100
0010
0100
1000
0100
0000
,
1000
0010
1000
0010
0100
0010
0100
0010
,
0100
0001
0100
0001
0100
0001
0100
0001
,
0010
0001
0010
0001
0010
1000
0010
1000
,
0010
0001
0010
0001
0100
0001
0100
0001
,
0100
1000
0100
1000
0001
0010
0001
0010
,
1000
0010
1000
0010
1000
0100
1000
0100
,
0001
0100
0001
0100
1000
0010
1000
0010
,
0001
0010
0100
1000
0100
0001
0001
0000
,
1100
0100
0110
0000
0011
0001
0101
0101
,
0000
0001
0100
0010
1000
0100
0010
0001
,
0000
0001
0011
0010
0110
0110
0000
1100
,
0000
0010
0100
0001
0100
0001
1000
0000
,
0011
0010
0110
0000
1100
1000
1010
1010
,
0000
1000
0010
0100
0001
0010
0100
1000
,
0000
1000
1100
0100
0110
0110
0000
0011
,
0000
0100
0010
1000
0010
1000
0001
0000
,
1000
0000
0001
1000
0001
0000
1000
0000
0010
0000
0100
0000
0001
0000
0010
0000
,
0100
0000
1000
0001
1000
0000
0001
0000
0010
0000
0100
0000
1000
0000
0000
0000
,
0010
0000
1000
0001
1000
0000
0001
0000
1000
0000
0010
0000
1000
0000
0001
0000
,
0100
0000
0001
1000
0001
0000
1000
0000
0010
0000
1000
0001
1000
0000
0001
0000
,
1000
0000
0100
0010
0100
0000
0010
0000
0001
0000
1000
0000
0010
0000
0100
0000
,
0010
0000
0100
0010
0100
0000
0010
0000
1000
0000
0100
0000
0010
0000
0001
0000
,
1000
0000
0001
1000
0001
0000
0100
0000
0010
0000
1000
0001
1000
0000
0010
0000
,
0100
0000
0001
0010
0001
0000
1000
0000
0001
0000
1000
0000
0100
0000
1000
0000
,
0010
0000
0100
0001
0100
0000
0100
0010
0000
0010
1000
0000
0100
0000
0010
0000
,
0001
0000
1000
0001
0100
0000
0100
0001
0000
0001
1000
0000
0100
0000
1000
0001
,
1000
0000
1000
0001
0100
0000
0100
0010
0000
0010
1000
0000
0010
0000
0100
0001
,
1000
0000
1000
0001
0100
0000
0100
0001
0000
0001
1000
0000
0100
0000
0010
0000
,
0001
0000
0100
0000
0101
0000
0100
0010
0000
0010
1000
0000
1010
0000
1000
0100
,
0010
0000
0001
0000
0011
0000
0010
0100
0000
0100
0010
0000
0110
0000
0100
1000
,
0010
0000
1000
0000
1010
0000
0010
0100
0000
0100
0010
0000
0110
0000
0100
0001
,
0010
0000
0001
0000
0011
0000
0010
0100
0000
0100
0010
0000
0110
0000
0100
1000
,
0001
0010
0100
1000
0100
0010
0001
0010
0100
1000
0100
0010
0001
0010
0100
0000
,
1000
0010
0100
0001
0100
0010
1000
0010
0100
0001
0100
0010
1000
0010
0100
0000
,
0001
1000
0100
1000
0001
0100
0001
1000
0100
1000
0001
0100
0001
1000
0100
0000
,
1000
0001
0010
0001
1000
0010
1000
0001
0010
0001
1000
0010
1000
0001
0010
0000
,
0001
0010
0001
0010
0100
0010
0100
0010
0100
1000
0100
1000
0010
1000
0010
1000
,
0001
0100
0001
0100
0010
0100
0010
0100
0010
1000
0010
1000
0001
1000
0001
1000
,
0100
0010
0100
0010
0001
0010
0001
0010
0001
0100
0001
0100
0010
0100
0010
0100
,
0010
1000
0010
1000
0100
1000
0100
1000
0001
0010
0001
0000
0011
0000
1100
0000
,
1001
0000
0000
0000
;

//---------------dance-single - Renard----------------
#NOTES:
     dance-single:
     Renard:
     Hard:
     9:
     0.709,0.750,0.268,0.000,0.139:
0000
0000
0000
0000
,
0000
0000
0000
0000
,
0000
0000
0000
0000
,
0000
0000
0000
0000
,
0100
0000
0011
0100
0000
0100
1010
0000
,
0100
0000
0011
0100
0000
0100
1010
0000
,
0100
0000
0011
0100
0000
0100
1010
0000
,
0100
1001
1100
0011
,
0001
0100
0010
0100
0001
0100
0010
0100
,
0001
0100
0010
0100
0001
0100
0010
0000
,
1000
0100
0010
0100
1000
0100
0010
0100
,
1000
0100
0010
0100
1000
0100
0010
0000
,
0010
0100
1000
0000
0010
0100
0001
0000
,
0010
0100
1000
0000
0010
0100
0001
0000
,
1000
0100
0010
0000
0001
0100
0010
0000
,
1000
0001
1000
0001
1000
0001
1000
0001
,
1000
0000
0001
0000
0100
0000
0010
1000
0000
1000
0010
0000
0100
0000
0001
0000
,
0010
0100
1000
0010
0100
0000
0001
0000
,
1000
0000
0100
0000
0010
0000
0001
1000
0000
1000
0001
0000
0010
0000
0100
0000
,
1000
0010
0100
0001
1000
0000
0001
0000
,
1000
0000
0010
0000
0100
0000
0001
1000
0000
1000
0001
0000
0100
0000
0010
0000
,
1000
0100
0010
0001
1000
0000
0001
0000
,
1000
0000
0100
0000
0010
0000
0001
1000
0000
1000
0001
0000
0010
0000
0100
0000
,
1000
0010
0100
0001
1000
0000
0001
0000
,
1000
0010
0100
0001
0100
0010
1000
0001
,
0000
0001
1000
0100
0010
0001
1000
0000
,
0001
0010
0100
1000
0010
0100
0001
1000
,
0000
1000
0001
0100
0010
1000
0100
0000
,
0010
0001
0010
0001
0010
0100
0010
0100
,
0000
0100
1000
0010
1000
0010
1000
0000
,
0010
0100
0010
0100
0001
0100
0001
0010
,
0000
0010
0001
1000
0001
1000
0001
0000
,
1000
0001
1000
0001
1000
0010
1000
0010
,
1000
0100
1000
0100
1000
0100
0010
0001
,
0010
0001
0010
0001
0100
0001
0100
0001
,
1000
0001
1000
0001
1000
0100
0010
0001
,
1000
0010
1000
0010
0100
0010
0100
0010
,
0100
0001
0100
0001
0010
0001
0010
0100
,
1000
0100
1000
0100
0010
0100
0010
0100
,
0010
0001
0010
0001
0100
0010
1000
0001
,
1000
0000
1010
0000
0001
0100
0010
1000
,
0000
0100
1000
0000
0001
0010
0100
1000
,
0000
0000
1001
0000
1000
0010
0100
0001
,
0010
0001
1000
0010
0100
0001
1000
0100
,
0010
0000
0011
0000
0010
0100
1000
0010
,
0000
0010
1000
0000
0001
0100
0010
1000
,
0100
0000
1100
0000
0010
0001
0100
0010
,
0000
0010
1000
0001
0100
0001
1000
0100
,
0010
0000
0011
0000
0001
0010
0100
1000
,
0000
1000
0010
0000
0010
0100
0001
0100
,
0010
0000
0110
0000
0010
1000
0100
0010
,
0000
0010
0001
0100
0001
1000
0001
1000
,
0100
0000
1100
0000
0100
0010
0001
1000
,
0000
1000
0001
0000
1000
0010
0100
0001
,
0100
0000
0101
0000
0010
1000
0100
0010
,
0001
0000
1000
0000
0001
0100
0010
1000
,
0100
0000
1000
0000
1100
0000
0000
0010
0000
0000
0001
0000
0100
0000
0000
0000
,
0001
0000
0100
0000
0110
0000
0000
0010
0000
0000
1000
0000
0100
0000
0000
0000
,
0010
0000
0001
0000
1001
0000
0000
0010
0000
0000
1000
0000
1001
0000
0000
0000
,
1000
0000
0010
0000
0101
0000
0000
0010
0000
0000
1000
0000
0100
0000
0000
0000
,
0010
0000
0001
0000
1000
0000
0000
0001
0000
0000
0100
0000
0101
0000
0000
0000
,
0010
0000
1000
0000
0100
0000
0000
1000
0000
0000
0100
0000
1100
0000
0000
0000
,
0100
0000
0010
0000
0011
0000
0000
0001
0000
0000
0100
0000
0010
0000
0000
0000
,
1000
0000
0100
0000
0110
0000
0000
0010
0000
0000
0100
0000
1000
0000
0000
0000
,
0010
0000
0100
0000
0001
0000
0100
0010
0000
0010
1000
0000
0100
0000
0010
0000
,
0001
0010
0100
1000
0010
0100
0001
1000
,
0100
0000
0010
0000
0001
1000
0000
1000
0001
0000
0010
0000
0100
0000
1000
0000
,
0010
0100
0001
1000
0100
1000
0001
0010
,
0001
0000
1000
0000
0010
0100
0000
0100
0001
0000
0100
0000
0010
0000
1000
0000
,
0100
0010
0001
1000
0010
0100
0001
1000
,
0100
0000
1000
0000
0001
0010
0000
0010
0001
0000
0100
0000
0010
1000
0000
1000
,
0010
0000
0100
0000
0001
0010
0000
0010
0100
0000
1000
0000
0010
0000
0100
0000
,
1001
0000
0000
0000
;

//---------------dance-single - Renard----------------
#NOTES:
     dance-single:
     Renard:
     Medium:
     7:
     0.500,0.607,0.288,0.000,0.000:
0000
0000
0000
0000
,
0000
0000
0000
0000
,
0000
0000
0000
0000
,
0000
0000
0000
0000
,
1000
0000
0001
1000
0000
1000
0001
0000
,
1000
0000
0001
1000
0000
1000
0001
0000
,
0100
0000
0010
0100
0000
0100
0010
0000
,
0100
0000
0010
0100
0000
0100
0010
0000
,
1000
0000
0010
0000
1000
0000
0010
1000
,
0010
0000
1000
0000
0010
0000
1000
0010
,
0100
0000
0001
0000
0100
0000
0001
0100
,
0001
0000
0100
0000
0001
0000
0100
0001
,
0010
0000
0001
0000
0010
0000
0001
0010
,
0001
0000
0010
0000
0001
0000
0010
0001
,
0010
0000
0100
0000
1000
0000
0100
1000
,
0100
0000
1000
0000
0010
0100
0001
0000
,
1000
0000
0001
0000
0100
0000
0001
1000
,
0001
0100
0010
1001
,
1000
0000
0100
0000
0010
0000
0001
1000
,
0001
0100
0010
1001
,
1000
0000
0100
0000
1000
0000
0001
0010
,
0001
1000
0010
1001
,
1000
0000
0100
0000
0010
0000
0001
1000
,
0001
1000
0010
1001
,
1000
0000
0100
0000
0010
0000
0001
0010
,
0000
0010
0100
0000
1000
0000
0000
0000
,
0010
0000
0100
0000
0001
0000
1000
0100
,
0000
0100
0010
0000
0001
0000
0000
0000
,
0100
0000
0010
0000
1000
0000
0100
0010
,
0000
0010
0001
0000
0100
0000
0000
0000
,
0010
0000
1000
0000
0100
0000
0010
0001
,
0000
0001
0100
0000
0010
0000
1000
0000
,
0100
1000
0100
1000
,
0100
0010
0100
0010
,
0001
0010
0001
0010
,
0001
0100
0001
0100
,
0010
1000
0010
1000
,
0100
1000
0100
1000
,
0001
0010
0001
0010
,
0001
0000
0100
0000
0010
1000
0010
0000
,
1001
0000
1010
0000
0101
0000
0010
1000
,
0000
1000
0100
0000
0010
0000
0001
0000
,
1001
0000
1010
0000
0101
0000
1000
0100
,
0000
0100
1000
0000
0010
0000
0000
0000
,
0101
0000
1010
0000
0001
0000
0100
0001
,
0000
0001
1000
0000
0100
0000
0010
0000
,
1001
0000
1010
0000
0101
0000
0001
1000
,
0000
1000
0100
0000
0010
0000
0001
1000
,
0001
0000
1000
0000
0001
0000
1000
0001
,
0000
1010
0101
0000
,
1000
0000
0100
0000
0010
0000
0001
1000
,
0000
0101
1010
0000
,
0001
0000
1000
0000
0100
0000
0010
0001
,
0000
1100
0011
0000
,
0001
0000
0100
0000
0010
0000
1000
0001
,
0000
0001
1000
0000
0001
0000
0000
0000
,
1000
0100
1000
0100
1000
0100
1000
0100
,
0010
0100
0010
0100
0010
0100
0010
0000
,
0001
0010
0001
0010
0001
0010
0001
0010
,
0100
0010
0100
0010
0100
0010
0100
0000
,
1000
0010
1000
0010
1000
0010
1000
0010
,
0100
0010
0100
0010
0100
0010
0100
0000
,
0001
0100
0001
0100
0001
0100
0001
0100
,
0010
0100
0010
0100
0010
0100
0010
0000
,
1010
0000
0100
0000
0001
0000
0010
0100
,
0010
0100
1000
0010
,
0101
0000
0010
0000
1000
0000
0100
0010
,
0100
0010
0001
0100
,
0110
0000
0010
0000
1000
0000
0100
0010
,
0100
0010
0001
0100
,
0110
0010
1010
1000
,
0101
0000
1010
0000
1001
0000
1000
0100
,
0010
0000
0000
0000
;

//---------------dance-single - Renard----------------
#NOTES:
     dance-single:
     Renard:
     Easy:
     3:
     0.255,0.357,0.020,0.099,0.000: // measure 1
0000
0000
0000
0000
,  // measure 2
0000
0000
0000
0000
,  // measure 3
0000
0000
0000
0000
,  // measure 4
0000
0000
0000
0000
,  // measure 5
1000
0000
1000
0000
,  // measure 6
0001
0001
0001
0000
,  // measure 7
0100
0000
0100
0000
,  // measure 8
0010
0010
0010
0010
,  // measure 9
1000
0000
0001
0000
,  // measure 10
0200
0000
0000
0000
,  // measure 11
0310
0000
1000
0000
,  // measure 12
0200
0000
0000
0000
,  // measure 13
0310
0000
0001
0000
,  // measure 14
2000
0000
0000
0000
,  // measure 15
3001
0000
1000
0000
,  // measure 16
0002
0000
0000
0000
,  // measure 17
0103
0100
0100
0100
,  // measure 18
0010
0010
0010
0010
,  // measure 19
1000
1000
1000
1000
,  // measure 20
0001
0000
0001
0000
0001
0000
0001
1000
,  // measure 21
0010
0010
0010
0010
,  // measure 22
0100
0100
0100
0000
,  // measure 23
0001
0000
1000
0000
,  // measure 24
0100
0000
0100
0100
,  // measure 25
0010
0000
0000
0010
,  // measure 26
0002
0000
0000
0000
,  // measure 27
0200
0000
0000
0000
,  // measure 28
0020
0000
0333
0000
,  // measure 29
0010
0000
0000
0010
,  // measure 30
2000
0000
0000
0000
,  // measure 31
0200
0000
0000
0000
,  // measure 32
0020
0000
0000
3330
,  // measure 33
1000
1000
1000
0000
,  // measure 34
0010
0000
0010
0000
,  // measure 35
0100
0100
0100
0000
,  // measure 36
0001
0000
0001
0000
,  // measure 37
0010
0010
0010
0000
,  // measure 38
0001
0000
0001
0000
,  // measure 39
1000
1000
1000
0000
,  // measure 40
0100
0000
0100
0000
,  // measure 41
1000
0000
0010
0000
1000
0000
0010
1000
,  // measure 42
0000
0010
0100
0000
,  // measure 43
0001
0000
0100
0000
0001
0000
0010
0001
,  // measure 44
0000
0001
0001
0000
,  // measure 45
0100
0000
0010
0000
1000
0000
0000
0001
,  // measure 46
0000
0100
0001
0000
,  // measure 47
1000
0000
0100
0000
0010
0000
0000
0001
,  // measure 48
0000
1000
0001
0000
,  // measure 49
0100
0000
0000
0000
0001
0000
1000
0001
,  // measure 50
0000
1000
0001
0000
,  // measure 51
1000
0000
0000
0000
0001
0000
0000
1000
,  // measure 52
0000
0001
1000
0000
,  // measure 53
0010
0000
0000
0000
0100
0000
0010
0100
,  // measure 54
0000
0010
0100
0000
,  // measure 55
0010
0000
0000
0000
0100
0000
0000
0010
,  // measure 56
0000
0100
0010
0100
,  // measure 57
0010
0010
1000
0000
,  // measure 58
0001
0100
0001
0000
,  // measure 59
1000
0000
0011
0000
,  // measure 60
0100
0000
1010
0000
,  // measure 61
0100
0000
0100
0000
,  // measure 62
0010
0000
0010
0010
,  // measure 63
1000
0000
0001
0000
,  // measure 64
0100
0000
0001
0000
,  // measure 65
1000
0000
1000
0000
,  // measure 66
1000
0000
1000
0000
,  // measure 67
0001
0000
0001
0000
,  // measure 68
0001
0000
0001
0000
,  // measure 69
0100
0000
0100
0000
,  // measure 70
0100
0000
0100
0000
,  // measure 71
0010
0000
0010
0000
,  // measure 72
1000
0000
0001
1000
,  // measure 73
0001
0000
0000
0000
;
